<?xml version="1.0" standalone="no"?>
<!DOCTYPE svg PUBLIC "-//W3C//DTD SVG 1.1//EN" "http://www.w3.org/Graphics/SVG/1.1/DTD/svg11.dtd" >
<svg xmlns="http://www.w3.org/2000/svg" xmlns:xlink="http://www.w3.org/1999/xlink" version="1.1">
<metadata></metadata>
<defs>
<font id="antarctica_betablack" horiz-adv-x="1295" >
<font-face units-per-em="2000" ascent="1600" descent="-400" />
<missing-glyph horiz-adv-x="413" />
<glyph horiz-adv-x="1000" />
<glyph horiz-adv-x="1000" />
<glyph unicode="&#xd;" horiz-adv-x="0" />
<glyph unicode=" "  horiz-adv-x="413" />
<glyph unicode="&#x09;" horiz-adv-x="413" />
<glyph unicode="&#xa0;" horiz-adv-x="413" />
<glyph unicode="!" horiz-adv-x="716" d="M176 560l-55 561v349h474v-349l-55 -561h-364zM587 0h-458v416h458v-416z" />
<glyph unicode="&#x22;" horiz-adv-x="1277" d="M708 1470h469v-116l-25 -407h-419l-25 407v116zM100 1470h469v-116l-25 -407h-419l-25 407v116z" />
<glyph unicode="#" horiz-adv-x="1532" d="M168 841l42 311h190l41 318h316l-42 -318h211l42 318h316l-42 -318h189l-42 -311h-188l-26 -201h188l-41 -311h-188l-42 -329h-315l42 329h-211l-43 -329h-315l43 329h-191l41 311h190l26 201h-191zM649 640h211l26 201h-211z" />
<glyph unicode="$" horiz-adv-x="1483" d="M564 -246v226q-226 39 -350.5 165t-150.5 310h475q35 -158 229 -158q89 0 140 30t51 80v1q0 48 -43.5 78.5t-143.5 49.5l-227 42q-223 42 -345.5 160t-122.5 306v2q0 173 133 294t355 155v221h325v-222q215 -33 336 -152.5t150 -307.5h-474q-17 65 -67 100.5t-128 35.5 q-77 0 -122 -26.5t-45 -75.5v-1q0 -87 143 -115l227 -42q257 -48 384 -160t127 -298v-2q0 -200 -142.5 -326t-388.5 -153v-217h-325z" />
<glyph unicode="%" horiz-adv-x="2236" d="M493 674q-188 0 -303.5 110.5t-115.5 304.5v2q0 194 115.5 304.5t303.5 110.5t303.5 -110.5t115.5 -304.5v-2q0 -194 -115.5 -304.5t-303.5 -110.5zM594 0l633 1470h417l-633 -1470h-417zM493 891q65 0 93 51t28 147v2q0 96 -28 147t-93 51t-92.5 -51t-27.5 -147v-2 q0 -96 27.5 -147t92.5 -51zM1744 -36q-188 0 -303.5 110.5t-115.5 304.5v2q0 194 115.5 304.5t303.5 110.5q187 0 303 -110.5t116 -304.5v-2q0 -194 -116 -304.5t-303 -110.5zM1744 181q65 0 93 51t28 147v2q0 96 -28 147t-93 51t-93 -51t-28 -147v-2q0 -96 28 -147t93 -51z " />
<glyph unicode="&#x26;" horiz-adv-x="1816" d="M1237 0l-121 118q-101 -80 -214 -117t-268 -37q-264 0 -412.5 119t-148.5 320v5q0 139 84.5 244t237.5 174l-12 12q-53 63 -88.5 142.5t-35.5 155.5v3q0 156 130.5 261.5t356.5 105.5q234 0 358.5 -97t124.5 -258v-4q0 -107 -73.5 -196.5t-193.5 -153.5l148 -145 q19 33 52.5 93.5t46.5 84.5h445q-94 -218 -275 -441l397 -389h-539zM743 1015q69 51 69 128v2q0 81 -66 81q-64 0 -64 -81v-2q0 -56 61 -128zM873 357l-247 243q-101 -78 -101 -182v-6q0 -66 44 -105t113 -39q95 0 191 89z" />
<glyph unicode="'" horiz-adv-x="669" d="M100 1470h469v-116l-25 -407h-419l-25 407v116z" />
<glyph unicode="(" horiz-adv-x="802" d="M752 1580q-130 -207 -200.5 -460t-70.5 -507t70.5 -507t200.5 -460h-375q-124 177 -200.5 445t-76.5 522q0 255 76.5 522.5t200.5 444.5h375z" />
<glyph unicode=")" horiz-adv-x="802" d="M50 1580h375q124 -177 200.5 -444.5t76.5 -522.5q0 -254 -76.5 -522t-200.5 -445h-375q130 208 201 460.5t71 506.5t-71 506.5t-201 460.5z" />
<glyph unicode="*" horiz-adv-x="950" d="M360 757l-191 139l115 156l-184 60l73 225l184 -61v194h236v-194l184 61l73 -224l-184 -61l115 -156l-191 -139l-115 156z" />
<glyph unicode="+" horiz-adv-x="1279" d="M448 925v350h380v-350h351v-380h-351v-349h-380v349h-348v380h348z" />
<glyph unicode="," horiz-adv-x="731" d="M55 -215l144 631h459l-197 -631h-406z" />
<glyph unicode="-" horiz-adv-x="900" d="M100 331v380h700v-380h-700z" />
<glyph unicode="." horiz-adv-x="670" d="M564 0h-458v416h458v-416z" />
<glyph unicode="/" horiz-adv-x="1301" d="M120 -206l611 1676h450l-611 -1676h-450z" />
<glyph unicode="0" horiz-adv-x="1610" d="M805 -36q-343 0 -537 203t-194 567v2q0 364 194 567t537 203t537 -203t194 -567v-2q0 -364 -194 -567t-537 -203zM805 319q256 0 256 415v2q0 415 -256 415t-256 -415v-2q0 -415 256 -415z" />
<glyph unicode="1" horiz-adv-x="1049" d="M364 0v914h-319v374h43q165 0 245.5 36.5t125.5 145.5h374v-1470h-469z" />
<glyph unicode="2" horiz-adv-x="1437" d="M64 0v57q0 146 23.5 253.5t82 201.5t159.5 166.5t254 134.5l97 40q113 46 157.5 88t44.5 103v2q0 59 -39.5 91t-110.5 32q-76 0 -122 -45.5t-50 -141.5h-474q23 259 195.5 391.5t464.5 132.5q183 0 322.5 -48t221 -147.5t81.5 -237.5v-2q0 -178 -100.5 -294t-315.5 -202 l-97 -40q-122 -49 -166.5 -83t-53.5 -78h709v-374h-1283z" />
<glyph unicode="3" horiz-adv-x="1500" d="M780 -36q-195 0 -349 57t-252.5 175t-116.5 284h475q23 -98 82 -138.5t150 -40.5q86 0 139 35t53 98v2q0 140 -237 140h-129v336h129q97 0 145.5 36.5t48.5 96.5v2q0 57 -43.5 89.5t-118.5 32.5q-162 0 -186 -159h-474q32 240 211 368t471 128q131 0 240.5 -25t192 -73.5 t129 -126.5t46.5 -177v-1q0 -106 -47.5 -191.5t-130.5 -127.5v-2q228 -94 228 -341v-2q0 -145 -84.5 -253.5t-232.5 -165t-339 -56.5z" />
<glyph unicode="4" horiz-adv-x="1504" d="M771 0v270h-739v376l739 824h469v-826h232v-374h-232v-270h-469zM457 644h314v361h-2z" />
<glyph unicode="5" horiz-adv-x="1471" d="M745 -36q-177 0 -323.5 56t-240 161t-116.5 243h474q51 -123 200 -123q86 0 139.5 46t53.5 122v2q0 79 -53 127t-139 48q-142 0 -197 -116l-447 56l94 884h1106v-374h-718l-25 -227q123 114 338 114q238 0 376.5 -136t138.5 -364v-1q0 -237 -179.5 -377.5t-481.5 -140.5z " />
<glyph unicode="6" horiz-adv-x="1470" d="M759 -36q-168 0 -299.5 53t-215.5 150t-127 228t-43 291v2q0 142 27 265t83.5 225.5t139 175t198.5 112.5t257 40q126 0 230 -34.5t176 -95t117 -140.5t61 -174h-439q-19 57 -58 82t-104 25q-102 0 -160.5 -78.5t-65.5 -240.5q125 121 348 121q71 0 141.5 -17.5 t137.5 -56t118.5 -94.5t83 -140.5t31.5 -185.5v-2q0 -122 -49.5 -220t-136.5 -161t-202 -96.5t-249 -33.5zM741 301q87 0 143 44.5t56 122.5v2q0 78 -56 123t-143 45q-86 0 -141.5 -45t-55.5 -123v-2q0 -78 55.5 -122.5t141.5 -44.5z" />
<glyph unicode="7" horiz-adv-x="1327" d="M241 0q-6 748 605 1096h-804v374h1244v-374q-295 -188 -437.5 -452.5t-138.5 -643.5h-469z" />
<glyph unicode="8" horiz-adv-x="1462" d="M731 -36q-165 0 -293.5 37.5t-206.5 103t-117.5 147.5t-39.5 177v2q0 116 64.5 207.5t161.5 138.5v1q-85 49 -130.5 131.5t-45.5 190.5v2q0 182 154.5 293t452.5 111t453 -111t155 -293v-2q0 -108 -45.5 -190.5t-130.5 -131.5v-1q97 -47 161.5 -138.5t64.5 -207.5v-2 q0 -75 -24.5 -143t-76.5 -127t-128 -102t-186 -68t-243 -25zM731 920q64 0 103 33.5t39 89.5v2q0 56 -39 90t-103 34t-102.5 -34t-38.5 -90v-2q0 -56 38.5 -89.5t102.5 -33.5zM731 301q86 0 135 40.5t49 103.5v2q0 63 -49 103.5t-135 40.5q-85 0 -134 -40.5t-49 -103.5v-2 q0 -63 49 -103.5t134 -40.5z" />
<glyph unicode="9" horiz-adv-x="1470" d="M711 1506q168 0 299.5 -53t215.5 -150t127 -228t43 -291v-2q0 -178 -43.5 -325.5t-128.5 -258.5t-221 -172.5t-312 -61.5q-247 0 -399.5 124.5t-184.5 319.5h439q20 -57 58.5 -82t103.5 -25q213 0 226 319q-125 -121 -348 -121q-71 0 -141 17.5t-137.5 56t-119 94.5 t-83 140.5t-31.5 185.5v2q0 161 86.5 279t229 175t321.5 57zM729 1169q-87 0 -143 -44.5t-56 -122.5v-2q0 -78 56 -122.5t143 -44.5q86 0 142 44.5t56 122.5v2q0 78 -56 122.5t-142 44.5z" />
<glyph unicode=":" horiz-adv-x="670" d="M564 626h-458v416h458v-416zM564 0h-458v416h458v-416z" />
<glyph unicode=";" horiz-adv-x="750" d="M644 626h-458v416h458v-416zM55 -215l144 631h459l-197 -631h-406z" />
<glyph unicode="&#x3c;" horiz-adv-x="1100" d="M100 893l900 481v-431l-421 -214v-1l421 -213v-431l-900 481v328z" />
<glyph unicode="=" horiz-adv-x="1279" d="M100 792v380h1079v-380h-1079zM100 298v380h1079v-380h-1079z" />
<glyph unicode="&#x3e;" horiz-adv-x="1100" d="M100 1374l900 -481v-328l-900 -481v431l421 213v1l-421 214v431z" />
<glyph unicode="?" horiz-adv-x="1291" d="M645 1170q-54 0 -80.5 -39t-26.5 -122h-479q11 228 170 362.5t422 134.5q265 0 421 -106.5t156 -278.5v-1q0 -112 -55.5 -199t-156.5 -142l-24 -15q-82 -45 -118.5 -91.5t-36.5 -112.5h-431q0 118 41 187.5t134 125.5l29 19q71 42 102.5 80t31.5 90v1q0 49 -24.5 78 t-74.5 29zM850 0h-459v416h459v-416z" />
<glyph unicode="@" horiz-adv-x="1814" d="M781 236q-63 0 -118.5 22.5t-100.5 66.5t-71.5 118t-26.5 168v2q0 122 50 231t149 180.5t226 71.5q80 0 141 -36.5t91 -95.5l12 96h175l-59 -452q-27 -205 72 -205q77 0 127 93t50 251v2q0 241 -149.5 374t-398.5 133q-181 0 -324 -82t-222 -228t-79 -330v-2 q0 -254 150 -403t412 -149q181 0 368 88l70 -161q-195 -100 -438 -100q-346 0 -551.5 199.5t-205.5 536.5v2q0 169 64 316.5t173.5 251t261.5 163t323 59.5q149 0 278.5 -40t232 -118.5t162 -206.5t59.5 -292v-2q0 -123 -33 -225t-87 -167t-122 -100.5t-139 -35.5 q-80 0 -135.5 44.5t-69.5 130.5q-45 -80 -130 -124.5t-187 -44.5zM840 414q118 0 185 90.5t67 223.5v2q0 85 -48 134t-132 49q-108 0 -175 -88t-67 -210v-2q0 -98 44.5 -148.5t125.5 -50.5z" />
<glyph unicode="A" horiz-adv-x="1648" d="M30 0l487 1470h613l488 -1470h-492l-84 305h-437l-84 -305h-491zM705 670h237l-118 427h-2z" />
<glyph unicode="B" horiz-adv-x="1466" d="M116 0v1470h703q257 0 387.5 -98.5t130.5 -272.5v-2q0 -107 -53.5 -192.5t-130.5 -125.5v-1q124 -51 195.5 -132t71.5 -214v-2q0 -206 -149.5 -318t-430.5 -112h-724zM586 917h163q70 0 102.5 24t32.5 74v2q0 51 -32.5 75t-102.5 24h-163v-199zM586 354h200 q149 0 149 108v2q0 108 -149 108h-200v-218z" />
<glyph unicode="C" horiz-adv-x="1640" d="M847 -36q-230 0 -407 92.5t-277.5 268t-100.5 409.5v2q0 234 100.5 409.5t277.5 268t407 92.5q298 0 493.5 -148t246.5 -424h-474q-33 105 -100 151.5t-169 46.5q-131 0 -212 -101t-81 -295v-2q0 -194 81 -295t212 -101q208 0 269 198h474q-51 -276 -246.5 -424 t-493.5 -148z" />
<glyph unicode="D" horiz-adv-x="1612" d="M116 0v1470h609q131 0 247.5 -23t224 -78t184.5 -137.5t123 -209.5t46 -286v-2q0 -154 -45.5 -279t-123 -208.5t-184.5 -140t-224.5 -81.5t-247.5 -25h-609zM586 366h125q172 0 261 84.5t89 283.5v2q0 199 -89 283.5t-261 84.5h-125v-738z" />
<glyph unicode="E" horiz-adv-x="1358" d="M116 0v1470h1129v-374h-659v-173h600v-375h-600v-174h669v-374h-1139z" />
<glyph unicode="F" horiz-adv-x="1302" d="M116 0v1470h1131v-374h-661v-173h601v-375h-601v-548h-470z" />
<glyph unicode="G" horiz-adv-x="1705" d="M815 -36q-159 0 -296 51.5t-239 148t-160 243.5t-58 328v2q0 234 100.5 409.5t277.5 267.5t407 92q295 0 490 -134t250 -383h-474q-60 143 -248 143q-144 0 -229 -100t-85 -295v-2q0 -207 84.5 -308.5t230.5 -101.5q120 0 192 55t72 147v2h-327v328h782v-857h-321l-7 144 q-62 -80 -176 -130t-266 -50z" />
<glyph unicode="H" horiz-adv-x="1582" d="M116 0v1470h470v-530h410v530h470v-1470h-470v531h-410v-531h-470z" />
<glyph unicode="I" horiz-adv-x="702" d="M116 0v1470h470v-1470h-470z" />
<glyph unicode="J" horiz-adv-x="1336" d="M634 -36q-304 0 -454 150t-150 416h466q0 -104 36 -151t110 -47q71 0 101 46t30 152v940h466v-940q0 -266 -150 -416t-455 -150z" />
<glyph unicode="K" horiz-adv-x="1572" d="M116 0v1470h470v-559l399 559h549l-526 -713l561 -757h-577l-406 552v-552h-470z" />
<glyph unicode="L" horiz-adv-x="1201" d="M116 0v1470h470v-1096h573v-374h-1043z" />
<glyph unicode="M" horiz-adv-x="2039" d="M116 0v1470h676l226 -951h2l226 951h676v-1470h-434v677l10 308h-2l-251 -985h-451l-251 985h-2l9 -308v-677h-434z" />
<glyph unicode="N" horiz-adv-x="1582" d="M116 0v1470h587l340 -885h2l-14 411v474h435v-1470h-593l-333 886h-2l13 -412v-474h-435z" />
<glyph unicode="O" horiz-adv-x="1736" d="M868 -36q-235 0 -417 92.5t-285.5 268t-103.5 409.5v2q0 234 103.5 409.5t285.5 268t417 92.5t417 -92.5t285.5 -268t103.5 -409.5v-2q0 -234 -103.5 -409.5t-285.5 -268t-417 -92.5zM868 338q139 0 228 101.5t89 294.5v2q0 193 -89 294.5t-228 101.5t-228 -101.5 t-89 -294.5v-2q0 -193 89 -294.5t228 -101.5z" />
<glyph unicode="P" horiz-adv-x="1443" d="M116 0v1470h623q122 0 220 -14.5t184 -50t144 -92.5t91 -144.5t33 -202.5v-2q0 -115 -33 -203t-91 -144.5t-144 -92.5t-184 -50.5t-220 -14.5h-153v-459h-470zM586 825h145q98 0 144.5 33t46.5 106v2q0 72 -46.5 105t-144.5 33h-145v-279z" />
<glyph unicode="Q" horiz-adv-x="1736" d="M868 -36q-235 0 -417 92.5t-285.5 268t-103.5 409.5v2q0 234 103.5 409.5t285.5 268t417 92.5t417 -92.5t285.5 -268t103.5 -409.5v-2q0 -178 -60.5 -322.5t-172.5 -246.5l322 -361h-463l-172 193q-121 -33 -260 -33zM868 338q139 0 228 101.5t89 294.5v2 q0 193 -89 294.5t-228 101.5t-228 -101.5t-89 -294.5v-2q0 -193 89 -294.5t228 -101.5z" />
<glyph unicode="R" horiz-adv-x="1519" d="M116 0v1470h650q122 0 219.5 -13.5t184 -47.5t144 -88t90.5 -139t33 -197v-2q0 -316 -293 -428l333 -555h-512l-290 497h-89v-497h-470zM586 863h188q88 0 131 27.5t43 92.5v2q0 64 -43 91.5t-131 27.5h-188v-241z" />
<glyph unicode="S" horiz-adv-x="1483" d="M760 -36q-163 0 -291.5 37.5t-211.5 105t-131 155t-63 193.5h475q35 -158 229 -158q89 0 140 30t51 80v1q0 48 -43.5 78.5t-143.5 49.5l-227 42q-223 42 -345.5 160t-122.5 306v2q0 134 82 239t229.5 163t335.5 58q293 0 455.5 -125t196.5 -347h-474q-17 65 -67 100.5 t-128 35.5q-77 0 -122 -26.5t-45 -75.5v-1q0 -87 143 -115l227 -42q257 -48 384 -160t127 -298v-2q0 -227 -179.5 -356.5t-480.5 -129.5z" />
<glyph unicode="T" horiz-adv-x="1409" d="M470 0v1096h-457v374h1383v-374h-457v-1096h-469z" />
<glyph unicode="U" horiz-adv-x="1546" d="M773 -36q-348 0 -507.5 147.5t-159.5 475.5v883h470v-880q0 -127 42 -189.5t155 -62.5q114 0 156 62.5t42 189.5v880h469v-883q0 -328 -159.5 -475.5t-507.5 -147.5z" />
<glyph unicode="V" horiz-adv-x="1654" d="M522 0l-490 1470h492l333 -1024l299 1024h466l-488 -1470h-612z" />
<glyph unicode="W" horiz-adv-x="2106" d="M318 0l-276 1470h475l126 -1009h4l164 1009h485l156 -1009h6l130 1009h477l-278 -1470h-562l-170 1064h-5l-170 -1064h-562z" />
<glyph unicode="X" horiz-adv-x="1686" d="M66 0l514 732l-502 738h560l221 -349l229 349h509l-496 -707l519 -763h-560l-239 374l-246 -374h-509z" />
<glyph unicode="Y" horiz-adv-x="1727" d="M631 0v555l-599 915h503l330 -532h1l108 176l216 356h505l-595 -915v-555h-469z" />
<glyph unicode="Z" horiz-adv-x="1394" d="M82 0v357l627 739h-601v374h1186v-357l-629 -739h648v-374h-1231z" />
<glyph unicode="[" horiz-adv-x="908" d="M100 -354v1934h708v-332h-328v-1270h328v-332h-708z" />
<glyph unicode="\" horiz-adv-x="1301" d="M570 1470l611 -1676h-450l-611 1676h450z" />
<glyph unicode="]" horiz-adv-x="908" d="M808 1580v-1934h-708v332h328v1270h-328v332h708z" />
<glyph unicode="_" horiz-adv-x="1214" d="M50 -424v380h1114v-380h-1114z" />
<glyph unicode="`" horiz-adv-x="870" d="M359 1212l-309 258h511l259 -258h-461z" />
<glyph unicode="a" horiz-adv-x="1277" d="M453 -36q-110 0 -202 38t-148 112t-56 170v2q0 98 47 168.5t141 114t216.5 66.5t291.5 32v22q0 134 -111 134q-96 0 -105 -110h-435q10 83 45.5 151t99.5 121.5t165.5 83t233.5 29.5q127 0 224.5 -24.5t174 -79.5t117 -152.5t39.5 -233.5l-2 -319q-2 -181 35 -289h-417 q-5 37 -7 118q-103 -154 -347 -154zM757 433q-135 -11 -193.5 -37.5t-58.5 -85.5v-2q0 -40 28.5 -66.5t79.5 -26.5q70 0 107 47t37 138v33z" />
<glyph unicode="b" horiz-adv-x="1354" d="M846 -36q-108 0 -186.5 38.5t-120.5 101.5v-104h-452v1470h452v-531q43 63 121 101t186 38q88 0 167.5 -36t143 -104t101 -175.5t37.5 -240.5v-2q0 -133 -37.5 -240.5t-101 -175.5t-143 -104t-167.5 -36zM675 273q74 0 110.5 65t36.5 182v2q0 117 -36.5 182t-110.5 65 q-75 0 -111.5 -65t-36.5 -182v-2q0 -117 36.5 -182t111.5 -65z" />
<glyph unicode="c" horiz-adv-x="1281" d="M645 -36q-272 0 -429 153.5t-157 409.5v2q0 255 157 408.5t429 153.5q251 0 398 -121t179 -317h-442q-9 70 -40 102.5t-86 32.5q-66 0 -99 -68.5t-33 -190.5v-2q0 -123 33 -191.5t99 -68.5q55 0 86 32.5t40 102.5h442q-32 -196 -179 -317t-398 -121z" />
<glyph unicode="d" horiz-adv-x="1354" d="M508 -36q-88 0 -167.5 36t-143 104t-101 175.5t-37.5 240.5v2q0 133 37.5 240.5t101 175.5t143 104t167.5 36q108 0 186 -38t121 -101v531h452v-1470h-452v104q-42 -63 -120.5 -101.5t-186.5 -38.5zM679 273q75 0 111.5 65t36.5 182v2q0 117 -36.5 182t-111.5 65 q-74 0 -110.5 -65t-36.5 -182v-2q0 -117 36.5 -182t110.5 -65z" />
<glyph unicode="e" horiz-adv-x="1325" d="M665 -36q-280 0 -443 149t-163 412v2q0 172 79.5 301.5t214 196t304.5 66.5q162 0 284 -50.5t194 -141.5t104.5 -212t24.5 -267v-1h-752q12 -80 55 -119.5t106 -39.5q111 0 143 73h434q-41 -161 -193.5 -265t-391.5 -104zM511 655h302v1q-3 67 -41.5 111.5t-108.5 44.5 q-132 0 -152 -157z" />
<glyph unicode="f" horiz-adv-x="858" d="M167 0v706h-135v336h135v32q0 206 115 301t370 95h155v-314h-68q-66 0 -93 -21.5t-27 -69.5v-23h188v-336h-188v-706h-452z" />
<glyph unicode="g" horiz-adv-x="1359" d="M525 22q-91 0 -173.5 33.5t-148.5 97.5t-105 166.5t-39 229.5v2q0 127 39 229.5t105 166.5t148.5 97.5t173.5 33.5q102 0 178 -35.5t117 -93.5v93h452v-927q0 -275 -158 -400t-451 -125q-239 0 -386.5 100t-181.5 275h429q12 -46 50.5 -71t92.5 -25q153 0 153 180v101 q-41 -58 -117 -93t-178 -35zM681 330q75 0 113.5 59t38.5 160v2q0 101 -38.5 159.5t-113.5 58.5q-74 0 -112.5 -58.5t-38.5 -159.5v-2q0 -101 38.5 -160t112.5 -59z" />
<glyph unicode="h" d="M87 0v1470h452v-538q112 146 317 146q368 0 368 -411v-667h-453v582q0 87 -28 127t-88 40q-59 0 -87.5 -40t-28.5 -127v-582h-452z" />
<glyph unicode="i" horiz-adv-x="626" d="M87 1141v329h452v-329h-452zM87 0v1042h452v-1042h-452z" />
<glyph unicode="j" horiz-adv-x="627" d="M88 1141v329h452v-329h-452zM-49 -385v328h37q54 0 77 20t23 89v990h452v-1021q0 -228 -105.5 -317t-377.5 -89h-106z" />
<glyph unicode="k" horiz-adv-x="1378" d="M87 0v1470h452v-799l281 371h502l-384 -503l420 -539h-552l-267 341v-341h-452z" />
<glyph unicode="l" horiz-adv-x="626" d="M87 0v1470h452v-1470h-452z" />
<glyph unicode="m" horiz-adv-x="1979" d="M87 0v1042h452v-110q112 146 317 146q245 0 326 -180q58 92 153.5 136t205.5 44q367 0 367 -411v-667h-452v582q0 87 -28.5 127t-87.5 40q-60 0 -88 -40t-28 -127v-582h-453v582q0 87 -28 127t-88 40q-59 0 -87.5 -40t-28.5 -127v-582h-452z" />
<glyph unicode="n" d="M87 0v1042h452v-110q112 146 317 146q368 0 368 -411v-667h-453v582q0 87 -28 127t-88 40q-59 0 -87.5 -40t-28.5 -127v-582h-452z" />
<glyph unicode="o" horiz-adv-x="1329" d="M665 -36q-280 0 -443 153t-163 410v2q0 257 163 409.5t443 152.5t442.5 -152.5t162.5 -409.5v-2q0 -257 -162.5 -410t-442.5 -153zM665 267q141 0 141 260v2q0 259 -141 259q-142 0 -142 -259v-2q0 -260 142 -260z" />
<glyph unicode="p" horiz-adv-x="1354" d="M846 -36q-108 0 -186.5 38.5t-120.5 101.5v-489h-452v1427h452v-103q43 63 121 101t186 38q88 0 167.5 -36t143 -104t101 -175.5t37.5 -240.5v-2q0 -133 -37.5 -240.5t-101 -175.5t-143 -104t-167.5 -36zM675 273q74 0 110.5 65t36.5 182v2q0 117 -36.5 182t-110.5 65 q-75 0 -111.5 -65t-36.5 -182v-2q0 -117 36.5 -182t111.5 -65z" />
<glyph unicode="q" horiz-adv-x="1354" d="M508 -36q-88 0 -167.5 36t-143 104t-101 175.5t-37.5 240.5v2q0 133 37.5 240.5t101 175.5t143 104t167.5 36q108 0 186 -38t121 -101v103h452v-1427h-452v489q-42 -63 -120.5 -101.5t-186.5 -38.5zM679 273q75 0 111.5 65t36.5 182v2q0 117 -36.5 182t-111.5 65 q-74 0 -110.5 -65t-36.5 -182v-2q0 -117 36.5 -182t110.5 -65z" />
<glyph unicode="r" horiz-adv-x="888" d="M87 0v1042h441v-219q33 103 117.5 171t190.5 68h20v-427h-93q-110 0 -167 -41t-57 -156v-438h-452z" />
<glyph unicode="s" horiz-adv-x="1240" d="M637 -36q-263 0 -413 96t-164 266h436q18 -106 138 -106q46 0 74.5 17t28.5 47v2q0 32 -30 51t-107 33l-188 34q-178 32 -265 120.5t-87 209.5v2q0 157 145.5 256t377.5 99q504 0 556 -344h-434q-17 89 -110 89q-40 0 -65 -17.5t-25 -44.5v-2q0 -31 28.5 -49t93.5 -30 l179 -32q195 -35 285.5 -118t90.5 -219v-2q0 -159 -146.5 -258.5t-398.5 -99.5z" />
<glyph unicode="t" horiz-adv-x="889" d="M630 0q-111 0 -191 16t-131.5 45t-82 76.5t-42.5 104t-12 133.5v331h-139v336h139v296h452v-296h192v-336h-192v-242q0 -76 25.5 -102t86.5 -26h79v-336h-184z" />
<glyph unicode="u" d="M439 -34q-367 0 -367 411v665h452v-580q0 -87 28 -127t88 -40t88 40t28 127v580h452v-1042h-452v127q-49 -76 -130.5 -118.5t-186.5 -42.5z" />
<glyph unicode="v" horiz-adv-x="1297" d="M395 0l-382 1042h472l177 -600l178 600h444l-381 -1042h-508z" />
<glyph unicode="w" horiz-adv-x="1876" d="M311 0l-287 1042h438l142 -617l141 617h386l143 -617l142 617h436l-286 -1042h-476l-152 642l-150 -642h-477z" />
<glyph unicode="x" horiz-adv-x="1384" d="M33 0l425 526l-411 516h493l158 -221l159 221h485l-414 -510l423 -532h-493l-169 237l-173 -237h-483z" />
<glyph unicode="y" horiz-adv-x="1336" d="M217 -385l173 382l-377 1045h456l189 -602h2l240 602h423l-651 -1427h-455z" />
<glyph unicode="z" horiz-adv-x="1173" d="M63 0v327l516 379h-512v336h1018v-326l-524 -380h550v-336h-1048z" />
<glyph unicode="{" horiz-adv-x="901" d="M98 527v172q83 27 108 69t25 155v198q0 129 28.5 218.5t88.5 143t145.5 76.5t205.5 22l102 -1v-332h-37q-93 0 -122.5 -35.5t-29.5 -146.5v-154q0 -94 -24 -152t-65.5 -88t-120.5 -58v-2q59 -21 94.5 -41.5t64 -54t40 -82t11.5 -120.5v-154q0 -111 29.5 -146.5 t122.5 -35.5h37v-332l-102 -1q-120 -1 -205.5 22t-145.5 76.5t-88.5 143t-28.5 218.5v198q0 113 -25 155t-108 69z" />
<glyph unicode="|" horiz-adv-x="620" d="M120 -206v1852h381v-1852h-381z" />
<glyph unicode="}" horiz-adv-x="901" d="M803 699v-172q-82 -27 -107.5 -69t-25.5 -155v-198q0 -129 -28.5 -218.5t-88.5 -143t-145.5 -76.5t-205.5 -22l-102 1v332h38q92 0 122 35.5t30 146.5v154q0 72 11.5 120.5t40 82t63.5 54t94 41.5v2q-58 21 -93.5 41.5t-63.5 54t-40 82t-12 120.5v154q0 110 -30 146 t-122 36h-38v332l102 1q120 1 205.5 -22t145.5 -76.5t88.5 -143t28.5 -218.5v-198q0 -113 25.5 -155t107.5 -69z" />
<glyph unicode="&#xa2;" horiz-adv-x="1281" d="M454 203v203q-187 49 -291 191t-104 348v2q0 206 104 348.5t291 191.5v199h405v-204q155 -45 247 -153t116 -257h-442q-9 70 -40 102.5t-86 32.5q-66 0 -99 -68.5t-33 -191.5v-2q0 -122 33 -190.5t99 -68.5q55 0 86 32.5t40 102.5h442q-24 -149 -116 -257.5t-247 -152.5 v-208h-405z" />
<glyph unicode="&#xa3;" horiz-adv-x="1491" d="M91 563v325h146q-25 76 -25 168v3q0 212 159 330t431 118q114 0 210 -25.5t178 -80t137 -149.5t74 -225h-466q-11 76 -47.5 110t-89.5 34q-59 0 -92 -34t-33 -98v-2q0 -75 28 -149h452v-325h-350q-11 -106 -136 -189h712v-374h-1248v364q170 85 194 199h-234z" />
<glyph unicode="&#xa8;" horiz-adv-x="924" d="M359 1216h-308v254h308v-254zM873 1216h-308v254h308v-254z" />
<glyph unicode="&#xab;" horiz-adv-x="1461" d="M299 192l-236 373l236 372h466l-229 -372l229 -373h-466zM892 192l-236 373l236 372h466l-229 -372l229 -373h-466z" />
<glyph unicode="&#xad;" horiz-adv-x="900" d="M100 331v380h700v-380h-700z" />
<glyph unicode="&#xb4;" horiz-adv-x="870" d="M820 1470l-309 -258h-461l259 258h511z" />
<glyph unicode="&#xb8;" horiz-adv-x="571" d="M521 -96l-122 -242h-349l182 242h289z" />
<glyph unicode="&#xbb;" horiz-adv-x="1461" d="M1398 565l-236 -373h-466l229 373l-229 372h466zM805 565l-236 -373h-466l229 373l-229 372h466z" />
<glyph unicode="&#xc2;" horiz-adv-x="1648" d="M338 1630l314 268h344l314 -268h-355l-131 104l-131 -104h-355zM30 0l487 1470h613l488 -1470h-492l-84 305h-437l-84 -305h-491zM705 670h237l-118 427h-2z" />
<glyph unicode="&#xce;" horiz-adv-x="702" d="M-135 1630l314 268h344l315 -268h-355l-132 104l-131 -104h-355zM116 0v1470h470v-1470h-470z" />
<glyph unicode="&#xe2;" horiz-adv-x="1277" d="M183 1212l289 258h326l290 -258h-345l-108 104l-107 -104h-345zM453 -36q-110 0 -202 38t-148 112t-56 170v2q0 98 47 168.5t141 114t216.5 66.5t291.5 32v22q0 134 -111 134q-96 0 -105 -110h-435q10 83 45.5 151t99.5 121.5t165.5 83t233.5 29.5q127 0 224.5 -24.5 t174 -79.5t117 -152.5t39.5 -233.5l-2 -319q-2 -181 35 -289h-417q-5 37 -7 118q-103 -154 -347 -154zM757 433q-135 -11 -193.5 -37.5t-58.5 -85.5v-2q0 -40 28.5 -66.5t79.5 -26.5q70 0 107 47t37 138v33z" />
<glyph unicode="&#xee;" horiz-adv-x="626" d="M-139 1212l290 258h326l289 -258h-345l-107 104l-108 -104h-345zM87 0v1042h452v-1042h-452z" />
<glyph unicode="&#x100;" horiz-adv-x="1648" d="M456 1658v240h736v-240h-736zM30 0l487 1470h613l488 -1470h-492l-84 305h-437l-84 -305h-491zM705 670h237l-118 427h-2z" />
<glyph unicode="&#x101;" horiz-adv-x="1277" d="M267 1230v240h736v-240h-736zM453 -36q-110 0 -202 38t-148 112t-56 170v2q0 98 47 168.5t141 114t216.5 66.5t291.5 32v22q0 134 -111 134q-96 0 -105 -110h-435q10 83 45.5 151t99.5 121.5t165.5 83t233.5 29.5q127 0 224.5 -24.5t174 -79.5t117 -152.5t39.5 -233.5 l-2 -319q-2 -181 35 -289h-417q-5 37 -7 118q-103 -154 -347 -154zM757 433q-135 -11 -193.5 -37.5t-58.5 -85.5v-2q0 -40 28.5 -66.5t79.5 -26.5q70 0 107 47t37 138v33z" />
<glyph unicode="&#x102;" horiz-adv-x="1648" d="M411 1898h274q10 -28 49.5 -48.5t89.5 -20.5q49 0 89 20.5t51 48.5h273q-13 -128 -126.5 -204.5t-286.5 -76.5t-286.5 76.5t-126.5 204.5zM30 0l487 1470h613l488 -1470h-492l-84 305h-437l-84 -305h-491zM705 670h237l-118 427h-2z" />
<glyph unicode="&#x103;" horiz-adv-x="1277" d="M223 1470h273q10 -28 50 -48.5t89 -20.5t89 20.5t51 48.5h273q-13 -128 -126.5 -204.5t-286.5 -76.5t-286.5 76.5t-125.5 204.5zM453 -36q-110 0 -202 38t-148 112t-56 170v2q0 98 47 168.5t141 114t216.5 66.5t291.5 32v22q0 134 -111 134q-96 0 -105 -110h-435 q10 83 45.5 151t99.5 121.5t165.5 83t233.5 29.5q127 0 224.5 -24.5t174 -79.5t117 -152.5t39.5 -233.5l-2 -319q-2 -181 35 -289h-417q-5 37 -7 118q-103 -154 -347 -154zM757 433q-135 -11 -193.5 -37.5t-58.5 -85.5v-2q0 -40 28.5 -66.5t79.5 -26.5q70 0 107 47t37 138 v33z" />
<glyph unicode="&#x104;" horiz-adv-x="1648" d="M30 0l487 1470h613l488 -1470q-34 -20 -54.5 -52t-20.5 -63q0 -29 18 -46t48 -17q23 0 54 11l90 -159q-91 -63 -236 -63q-136 0 -222 56.5t-86 146.5q0 97 101 186h-184l-84 305h-437l-84 -305h-491zM705 670h237l-118 427h-2z" />
<glyph unicode="&#x105;" horiz-adv-x="1277" d="M453 -36q-110 0 -202 38t-148 112t-56 170v2q0 98 47 168.5t141 114t216.5 66.5t291.5 32v22q0 134 -111 134q-96 0 -105 -110h-435q10 83 45.5 151t99.5 121.5t165.5 83t233.5 29.5q127 0 224.5 -24.5t174 -79.5t117 -152.5t39.5 -233.5l-2 -319q-2 -181 35 -289 q-34 -20 -54.5 -52t-20.5 -63q0 -29 18 -46t47 -17q24 0 55 11l90 -159q-91 -63 -236 -63q-136 0 -222 56.5t-86 146.5q0 97 101 186h-109q-5 37 -7 118q-103 -154 -347 -154zM757 433q-135 -11 -193.5 -37.5t-58.5 -85.5v-2q0 -40 28.5 -66.5t79.5 -26.5q70 0 107 47 t37 138v33z" />
<glyph unicode="&#x106;" horiz-adv-x="1640" d="M1086 1670h-457l229 228h512zM847 -36q-230 0 -407 92.5t-277.5 268t-100.5 409.5v2q0 234 100.5 409.5t277.5 268t407 92.5q298 0 493.5 -148t246.5 -424h-474q-33 105 -100 151.5t-169 46.5q-131 0 -212 -101t-81 -295v-2q0 -194 81 -295t212 -101q208 0 269 198h474 q-51 -276 -246.5 -424t-493.5 -148z" />
<glyph unicode="&#x107;" horiz-adv-x="1281" d="M1183 1470l-309 -258h-461l258 258h512zM645 -36q-272 0 -429 153.5t-157 409.5v2q0 255 157 408.5t429 153.5q251 0 398 -121t179 -317h-442q-9 70 -40 102.5t-86 32.5q-66 0 -99 -68.5t-33 -190.5v-2q0 -123 33 -191.5t99 -68.5q55 0 86 32.5t40 102.5h442 q-32 -196 -179 -317t-398 -121z" />
<glyph unicode="&#x108;" horiz-adv-x="1640" d="M339 1630l314 268h344l315 -268h-355l-132 104l-131 -104h-355zM847 -36q-230 0 -407 92.5t-277.5 268t-100.5 409.5v2q0 234 100.5 409.5t277.5 268t407 92.5q298 0 493.5 -148t246.5 -424h-474q-33 105 -100 151.5t-169 46.5q-131 0 -212 -101t-81 -295v-2 q0 -194 81 -295t212 -101q208 0 269 198h474q-51 -276 -246.5 -424t-493.5 -148z" />
<glyph unicode="&#x109;" horiz-adv-x="1281" d="M188 1212l289 258h326l290 -258h-345l-108 104l-107 -104h-345zM645 -36q-272 0 -429 153.5t-157 409.5v2q0 255 157 408.5t429 153.5q251 0 398 -121t179 -317h-442q-9 70 -40 102.5t-86 32.5q-66 0 -99 -68.5t-33 -190.5v-2q0 -123 33 -191.5t99 -68.5q55 0 86 32.5 t40 102.5h442q-32 -196 -179 -317t-398 -121z" />
<glyph unicode="&#x10a;" horiz-adv-x="1640" d="M989 1649h-327v249h327v-249zM847 -36q-230 0 -407 92.5t-277.5 268t-100.5 409.5v2q0 234 100.5 409.5t277.5 268t407 92.5q298 0 493.5 -148t246.5 -424h-474q-33 105 -100 151.5t-169 46.5q-131 0 -212 -101t-81 -295v-2q0 -194 81 -295t212 -101q208 0 269 198h474 q-51 -276 -246.5 -424t-493.5 -148z" />
<glyph unicode="&#x10b;" horiz-adv-x="1281" d="M794 1216h-308v254h308v-254zM645 -36q-272 0 -429 153.5t-157 409.5v2q0 255 157 408.5t429 153.5q251 0 398 -121t179 -317h-442q-9 70 -40 102.5t-86 32.5q-66 0 -99 -68.5t-33 -190.5v-2q0 -123 33 -191.5t99 -68.5q55 0 86 32.5t40 102.5h442q-32 -196 -179 -317 t-398 -121z" />
<glyph unicode="&#x10c;" horiz-adv-x="1640" d="M339 1898h355l131 -104l132 104h355l-315 -268h-344zM847 -36q-230 0 -407 92.5t-277.5 268t-100.5 409.5v2q0 234 100.5 409.5t277.5 268t407 92.5q298 0 493.5 -148t246.5 -424h-474q-33 105 -100 151.5t-169 46.5q-131 0 -212 -101t-81 -295v-2q0 -194 81 -295 t212 -101q208 0 269 198h474q-51 -276 -246.5 -424t-493.5 -148z" />
<glyph unicode="&#x10d;" horiz-adv-x="1281" d="M477 1212l-289 258h345l107 -104l108 104h345l-290 -258h-326zM645 -36q-272 0 -429 153.5t-157 409.5v2q0 255 157 408.5t429 153.5q251 0 398 -121t179 -317h-442q-9 70 -40 102.5t-86 32.5q-66 0 -99 -68.5t-33 -190.5v-2q0 -123 33 -191.5t99 -68.5q55 0 86 32.5 t40 102.5h442q-32 -196 -179 -317t-398 -121z" />
<glyph unicode="&#x10e;" horiz-adv-x="1612" d="M99 1898h355l131 -104l131 104h355l-314 -268h-344zM116 0v1470h609q131 0 247.5 -23t224 -78t184.5 -137.5t123 -209.5t46 -286v-2q0 -154 -45.5 -279t-123 -208.5t-184.5 -140t-224.5 -81.5t-247.5 -25h-609zM586 366h125q172 0 261 84.5t89 283.5v2q0 199 -89 283.5 t-261 84.5h-125v-738z" />
<glyph unicode="&#x10f;" horiz-adv-x="1796" d="M508 -36q-88 0 -167.5 36t-143 104t-101 175.5t-37.5 240.5v2q0 133 37.5 240.5t101 175.5t143 104t167.5 36q108 0 186 -38t121 -101v531h452v-1470h-452v104q-42 -63 -120.5 -101.5t-186.5 -38.5zM1417 1470h379v-328h-379v328zM679 273q75 0 111.5 65t36.5 182v2 q0 117 -36.5 182t-111.5 65q-74 0 -110.5 -65t-36.5 -182v-2q0 -117 36.5 -182t110.5 -65z" />
<glyph unicode="&#x110;" horiz-adv-x="1612" d="M116 0v600h-91v270h91v600h609q131 0 247.5 -23t224 -78t184.5 -137.5t123 -209.5t46 -286v-2q0 -154 -45.5 -279t-123 -208.5t-184.5 -140t-224.5 -81.5t-247.5 -25h-609zM586 366h125q172 0 261 84.5t89 283.5v2q0 199 -89 283.5t-261 84.5h-125v-234h236v-270h-236 v-234z" />
<glyph unicode="&#x111;" horiz-adv-x="1354" d="M508 -36q-88 0 -167.5 36t-143 104t-101 175.5t-37.5 240.5v2q0 133 37.5 240.5t101 175.5t143 104t167.5 36q108 0 186 -38t121 -101v236h-323v211h323v84h452v-84h102v-211h-102v-1175h-452v104q-42 -63 -120.5 -101.5t-186.5 -38.5zM679 273q75 0 111.5 65t36.5 182v2 q0 117 -36.5 182t-111.5 65q-74 0 -110.5 -65t-36.5 -182v-2q0 -117 36.5 -182t110.5 -65z" />
<glyph unicode="&#x112;" horiz-adv-x="1358" d="M318 1658v240h736v-240h-736zM116 0v1470h1129v-374h-659v-173h600v-375h-600v-174h669v-374h-1139z" />
<glyph unicode="&#x113;" horiz-adv-x="1325" d="M293 1230v240h737v-240h-737zM665 -36q-280 0 -443 149t-163 412v2q0 172 79.5 301.5t214 196t304.5 66.5q162 0 284 -50.5t194 -141.5t104.5 -212t24.5 -267v-1h-752q12 -80 55 -119.5t106 -39.5q111 0 143 73h434q-41 -161 -193.5 -265t-391.5 -104zM511 655h302v1 q-3 67 -41.5 111.5t-108.5 44.5q-132 0 -152 -157z" />
<glyph unicode="&#x114;" horiz-adv-x="1358" d="M273 1898h273q11 -28 51 -48.5t89 -20.5q50 0 89.5 20.5t49.5 48.5h274q-13 -128 -126.5 -204.5t-286.5 -76.5t-286.5 76.5t-126.5 204.5zM116 0v1470h1129v-374h-659v-173h600v-375h-600v-174h669v-374h-1139z" />
<glyph unicode="&#x115;" horiz-adv-x="1325" d="M249 1470h273q10 -28 50 -48.5t90 -20.5q49 0 89 20.5t50 48.5h273q-13 -128 -126.5 -204.5t-285.5 -76.5q-173 0 -286.5 76.5t-126.5 204.5zM665 -36q-280 0 -443 149t-163 412v2q0 172 79.5 301.5t214 196t304.5 66.5q162 0 284 -50.5t194 -141.5t104.5 -212t24.5 -267 v-1h-752q12 -80 55 -119.5t106 -39.5q111 0 143 73h434q-41 -161 -193.5 -265t-391.5 -104zM511 655h302v1q-3 67 -41.5 111.5t-108.5 44.5q-132 0 -152 -157z" />
<glyph unicode="&#x116;" horiz-adv-x="1358" d="M849 1649h-327v249h327v-249zM116 0v1470h1129v-374h-659v-173h600v-375h-600v-174h669v-374h-1139z" />
<glyph unicode="&#x117;" horiz-adv-x="1325" d="M815 1216h-308v254h308v-254zM665 -36q-280 0 -443 149t-163 412v2q0 172 79.5 301.5t214 196t304.5 66.5q162 0 284 -50.5t194 -141.5t104.5 -212t24.5 -267v-1h-752q12 -80 55 -119.5t106 -39.5q111 0 143 73h434q-41 -161 -193.5 -265t-391.5 -104zM511 655h302v1 q-3 67 -41.5 111.5t-108.5 44.5q-132 0 -152 -157z" />
<glyph unicode="&#x118;" horiz-adv-x="1358" d="M116 0v1470h1129v-374h-659v-173h600v-375h-600v-174h669v-374h-237q-34 -20 -54.5 -52t-20.5 -63q0 -29 17.5 -46t47.5 -17q24 0 54 11l91 -159q-91 -63 -237 -63q-136 0 -221.5 56.5t-85.5 146.5q0 97 100 186h-593z" />
<glyph unicode="&#x119;" horiz-adv-x="1325" d="M949 -167l91 -159q-91 -63 -237 -63q-136 0 -221.5 56.5t-85.5 146.5q0 80 69 155q-236 27 -371 172.5t-135 383.5v2q0 172 79.5 301.5t214 196t304.5 66.5q162 0 284 -50.5t194 -141.5t104.5 -212t24.5 -267v-1h-752q12 -80 55 -119.5t106 -39.5q111 0 143 73h434 q-29 -116 -120 -206t-233 -132q-31 -20 -49.5 -50t-18.5 -60q0 -29 18 -46t48 -17q23 0 54 11zM511 655h302v1q-3 67 -41.5 111.5t-108.5 44.5q-132 0 -152 -157z" />
<glyph unicode="&#x11a;" horiz-adv-x="1358" d="M200 1898h355l131 -104l131 104h355l-314 -268h-344zM116 0v1470h1129v-374h-659v-173h600v-375h-600v-174h669v-374h-1139z" />
<glyph unicode="&#x11b;" horiz-adv-x="1325" d="M499 1212l-290 258h345l108 -104l107 104h345l-289 -258h-326zM665 -36q-280 0 -443 149t-163 412v2q0 172 79.5 301.5t214 196t304.5 66.5q162 0 284 -50.5t194 -141.5t104.5 -212t24.5 -267v-1h-752q12 -80 55 -119.5t106 -39.5q111 0 143 73h434q-41 -161 -193.5 -265 t-391.5 -104zM511 655h302v1q-3 67 -41.5 111.5t-108.5 44.5q-132 0 -152 -157z" />
<glyph unicode="&#x11c;" horiz-adv-x="1705" d="M340 1630l314 268h344l314 -268h-355l-131 104l-131 -104h-355zM815 -36q-159 0 -296 51.5t-239 148t-160 243.5t-58 328v2q0 234 100.5 409.5t277.5 267.5t407 92q295 0 490 -134t250 -383h-474q-60 143 -248 143q-144 0 -229 -100t-85 -295v-2q0 -207 84.5 -308.5 t230.5 -101.5q120 0 192 55t72 147v2h-327v328h782v-857h-321l-7 144q-62 -80 -176 -130t-266 -50z" />
<glyph unicode="&#x11d;" horiz-adv-x="1359" d="M213 1212l290 258h326l289 -258h-345l-107 104l-107 -104h-346zM525 22q-91 0 -173.5 33.5t-148.5 97.5t-105 166.5t-39 229.5v2q0 127 39 229.5t105 166.5t148.5 97.5t173.5 33.5q102 0 178 -35.5t117 -93.5v93h452v-927q0 -275 -158 -400t-451 -125q-239 0 -386.5 100 t-181.5 275h429q12 -46 50.5 -71t92.5 -25q153 0 153 180v101q-41 -58 -117 -93t-178 -35zM681 330q75 0 113.5 59t38.5 160v2q0 101 -38.5 159.5t-113.5 58.5q-74 0 -112.5 -58.5t-38.5 -159.5v-2q0 -101 38.5 -160t112.5 -59z" />
<glyph unicode="&#x11e;" horiz-adv-x="1705" d="M413 1898h273q11 -28 51 -48.5t89 -20.5q50 0 89.5 20.5t49.5 48.5h274q-13 -128 -126.5 -204.5t-286.5 -76.5t-286.5 76.5t-126.5 204.5zM815 -36q-159 0 -296 51.5t-239 148t-160 243.5t-58 328v2q0 234 100.5 409.5t277.5 267.5t407 92q295 0 490 -134t250 -383h-474 q-60 143 -248 143q-144 0 -229 -100t-85 -295v-2q0 -207 84.5 -308.5t230.5 -101.5q120 0 192 55t72 147v2h-327v328h782v-857h-321l-7 144q-62 -80 -176 -130t-266 -50z" />
<glyph unicode="&#x11f;" horiz-adv-x="1359" d="M253 1470h273q11 -28 51 -48.5t89 -20.5q50 0 89.5 20.5t49.5 48.5h274q-13 -128 -126.5 -204.5t-286.5 -76.5t-286.5 76.5t-126.5 204.5zM525 22q-91 0 -173.5 33.5t-148.5 97.5t-105 166.5t-39 229.5v2q0 127 39 229.5t105 166.5t148.5 97.5t173.5 33.5 q102 0 178 -35.5t117 -93.5v93h452v-927q0 -275 -158 -400t-451 -125q-239 0 -386.5 100t-181.5 275h429q12 -46 50.5 -71t92.5 -25q153 0 153 180v101q-41 -58 -117 -93t-178 -35zM681 330q75 0 113.5 59t38.5 160v2q0 101 -38.5 159.5t-113.5 58.5q-74 0 -112.5 -58.5 t-38.5 -159.5v-2q0 -101 38.5 -160t112.5 -59z" />
<glyph unicode="&#x120;" horiz-adv-x="1705" d="M989 1649h-327v249h327v-249zM815 -36q-159 0 -296 51.5t-239 148t-160 243.5t-58 328v2q0 234 100.5 409.5t277.5 267.5t407 92q295 0 490 -134t250 -383h-474q-60 143 -248 143q-144 0 -229 -100t-85 -295v-2q0 -207 84.5 -308.5t230.5 -101.5q120 0 192 55t72 147v2 h-327v328h782v-857h-321l-7 144q-62 -80 -176 -130t-266 -50z" />
<glyph unicode="&#x121;" horiz-adv-x="1359" d="M819 1216h-307v254h307v-254zM525 22q-91 0 -173.5 33.5t-148.5 97.5t-105 166.5t-39 229.5v2q0 127 39 229.5t105 166.5t148.5 97.5t173.5 33.5q102 0 178 -35.5t117 -93.5v93h452v-927q0 -275 -158 -400t-451 -125q-239 0 -386.5 100t-181.5 275h429q12 -46 50.5 -71 t92.5 -25q153 0 153 180v101q-41 -58 -117 -93t-178 -35zM681 330q75 0 113.5 59t38.5 160v2q0 101 -38.5 159.5t-113.5 58.5q-74 0 -112.5 -58.5t-38.5 -159.5v-2q0 -101 38.5 -160t112.5 -59z" />
<glyph unicode="&#x122;" horiz-adv-x="1705" d="M815 -36q-159 0 -296 51.5t-239 148t-160 243.5t-58 328v2q0 234 100.5 409.5t277.5 267.5t407 92q295 0 490 -134t250 -383h-474q-60 143 -248 143q-144 0 -229 -100t-85 -295v-2q0 -207 84.5 -308.5t230.5 -101.5q120 0 192 55t72 147v2h-327v328h782v-857h-321l-7 144 q-62 -80 -176 -130t-266 -50zM1004 -96l-182 -242h-289l122 242h349z" />
<glyph unicode="&#x123;" horiz-adv-x="1359" d="M1020 1470l-122 -242h-349l182 242h289zM525 22q-91 0 -173.5 33.5t-148.5 97.5t-105 166.5t-39 229.5v2q0 127 39 229.5t105 166.5t148.5 97.5t173.5 33.5q102 0 178 -35.5t117 -93.5v93h452v-927q0 -275 -158 -400t-451 -125q-239 0 -386.5 100t-181.5 275h429 q12 -46 50.5 -71t92.5 -25q153 0 153 180v101q-41 -58 -117 -93t-178 -35zM681 330q75 0 113.5 59t38.5 160v2q0 101 -38.5 159.5t-113.5 58.5q-74 0 -112.5 -58.5t-38.5 -159.5v-2q0 -101 38.5 -160t112.5 -59z" />
<glyph unicode="&#x124;" horiz-adv-x="1582" d="M305 1630l314 268h345l314 -268h-355l-131 104l-132 -104h-355zM116 0v1470h470v-530h410v530h470v-1470h-470v531h-410v-531h-470z" />
<glyph unicode="&#x125;" d="M-140 1640l290 258h326l289 -258h-345l-107 104l-108 -104h-345zM87 0v1470h452v-538q112 146 317 146q368 0 368 -411v-667h-453v582q0 87 -28 127t-88 40q-59 0 -87.5 -40t-28.5 -127v-582h-452z" />
<glyph unicode="&#x126;" horiz-adv-x="1582" d="M116 0v1070h-150v269h150v131h470v-131h410v131h470v-131h150v-269h-150v-1070h-470v531h-410v-531h-470zM586 940h410v130h-410v-130z" />
<glyph unicode="&#x127;" d="M87 0v1165h-120v211h120v94h452v-94h305v-211h-305v-233q112 146 317 146q368 0 368 -411v-667h-453v582q0 87 -28 127t-88 40q-59 0 -87.5 -40t-28.5 -127v-582h-452z" />
<glyph unicode="&#x128;" horiz-adv-x="702" d="M496 1920h239q0 -127 -64.5 -208.5t-165.5 -81.5q-47 0 -97.5 19t-90 37.5t-60.5 18.5q-50 0 -51 -63h-240q0 127 65 208t166 81q48 0 97 -18.5t87.5 -37t62.5 -18.5q51 0 52 63zM116 0v1470h470v-1470h-470z" />
<glyph unicode="&#x129;" horiz-adv-x="626" d="M458 1492h240q0 -126 -65 -208t-166 -82q-47 0 -97 19t-89.5 37.5t-60.5 18.5q-51 0 -52 -62h-239q0 126 65 207.5t165 81.5q48 0 97 -19t88 -37.5t63 -18.5q49 0 51 63zM87 0v1042h452v-1042h-452z" />
<glyph unicode="&#x12a;" horiz-adv-x="702" d="M-17 1658v240h737v-240h-737zM116 0v1470h470v-1470h-470z" />
<glyph unicode="&#x12b;" horiz-adv-x="626" d="M-55 1230v240h737v-240h-737zM87 0v1042h452v-1042h-452z" />
<glyph unicode="&#x12e;" horiz-adv-x="702" d="M116 0v1470h470v-1470h-80q-34 -20 -54.5 -52t-20.5 -63q0 -29 17.5 -46t47.5 -17q24 0 54 11l91 -159q-91 -63 -237 -63q-136 0 -221.5 56.5t-85.5 146.5q0 97 100 186h-81z" />
<glyph unicode="&#x12f;" horiz-adv-x="626" d="M87 1141v329h452v-329h-452zM87 0v1042h452v-1042h-71q-34 -20 -54.5 -52t-20.5 -63q0 -29 17.5 -46t47.5 -17q24 0 54 11l91 -159q-91 -63 -237 -63q-136 0 -221.5 56.5t-85.5 146.5q0 97 100 186h-72z" />
<glyph unicode="&#x130;" horiz-adv-x="702" d="M515 1649h-327v249h327v-249zM116 0v1470h470v-1470h-470z" />
<glyph unicode="&#x131;" horiz-adv-x="626" d="M87 0v1042h452v-1042h-452z" />
<glyph unicode="&#x132;" horiz-adv-x="2038" d="M116 0v1470h470v-1470h-470zM1336 -36q-305 0 -454.5 150t-149.5 416h466q0 -104 36 -151t110 -47q71 0 101 46t30 152v940h466v-940q0 -266 -150 -416t-455 -150z" />
<glyph unicode="&#x133;" horiz-adv-x="1254" d="M87 1141v329h452v-329h-452zM714 1141v329h453v-329h-453zM87 0v1042h452v-1042h-452zM578 -385v328h36q55 0 77.5 19.5t22.5 89.5v990h453v-1021q0 -228 -106 -317t-377 -89h-106z" />
<glyph unicode="&#x134;" horiz-adv-x="1336" d="M520 1630l314 268h344l314 -268h-355l-131 104l-131 -104h-355zM634 -36q-304 0 -454 150t-150 416h466q0 -104 36 -151t110 -47q71 0 101 46t30 152v940h466v-940q0 -266 -150 -416t-455 -150z" />
<glyph unicode="&#x135;" horiz-adv-x="627" d="M-139 1212l290 258h326l289 -258h-345l-107 104l-108 -104h-345zM-49 -385v328h37q54 0 77 20t23 89v990h452v-1021q0 -228 -105.5 -317t-377.5 -89h-106z" />
<glyph unicode="&#x136;" horiz-adv-x="1572" d="M116 0v1470h470v-559l399 559h549l-526 -713l561 -757h-577l-406 552v-552h-470zM1021 -96l-182 -242h-289l122 242h349z" />
<glyph unicode="&#x137;" horiz-adv-x="1378" d="M87 0v1470h452v-799l281 371h502l-384 -503l420 -539h-552l-267 341v-341h-452zM901 -96l-182 -242h-289l122 242h349z" />
<glyph unicode="&#x139;" horiz-adv-x="1201" d="M612 1670h-457l229 228h512zM116 0v1470h470v-1096h573v-374h-1043z" />
<glyph unicode="&#x13a;" horiz-adv-x="626" d="M856 1898l-309 -258h-461l259 258h511zM87 0v1470h452v-1470h-452z" />
<glyph unicode="&#x13b;" horiz-adv-x="1201" d="M116 0v1470h470v-1096h573v-374h-1043zM816 -96l-182 -242h-289l122 242h349z" />
<glyph unicode="&#x13c;" horiz-adv-x="626" d="M87 0v1470h452v-1470h-452zM491 -96l-182 -242h-289l122 242h349z" />
<glyph unicode="&#x13d;" horiz-adv-x="1201" d="M709 1670h379v-328h-379v328zM116 0v1470h470v-1096h573v-374h-1043z" />
<glyph unicode="&#x13e;" horiz-adv-x="1069" d="M87 0v1470h452v-1470h-452zM689 1470h379v-328h-379v328z" />
<glyph unicode="&#x13f;" horiz-adv-x="1237" d="M116 0v1470h470v-1096h573v-374h-1043zM1174 713h-458v416h458v-416z" />
<glyph unicode="&#x140;" horiz-adv-x="1198" d="M87 0v1470h452v-1470h-452zM1148 527h-459v417h459v-417z" />
<glyph unicode="&#x143;" horiz-adv-x="1582" d="M1052 1670h-457l229 228h512zM116 0v1470h587l340 -885h2l-14 411v474h435v-1470h-593l-333 886h-2l13 -412v-474h-435z" />
<glyph unicode="&#x144;" d="M1197 1470l-308 -258h-461l258 258h511zM87 0v1042h452v-110q112 146 317 146q368 0 368 -411v-667h-453v582q0 87 -28 127t-88 40q-59 0 -87.5 -40t-28.5 -127v-582h-452z" />
<glyph unicode="&#x145;" horiz-adv-x="1582" d="M116 0v1470h587l340 -885h2l-14 411v474h435v-1470h-593l-333 886h-2l13 -412v-474h-435zM969 -96l-182 -242h-289l122 242h349z" />
<glyph unicode="&#x146;" d="M87 0v1042h452v-110q112 146 317 146q368 0 368 -411v-667h-453v582q0 87 -28 127t-88 40q-59 0 -87.5 -40t-28.5 -127v-582h-452zM833 -96l-182 -242h-289l122 242h349z" />
<glyph unicode="&#x147;" horiz-adv-x="1582" d="M305 1898h355l131 -104l132 104h355l-315 -268h-344zM116 0v1470h587l340 -885h2l-14 411v474h435v-1470h-593l-333 886h-2l13 -412v-474h-435z" />
<glyph unicode="&#x148;" d="M492 1212l-289 258h345l107 -104l108 104h345l-290 -258h-326zM87 0v1042h452v-110q112 146 317 146q368 0 368 -411v-667h-453v582q0 87 -28 127t-88 40q-59 0 -87.5 -40t-28.5 -127v-582h-452z" />
<glyph unicode="&#x149;" d="M472 1470l-107 -328h-437l137 328h407zM87 0v1042h452v-110q112 146 317 146q368 0 368 -411v-667h-453v582q0 87 -28 127t-88 40q-59 0 -87.5 -40t-28.5 -127v-582h-452z" />
<glyph unicode="&#x14c;" horiz-adv-x="1736" d="M500 1658v240h736v-240h-736zM868 -36q-235 0 -417 92.5t-285.5 268t-103.5 409.5v2q0 234 103.5 409.5t285.5 268t417 92.5t417 -92.5t285.5 -268t103.5 -409.5v-2q0 -234 -103.5 -409.5t-285.5 -268t-417 -92.5zM868 338q139 0 228 101.5t89 294.5v2q0 193 -89 294.5 t-228 101.5t-228 -101.5t-89 -294.5v-2q0 -193 89 -294.5t228 -101.5z" />
<glyph unicode="&#x14d;" horiz-adv-x="1329" d="M296 1230v240h737v-240h-737zM665 -36q-280 0 -443 153t-163 410v2q0 257 163 409.5t443 152.5t442.5 -152.5t162.5 -409.5v-2q0 -257 -162.5 -410t-442.5 -153zM665 267q141 0 141 260v2q0 259 -141 259q-142 0 -142 -259v-2q0 -260 142 -260z" />
<glyph unicode="&#x14e;" horiz-adv-x="1736" d="M455 1898h273q11 -28 51 -48.5t89 -20.5t89 20.5t51 48.5h273q-13 -128 -126.5 -204.5t-286.5 -76.5t-286.5 76.5t-126.5 204.5zM868 -36q-235 0 -417 92.5t-285.5 268t-103.5 409.5v2q0 234 103.5 409.5t285.5 268t417 92.5t417 -92.5t285.5 -268t103.5 -409.5v-2 q0 -234 -103.5 -409.5t-285.5 -268t-417 -92.5zM868 338q139 0 228 101.5t89 294.5v2q0 193 -89 294.5t-228 101.5t-228 -101.5t-89 -294.5v-2q0 -193 89 -294.5t228 -101.5z" />
<glyph unicode="&#x14f;" horiz-adv-x="1329" d="M252 1470h273q10 -28 50 -48.5t90 -20.5q49 0 89 20.5t50 48.5h273q-13 -128 -126.5 -204.5t-285.5 -76.5q-173 0 -286.5 76.5t-126.5 204.5zM665 -36q-280 0 -443 153t-163 410v2q0 257 163 409.5t443 152.5t442.5 -152.5t162.5 -409.5v-2q0 -257 -162.5 -410 t-442.5 -153zM665 267q141 0 141 260v2q0 259 -141 259q-142 0 -142 -259v-2q0 -260 142 -260z" />
<glyph unicode="&#x150;" horiz-adv-x="1736" d="M808 1670h-456l229 228h511zM1397 1670h-457l229 228h512zM868 -36q-235 0 -417 92.5t-285.5 268t-103.5 409.5v2q0 234 103.5 409.5t285.5 268t417 92.5t417 -92.5t285.5 -268t103.5 -409.5v-2q0 -234 -103.5 -409.5t-285.5 -268t-417 -92.5zM868 338q139 0 228 101.5 t89 294.5v2q0 193 -89 294.5t-228 101.5t-228 -101.5t-89 -294.5v-2q0 -193 89 -294.5t228 -101.5z" />
<glyph unicode="&#x151;" horiz-adv-x="1329" d="M851 1470l-254 -258h-398l241 258h411zM1353 1470l-254 -258h-398l241 258h411zM665 -36q-280 0 -443 153t-163 410v2q0 257 163 409.5t443 152.5t442.5 -152.5t162.5 -409.5v-2q0 -257 -162.5 -410t-442.5 -153zM665 267q141 0 141 260v2q0 259 -141 259 q-142 0 -142 -259v-2q0 -260 142 -260z" />
<glyph unicode="&#x152;" horiz-adv-x="2427" d="M868 -36q-235 0 -417 92.5t-285.5 268t-103.5 409.5v2q0 234 103.5 409.5t285.5 268t417 92.5q174 0 318 -51v15h1129v-374h-660v-173h600v-375h-600v-174h669v-374h-1138v15q-144 -51 -318 -51zM868 338q139 0 228 101.5t89 294.5v2q0 193 -89 294.5t-228 101.5 t-228 -101.5t-89 -294.5v-2q0 -193 89 -294.5t228 -101.5z" />
<glyph unicode="&#x153;" horiz-adv-x="2073" d="M665 -36q-280 0 -443 153t-163 410v2q0 257 163 409.5t443 152.5q225 0 378 -102q151 102 363 102q162 0 284 -50.5t194 -141.5t104.5 -212t24.5 -267v-1h-751q12 -80 54.5 -119.5t106.5 -39.5q49 0 88 18t54 55h435q-42 -161 -194.5 -265t-391.5 -104q-225 0 -377 98 q-151 -98 -372 -98zM1260 655h302v1q-3 67 -41.5 111.5t-108.5 44.5q-131 0 -152 -157zM665 267q141 0 141 260v2q0 259 -141 259q-142 0 -142 -259v-2q0 -260 142 -260z" />
<glyph unicode="&#x154;" horiz-adv-x="1519" d="M966 1670h-457l229 228h512zM116 0v1470h650q122 0 219.5 -13.5t184 -47.5t144 -88t90.5 -139t33 -197v-2q0 -316 -293 -428l333 -555h-512l-290 497h-89v-497h-470zM586 863h188q88 0 131 27.5t43 92.5v2q0 64 -43 91.5t-131 27.5h-188v-241z" />
<glyph unicode="&#x155;" horiz-adv-x="888" d="M1014 1470l-309 -258h-461l259 258h511zM87 0v1042h441v-219q33 103 117.5 171t190.5 68h20v-427h-93q-110 0 -167 -41t-57 -156v-438h-452z" />
<glyph unicode="&#x156;" horiz-adv-x="1519" d="M116 0v1470h650q122 0 219.5 -13.5t184 -47.5t144 -88t90.5 -139t33 -197v-2q0 -316 -293 -428l333 -555h-512l-290 497h-89v-497h-470zM586 863h188q88 0 131 27.5t43 92.5v2q0 64 -43 91.5t-131 27.5h-188v-241zM974 -96l-182 -242h-289l122 242h349z" />
<glyph unicode="&#x157;" horiz-adv-x="888" d="M87 0v1042h441v-219q33 103 117.5 171t190.5 68h20v-427h-93q-110 0 -167 -41t-57 -156v-438h-452zM490 -96l-181 -242h-289l122 242h348z" />
<glyph unicode="&#x158;" horiz-adv-x="1519" d="M220 1898h355l131 -104l131 104h355l-314 -268h-344zM116 0v1470h650q122 0 219.5 -13.5t184 -47.5t144 -88t90.5 -139t33 -197v-2q0 -316 -293 -428l333 -555h-512l-290 497h-89v-497h-470zM586 863h188q88 0 131 27.5t43 92.5v2q0 64 -43 91.5t-131 27.5h-188v-241z " />
<glyph unicode="&#x159;" horiz-adv-x="888" d="M309 1212l-290 258h345l108 -104l107 104h345l-289 -258h-326zM87 0v1042h441v-219q33 103 117.5 171t190.5 68h20v-427h-93q-110 0 -167 -41t-57 -156v-438h-452z" />
<glyph unicode="&#x15a;" horiz-adv-x="1483" d="M1002 1670h-457l229 228h512zM760 -36q-163 0 -291.5 37.5t-211.5 105t-131 155t-63 193.5h475q35 -158 229 -158q89 0 140 30t51 80v1q0 48 -43.5 78.5t-143.5 49.5l-227 42q-223 42 -345.5 160t-122.5 306v2q0 134 82 239t229.5 163t335.5 58q293 0 455.5 -125 t196.5 -347h-474q-17 65 -67 100.5t-128 35.5q-77 0 -122 -26.5t-45 -75.5v-1q0 -87 143 -115l227 -42q257 -48 384 -160t127 -298v-2q0 -227 -179.5 -356.5t-480.5 -129.5z" />
<glyph unicode="&#x15b;" horiz-adv-x="1240" d="M1162 1470l-309 -258h-461l259 258h511zM637 -36q-263 0 -413 96t-164 266h436q18 -106 138 -106q46 0 74.5 17t28.5 47v2q0 32 -30 51t-107 33l-188 34q-178 32 -265 120.5t-87 209.5v2q0 157 145.5 256t377.5 99q504 0 556 -344h-434q-17 89 -110 89q-40 0 -65 -17.5 t-25 -44.5v-2q0 -31 28.5 -49t93.5 -30l179 -32q195 -35 285.5 -118t90.5 -219v-2q0 -159 -146.5 -258.5t-398.5 -99.5z" />
<glyph unicode="&#x15c;" horiz-adv-x="1483" d="M256 1630l314 268h344l314 -268h-355l-131 104l-131 -104h-355zM760 -36q-163 0 -291.5 37.5t-211.5 105t-131 155t-63 193.5h475q35 -158 229 -158q89 0 140 30t51 80v1q0 48 -43.5 78.5t-143.5 49.5l-227 42q-223 42 -345.5 160t-122.5 306v2q0 134 82 239t229.5 163 t335.5 58q293 0 455.5 -125t196.5 -347h-474q-17 65 -67 100.5t-128 35.5q-77 0 -122 -26.5t-45 -75.5v-1q0 -87 143 -115l227 -42q257 -48 384 -160t127 -298v-2q0 -227 -179.5 -356.5t-480.5 -129.5z" />
<glyph unicode="&#x15d;" horiz-adv-x="1240" d="M168 1212l289 258h326l290 -258h-346l-107 104l-107 -104h-345zM637 -36q-263 0 -413 96t-164 266h436q18 -106 138 -106q46 0 74.5 17t28.5 47v2q0 32 -30 51t-107 33l-188 34q-178 32 -265 120.5t-87 209.5v2q0 157 145.5 256t377.5 99q504 0 556 -344h-434 q-17 89 -110 89q-40 0 -65 -17.5t-25 -44.5v-2q0 -31 28.5 -49t93.5 -30l179 -32q195 -35 285.5 -118t90.5 -219v-2q0 -159 -146.5 -258.5t-398.5 -99.5z" />
<glyph unicode="&#x15e;" horiz-adv-x="1483" d="M760 -36q-163 0 -291.5 37.5t-211.5 105t-131 155t-63 193.5h475q35 -158 229 -158q89 0 140 30t51 80v1q0 48 -43.5 78.5t-143.5 49.5l-227 42q-223 42 -345.5 160t-122.5 306v2q0 134 82 239t229.5 163t335.5 58q293 0 455.5 -125t196.5 -347h-474q-17 65 -67 100.5 t-128 35.5q-77 0 -122 -26.5t-45 -75.5v-1q0 -87 143 -115l227 -42q257 -48 384 -160t127 -298v-2q0 -227 -179.5 -356.5t-480.5 -129.5zM877 -96l-122 -242h-349l182 242h289z" />
<glyph unicode="&#x15f;" horiz-adv-x="1240" d="M637 -36q-263 0 -413 96t-164 266h436q18 -106 138 -106q46 0 74.5 17t28.5 47v2q0 32 -30 51t-107 33l-188 34q-178 32 -265 120.5t-87 209.5v2q0 157 145.5 256t377.5 99q504 0 556 -344h-434q-17 89 -110 89q-40 0 -65 -17.5t-25 -44.5v-2q0 -31 28.5 -49t93.5 -30 l179 -32q195 -35 285.5 -118t90.5 -219v-2q0 -159 -146.5 -258.5t-398.5 -99.5zM755 -96l-122 -242h-349l182 242h289z" />
<glyph unicode="&#x160;" horiz-adv-x="1483" d="M256 1898h355l131 -104l131 104h355l-314 -268h-344zM760 -36q-163 0 -291.5 37.5t-211.5 105t-131 155t-63 193.5h475q35 -158 229 -158q89 0 140 30t51 80v1q0 48 -43.5 78.5t-143.5 49.5l-227 42q-223 42 -345.5 160t-122.5 306v2q0 134 82 239t229.5 163t335.5 58 q293 0 455.5 -125t196.5 -347h-474q-17 65 -67 100.5t-128 35.5q-77 0 -122 -26.5t-45 -75.5v-1q0 -87 143 -115l227 -42q257 -48 384 -160t127 -298v-2q0 -227 -179.5 -356.5t-480.5 -129.5z" />
<glyph unicode="&#x161;" horiz-adv-x="1240" d="M457 1212l-289 258h345l107 -104l107 104h346l-290 -258h-326zM637 -36q-263 0 -413 96t-164 266h436q18 -106 138 -106q46 0 74.5 17t28.5 47v2q0 32 -30 51t-107 33l-188 34q-178 32 -265 120.5t-87 209.5v2q0 157 145.5 256t377.5 99q504 0 556 -344h-434 q-17 89 -110 89q-40 0 -65 -17.5t-25 -44.5v-2q0 -31 28.5 -49t93.5 -30l179 -32q195 -35 285.5 -118t90.5 -219v-2q0 -159 -146.5 -258.5t-398.5 -99.5z" />
<glyph unicode="&#x162;" horiz-adv-x="1409" d="M470 0v1096h-457v374h1383v-374h-457v-1096h-469zM840 -96l-122 -242h-349l182 242h289z" />
<glyph unicode="&#x163;" horiz-adv-x="889" d="M630 0q-111 0 -191 16t-131.5 45t-82 76.5t-42.5 104t-12 133.5v331h-139v336h139v296h452v-296h192v-336h-192v-242q0 -76 25.5 -102t86.5 -26h79v-336h-184zM601 -96l-182 -242h-289l122 242h349z" />
<glyph unicode="&#x164;" horiz-adv-x="1409" d="M219 1898h355l131 -104l131 104h355l-314 -268h-344zM470 0v1096h-457v374h1383v-374h-457v-1096h-469z" />
<glyph unicode="&#x165;" horiz-adv-x="1148" d="M761 1670h379v-328h-379v328zM630 0q-111 0 -191 16t-131.5 45t-82 76.5t-42.5 104t-12 133.5v331h-139v336h139v296h452v-296h192v-336h-192v-242q0 -76 25.5 -102t86.5 -26h79v-336h-184z" />
<glyph unicode="&#x166;" horiz-adv-x="1409" d="M470 0v653h-240v269h240v174h-457v374h1383v-374h-457v-174h240v-269h-240v-653h-469z" />
<glyph unicode="&#x167;" horiz-adv-x="889" d="M630 0q-111 0 -191 16t-131.5 45t-82 76.5t-42.5 104t-12 133.5v50h-139v193h139v88h-139v336h139v296h452v-296h192v-336h-192v-88h192v-193h-190q6 -53 31.5 -71t78.5 -18h79v-336h-184z" />
<glyph unicode="&#x168;" horiz-adv-x="1546" d="M918 1920h239q0 -127 -64.5 -208.5t-165.5 -81.5q-47 0 -97.5 19t-90 37.5t-60.5 18.5q-50 0 -51 -63h-240q0 127 64.5 208t165.5 81q49 0 97.5 -18.5t87.5 -37t63 -18.5q51 0 52 63zM773 -36q-348 0 -507.5 147.5t-159.5 475.5v883h470v-880q0 -127 42 -189.5t155 -62.5 q114 0 156 62.5t42 189.5v880h469v-883q0 -328 -159.5 -475.5t-507.5 -147.5z" />
<glyph unicode="&#x169;" d="M785 1492h239q0 -126 -65 -208t-165 -82q-47 0 -97.5 19t-90 37.5t-60.5 18.5q-51 0 -52 -62h-239q0 126 65 207.5t165 81.5q49 0 97.5 -19t87.5 -37.5t63 -18.5q51 0 52 63zM439 -34q-367 0 -367 411v665h452v-580q0 -87 28 -127t88 -40t88 40t28 127v580h452v-1042 h-452v127q-49 -76 -130.5 -118.5t-186.5 -42.5z" />
<glyph unicode="&#x16a;" horiz-adv-x="1546" d="M405 1658v240h736v-240h-736zM773 -36q-348 0 -507.5 147.5t-159.5 475.5v883h470v-880q0 -127 42 -189.5t155 -62.5q114 0 156 62.5t42 189.5v880h469v-883q0 -328 -159.5 -475.5t-507.5 -147.5z" />
<glyph unicode="&#x16b;" d="M272 1230v240h736v-240h-736zM439 -34q-367 0 -367 411v665h452v-580q0 -87 28 -127t88 -40t88 40t28 127v580h452v-1042h-452v127q-49 -76 -130.5 -118.5t-186.5 -42.5z" />
<glyph unicode="&#x16c;" horiz-adv-x="1546" d="M360 1898h274q10 -28 49.5 -48.5t89.5 -20.5q49 0 89 20.5t51 48.5h273q-13 -128 -126.5 -204.5t-286.5 -76.5t-286.5 76.5t-126.5 204.5zM773 -36q-348 0 -507.5 147.5t-159.5 475.5v883h470v-880q0 -127 42 -189.5t155 -62.5q114 0 156 62.5t42 189.5v880h469v-883 q0 -328 -159.5 -475.5t-507.5 -147.5z" />
<glyph unicode="&#x16d;" d="M227 1470h273q11 -28 51 -48.5t89 -20.5t89 20.5t51 48.5h273q-13 -128 -126.5 -204.5t-286.5 -76.5t-286.5 76.5t-126.5 204.5zM439 -34q-367 0 -367 411v665h452v-580q0 -87 28 -127t88 -40t88 40t28 127v580h452v-1042h-452v127q-49 -76 -130.5 -118.5t-186.5 -42.5z " />
<glyph unicode="&#x16e;" horiz-adv-x="1546" d="M538 1847q0 92 71.5 162.5t163.5 70.5q95 0 165 -70t70 -163q0 -97 -69 -167t-166 -70q-95 0 -165 70.5t-70 166.5zM704 1846q0 -30 19.5 -49t48.5 -19q30 0 48 18t18 50q0 29 -18 47.5t-48 18.5q-29 0 -48.5 -19.5t-19.5 -46.5zM773 -36q-348 0 -507.5 147.5 t-159.5 475.5v883h470v-880q0 -127 42 -189.5t155 -62.5q114 0 156 62.5t42 189.5v880h469v-883q0 -328 -159.5 -475.5t-507.5 -147.5z" />
<glyph unicode="&#x16f;" d="M405 1422q0 92 71.5 162.5t163.5 70.5q94 0 164.5 -70t70.5 -163q0 -96 -69.5 -166.5t-165.5 -70.5q-95 0 -165 70.5t-70 166.5zM571 1421q0 -30 19.5 -49t48.5 -19q30 0 48 18t18 50q0 29 -18 47.5t-48 18.5q-29 0 -48.5 -19.5t-19.5 -46.5zM439 -34q-367 0 -367 411 v665h452v-580q0 -87 28 -127t88 -40t88 40t28 127v580h452v-1042h-452v127q-49 -76 -130.5 -118.5t-186.5 -42.5z" />
<glyph unicode="&#x170;" horiz-adv-x="1546" d="M714 1670h-457l229 228h512zM1302 1670h-457l229 228h512zM773 -36q-348 0 -507.5 147.5t-159.5 475.5v883h470v-880q0 -127 42 -189.5t155 -62.5q114 0 156 62.5t42 189.5v880h469v-883q0 -328 -159.5 -475.5t-507.5 -147.5z" />
<glyph unicode="&#x171;" d="M826 1470l-254 -258h-397l240 258h411zM1328 1470l-254 -258h-397l240 258h411zM439 -34q-367 0 -367 411v665h452v-580q0 -87 28 -127t88 -40t88 40t28 127v580h452v-1042h-452v127q-49 -76 -130.5 -118.5t-186.5 -42.5z" />
<glyph unicode="&#x172;" horiz-adv-x="1546" d="M972 -167l91 -159q-91 -63 -237 -63q-136 0 -221.5 56.5t-85.5 146.5q0 82 74 161q-252 35 -369.5 182t-117.5 430v883h470v-880q0 -127 42 -189.5t155 -62.5q114 0 156 62.5t42 189.5v880h469v-883q0 -300 -132.5 -448t-419.5 -171q-36 -41 -36 -83q0 -29 18 -46t48 -17 q23 0 54 11z" />
<glyph unicode="&#x173;" d="M439 -34q-367 0 -367 411v665h452v-580q0 -87 28 -127t88 -40t88 40t28 127v580h452v-1042h-72q-34 -20 -54.5 -52t-20.5 -63q0 -29 17.5 -46t47.5 -17q24 0 54 11l91 -159q-91 -63 -237 -63q-136 0 -221.5 56.5t-85.5 146.5q0 97 100 186h-71v127q-49 -76 -130.5 -118.5 t-186.5 -42.5z" />
<glyph unicode="&#x174;" horiz-adv-x="2106" d="M567 1630l314 268h344l314 -268h-355l-131 104l-131 -104h-355zM318 0l-276 1470h475l126 -1009h4l164 1009h485l156 -1009h6l130 1009h477l-278 -1470h-562l-170 1064h-5l-170 -1064h-562z" />
<glyph unicode="&#x175;" horiz-adv-x="1876" d="M486 1212l289 258h326l290 -258h-345l-108 104l-107 -104h-345zM311 0l-287 1042h438l142 -617l141 617h386l143 -617l142 617h436l-286 -1042h-476l-152 642l-150 -642h-477z" />
<glyph unicode="&#x176;" horiz-adv-x="1727" d="M378 1630l314 268h344l314 -268h-355l-131 104l-131 -104h-355zM631 0v555l-599 915h503l330 -532h1l108 176l216 356h505l-595 -915v-555h-469z" />
<glyph unicode="&#x177;" horiz-adv-x="1336" d="M216 1212l289 258h326l290 -258h-345l-108 104l-107 -104h-345zM217 -385l173 382l-377 1045h456l189 -602h2l240 602h423l-651 -1427h-455z" />
<glyph unicode="&#x178;" horiz-adv-x="1727" d="M771 1650h-327v248h327v-248zM1284 1650h-327v248h327v-248zM631 0v555l-599 915h503l330 -532h1l108 176l216 356h505l-595 -915v-555h-469z" />
<glyph unicode="&#x179;" horiz-adv-x="1394" d="M1000 1670h-457l229 228h512zM82 0v357l627 739h-601v374h1186v-357l-629 -739h648v-374h-1231z" />
<glyph unicode="&#x17a;" horiz-adv-x="1173" d="M1150 1470l-309 -258h-461l259 258h511zM63 0v327l516 379h-512v336h1018v-326l-524 -380h550v-336h-1048z" />
<glyph unicode="&#x17b;" horiz-adv-x="1394" d="M902 1649h-327v249h327v-249zM82 0v357l627 739h-601v374h1186v-357l-629 -739h648v-374h-1231z" />
<glyph unicode="&#x17c;" horiz-adv-x="1173" d="M761 1216h-308v254h308v-254zM63 0v327l516 379h-512v336h1018v-326l-524 -380h550v-336h-1048z" />
<glyph unicode="&#x17d;" horiz-adv-x="1394" d="M253 1898h355l131 -104l131 104h355l-314 -268h-344zM82 0v357l627 739h-601v374h1186v-357l-629 -739h648v-374h-1231z" />
<glyph unicode="&#x17e;" horiz-adv-x="1173" d="M445 1212l-290 258h345l108 -104l107 104h345l-290 -258h-325zM63 0v327l516 379h-512v336h1018v-326l-524 -380h550v-336h-1048z" />
<glyph unicode="&#x218;" horiz-adv-x="1483" d="M760 -36q-163 0 -291.5 37.5t-211.5 105t-131 155t-63 193.5h475q35 -158 229 -158q89 0 140 30t51 80v1q0 48 -43.5 78.5t-143.5 49.5l-227 42q-223 42 -345.5 160t-122.5 306v2q0 134 82 239t229.5 163t335.5 58q293 0 455.5 -125t196.5 -347h-474q-17 65 -67 100.5 t-128 35.5q-77 0 -122 -26.5t-45 -75.5v-1q0 -87 143 -115l227 -42q257 -48 384 -160t127 -298v-2q0 -227 -179.5 -356.5t-480.5 -129.5zM919 -96l-182 -242h-289l122 242h349z" />
<glyph unicode="&#x219;" horiz-adv-x="1240" d="M637 -36q-263 0 -413 96t-164 266h436q18 -106 138 -106q46 0 74.5 17t28.5 47v2q0 32 -30 51t-107 33l-188 34q-178 32 -265 120.5t-87 209.5v2q0 157 145.5 256t377.5 99q504 0 556 -344h-434q-17 89 -110 89q-40 0 -65 -17.5t-25 -44.5v-2q0 -31 28.5 -49t93.5 -30 l179 -32q195 -35 285.5 -118t90.5 -219v-2q0 -159 -146.5 -258.5t-398.5 -99.5zM798 -96l-182 -242h-289l122 242h349z" />
<glyph unicode="&#x21a;" horiz-adv-x="1409" d="M470 0v1096h-457v374h1383v-374h-457v-1096h-469zM883 -96l-182 -242h-289l122 242h349z" />
<glyph unicode="&#x21b;" horiz-adv-x="889" d="M630 0q-111 0 -191 16t-131.5 45t-82 76.5t-42.5 104t-12 133.5v331h-139v336h139v296h452v-296h192v-336h-192v-242q0 -76 25.5 -102t86.5 -26h79v-336h-184zM601 -96l-182 -242h-289l122 242h349z" />
<glyph unicode="&#x2c6;" horiz-adv-x="1005" d="M50 1212l290 258h325l290 -258h-345l-107 104l-108 -104h-345z" />
<glyph unicode="&#x2da;" horiz-adv-x="570" d="M50 1422q0 92 71.5 162.5t163.5 70.5q94 0 164.5 -70t70.5 -163q0 -96 -69.5 -166.5t-165.5 -70.5q-95 0 -165 70.5t-70 166.5zM216 1421q0 -30 19.5 -49t48.5 -19q30 0 48 18t18 50q0 29 -18 47.5t-48 18.5q-29 0 -48.5 -19.5t-19.5 -46.5z" />
<glyph unicode="&#x2dc;" horiz-adv-x="869" d="M580 1492h239q0 -126 -65 -208t-165 -82q-47 0 -97.5 19t-90 37.5t-60.5 18.5q-51 0 -51 -62h-240q0 126 65 207.5t165 81.5q49 0 97.5 -19t87.5 -37.5t63 -18.5q50 0 52 63z" />
<glyph unicode="&#x2000;" horiz-adv-x="1040" />
<glyph unicode="&#x2001;" horiz-adv-x="2080" />
<glyph unicode="&#x2002;" horiz-adv-x="1040" />
<glyph unicode="&#x2003;" horiz-adv-x="2080" />
<glyph unicode="&#x2004;" horiz-adv-x="693" />
<glyph unicode="&#x2005;" horiz-adv-x="520" />
<glyph unicode="&#x2006;" horiz-adv-x="346" />
<glyph unicode="&#x2007;" horiz-adv-x="346" />
<glyph unicode="&#x2008;" horiz-adv-x="260" />
<glyph unicode="&#x2009;" horiz-adv-x="416" />
<glyph unicode="&#x200a;" horiz-adv-x="115" />
<glyph unicode="&#x2010;" horiz-adv-x="900" d="M100 331v380h700v-380h-700z" />
<glyph unicode="&#x2011;" horiz-adv-x="900" d="M100 331v380h700v-380h-700z" />
<glyph unicode="&#x2012;" horiz-adv-x="900" d="M100 331v380h700v-380h-700z" />
<glyph unicode="&#x2013;" horiz-adv-x="1314" d="M100 331v380h1114v-380h-1114z" />
<glyph unicode="&#x2014;" horiz-adv-x="2114" d="M100 331v380h1914v-380h-1914z" />
<glyph unicode="&#x2018;" horiz-adv-x="731" d="M676 1470l-144 -631h-459l197 631h406z" />
<glyph unicode="&#x2019;" horiz-adv-x="731" d="M55 839l144 631h459l-197 -631h-406z" />
<glyph unicode="&#x201a;" horiz-adv-x="731" d="M55 -215l144 631h459l-197 -631h-406z" />
<glyph unicode="&#x201c;" horiz-adv-x="1277" d="M676 1470l-144 -631h-459l197 631h406zM1223 1470l-145 -631h-459l197 631h407z" />
<glyph unicode="&#x201d;" horiz-adv-x="1277" d="M601 839l145 631h459l-198 -631h-406zM55 839l144 631h459l-197 -631h-406z" />
<glyph unicode="&#x201e;" horiz-adv-x="1277" d="M55 -215l144 631h459l-197 -631h-406zM601 -215l145 631h459l-198 -631h-406z" />
<glyph unicode="&#x2026;" horiz-adv-x="2011" d="M1235 0h-458v416h458v-416zM1906 0h-459v416h459v-416zM564 0h-458v416h458v-416z" />
<glyph unicode="&#x202f;" horiz-adv-x="416" />
<glyph unicode="&#x2039;" horiz-adv-x="868" d="M299 192l-236 373l236 372h466l-229 -372l229 -373h-466z" />
<glyph unicode="&#x203a;" horiz-adv-x="868" d="M805 565l-236 -373h-466l229 373l-229 372h466z" />
<glyph unicode="&#x205f;" horiz-adv-x="520" />
<glyph unicode="&#x20ac;" horiz-adv-x="1843" d="M1040 -36q-226 0 -399.5 91t-272 267.5t-98.5 414.5q0 5 0.5 16t0.5 17h-262l96 201h193q65 253 262.5 394t479.5 141q295 0 487.5 -147.5t241.5 -424.5h-474q-30 107 -94.5 152.5t-163.5 45.5q-78 0 -139.5 -40.5t-96.5 -120.5h354l-96 -201h-299q-1 -11 -1 -33v-4 q0 -8 0.5 -22.5t0.5 -21.5h395l-96 -201h-253q36 -75 96 -112.5t135 -37.5q99 0 163.5 45.5t94.5 152.5h474q-49 -277 -241.5 -424.5t-487.5 -147.5q-279 0 -475 138t-264 386h-292l96 201z" />
<glyph unicode="&#x25fc;" horiz-adv-x="1040" d="M0 1040h1040v-1040h-1040v1040z" />
</font>
</defs>
</svg>
