<?xml version="1.0" standalone="no"?>
<!DOCTYPE svg PUBLIC "-//W3C//DTD SVG 1.1//EN" "http://www.w3.org/Graphics/SVG/1.1/DTD/svg11.dtd" >
<svg xmlns="http://www.w3.org/2000/svg" xmlns:xlink="http://www.w3.org/1999/xlink" version="1.1">
<metadata></metadata>
<defs>
<font id="antarctica_betabold" horiz-adv-x="1256" >
<font-face units-per-em="2000" ascent="1600" descent="-400" />
<missing-glyph horiz-adv-x="425" />
<glyph horiz-adv-x="1000" />
<glyph horiz-adv-x="1000" />
<glyph unicode="&#xd;" horiz-adv-x="0" />
<glyph unicode=" "  horiz-adv-x="425" />
<glyph unicode="&#x09;" horiz-adv-x="425" />
<glyph unicode="&#xa0;" horiz-adv-x="425" />
<glyph unicode="!" horiz-adv-x="694" d="M206 509l-44 577v384h370v-384l-45 -577h-281zM528 0h-362v349h362v-349z" />
<glyph unicode="&#x22;" horiz-adv-x="1065" d="M599 1470h366v-102l-24 -406h-318l-24 406v102zM100 1470h366v-102l-24 -406h-317l-25 406v102z" />
<glyph unicode="#" horiz-adv-x="1505" d="M174 866l33 255h213l46 349h259l-46 -349h246l45 349h260l-46 -349h213l-35 -255h-211l-33 -251h212l-33 -255h-212l-47 -360h-259l47 360h-246l-47 -360h-258l46 360h-213l33 255h213l33 251h-213zM613 615h246l33 251h-246z" />
<glyph unicode="$" horiz-adv-x="1424" d="M567 -246v225q-220 35 -342.5 160.5t-148.5 310.5h373q45 -213 288 -213q113 0 180 41t67 116v2q0 75 -56 113.5t-177 64.5l-214 45q-210 43 -325.5 154t-115.5 293v2q0 169 128.5 283.5t342.5 143.5v221h268v-223q203 -29 320 -143.5t145 -297.5h-373q-45 179 -248 179 q-98 0 -158.5 -38.5t-60.5 -107.5v-2q0 -62 44 -102t136 -60l214 -45q241 -50 368 -154.5t127 -288.5v-2q0 -196 -138.5 -316t-375.5 -143v-218h-268z" />
<glyph unicode="%" horiz-adv-x="2114" d="M480 671q-177 0 -283.5 110t-106.5 305v2q0 195 106.5 305t283.5 110q178 0 284.5 -110t106.5 -305v-2q0 -195 -106.5 -305t-284.5 -110zM576 0l633 1470h329l-633 -1470h-329zM480 860q142 0 142 226v2q0 227 -142 227q-73 0 -106.5 -57t-33.5 -170v-2q0 -226 140 -226z M1633 -33q-177 0 -283.5 110t-106.5 305v2q0 195 106.5 305t283.5 110q178 0 284.5 -110t106.5 -305v-2q0 -195 -106.5 -305t-284.5 -110zM1633 156q142 0 142 226v2q0 227 -142 227q-140 0 -140 -227v-2q0 -226 140 -226z" />
<glyph unicode="&#x26;" horiz-adv-x="1723" d="M1251 0l-145 145q-106 -93 -220.5 -135.5t-268.5 -42.5q-248 0 -389.5 117t-141.5 313v4q0 275 341 430q-151 176 -151 317v4q0 150 121.5 250.5t326.5 100.5q212 0 329 -93.5t117 -249.5v-4q0 -212 -284 -359l218 -218q53 81 126 219h353q-92 -205 -269 -429l369 -369 h-432zM709 976q128 68 128 176v2q0 56 -31 86.5t-82 30.5t-81 -30t-30 -86v-3q0 -74 96 -176zM911 341l-303 304q-166 -94 -166 -237v-4q0 -83 59 -135.5t153 -52.5q128 0 257 125z" />
<glyph unicode="'" horiz-adv-x="566" d="M100 1470h366v-102l-24 -406h-317l-25 406v102z" />
<glyph unicode="(" horiz-adv-x="714" d="M665 1562q-124 -199 -193.5 -449t-69.5 -500t69.5 -500t193.5 -449h-298q-118 170 -192.5 434.5t-74.5 514.5t74.5 514.5t192.5 434.5h298z" />
<glyph unicode=")" horiz-adv-x="714" d="M50 1562h297q119 -170 193 -434t74 -515t-74 -515t-193 -434h-297q124 198 193 448.5t69 500.5t-69 500.5t-193 448.5z" />
<glyph unicode="*" horiz-adv-x="915" d="M336 791l-162 118l121 165l-195 64l62 191l195 -64v205h201v-205l195 64l62 -191l-195 -64l121 -165l-162 -118l-122 165z" />
<glyph unicode="+" horiz-adv-x="1267" d="M482 886v382h300v-382h385v-301h-385v-383h-300v383h-382v301h382z" />
<glyph unicode="," horiz-adv-x="655" d="M65 -220l144 569h362l-190 -569h-316z" />
<glyph unicode="-" horiz-adv-x="859" d="M100 371v301h659v-301h-659z" />
<glyph unicode="." horiz-adv-x="624" d="M493 0h-362v349h362v-349z" />
<glyph unicode="/" horiz-adv-x="1202" d="M120 -206l611 1676h351l-611 -1676h-351z" />
<glyph unicode="0" horiz-adv-x="1528" d="M764 -33q-319 0 -496.5 204t-177.5 563v2q0 359 177.5 563t496.5 204t497 -204t178 -563v-2q0 -359 -178 -563t-497 -204zM764 253q142 0 221.5 118t79.5 363v2q0 245 -79.5 363t-221.5 118t-221 -117.5t-79 -363.5v-2q0 -246 79 -363.5t221 -117.5z" />
<glyph unicode="1" horiz-adv-x="991" d="M383 0v988h-319v299h48q160 0 233 35.5t115 147.5h290v-1470h-367z" />
<glyph unicode="2" horiz-adv-x="1365" d="M81 0v62q0 269 110.5 430.5t378.5 276.5l104 45q119 53 168 107.5t49 135.5v1q0 82 -52.5 126.5t-144.5 44.5q-203 0 -217 -225h-371q20 244 176.5 371.5t421.5 127.5q166 0 293 -46.5t202 -144t75 -233.5v-2q0 -174 -95 -289.5t-297 -202.5l-102 -45 q-138 -61 -194.5 -113t-62.5 -128h741v-299h-1183z" />
<glyph unicode="3" horiz-adv-x="1421" d="M730 -33q-277 0 -455.5 129t-202.5 364h374q40 -219 277 -219q106 0 173.5 48t67.5 137v2q0 91 -72 140t-218 49h-106v271h107q121 0 183.5 48.5t62.5 128.5v1q0 77 -56.5 120t-151.5 43q-202 0 -225 -202h-374q27 228 188.5 352t428.5 124q162 0 286 -43.5t197 -133.5 t73 -217v-1q0 -112 -52.5 -199t-142.5 -127v-2q245 -92 245 -351v-2q0 -213 -169.5 -336.5t-437.5 -123.5z" />
<glyph unicode="4" horiz-adv-x="1444" d="M795 0v299h-753v300l753 871h366v-872h242v-299h-242v-299h-366zM382 598h413v492h-2l-100 -118z" />
<glyph unicode="5" horiz-adv-x="1402" d="M706 -33q-254 0 -423.5 122.5t-198.5 332.5h373q47 -181 243 -181q107 0 176 61t69 165v2q0 106 -68.5 170t-173.5 64q-86 0 -147 -35t-92 -98l-347 48l99 852h1000v-298h-697l-39 -310q123 114 333 114q228 0 366.5 -137t138.5 -362v-2q0 -231 -170 -369.5t-442 -138.5z " />
<glyph unicode="6" horiz-adv-x="1407" d="M723 -33q-308 0 -470.5 189.5t-162.5 520.5v1q0 180 40.5 328.5t119.5 260.5t206 174t291 62q228 0 367.5 -118.5t168.5 -300.5h-348q-39 145 -204 145q-126 0 -197.5 -104.5t-79.5 -305.5q128 152 362 152q93 0 181 -32t160.5 -92t116.5 -157t44 -216v-2 q0 -153 -79 -269t-213 -176t-303 -60zM711 241q108 0 176.5 60.5t68.5 165.5v2q0 106 -69 168t-176 62q-108 0 -177 -62t-69 -168v-2q0 -105 69 -165.5t177 -60.5z" />
<glyph unicode="7" horiz-adv-x="1253" d="M255 0q1 177 32.5 333.5t84.5 277.5t130.5 227.5t162 185t186.5 148.5h-803v298h1158v-298q-197 -137 -323.5 -302.5t-193 -381.5t-66.5 -488h-368z" />
<glyph unicode="8" horiz-adv-x="1400" d="M700 -33q-147 0 -264.5 35t-192 97t-114 144t-39.5 179v2q0 124 66.5 215t167.5 138v2q-86 46 -136 130.5t-50 194.5v2q0 179 147.5 288t414.5 109t415 -109t148 -288v-2q0 -110 -50 -194.5t-137 -130.5v-2q101 -47 168 -138t67 -215v-2q0 -200 -159.5 -327.5 t-451.5 -127.5zM700 895q88 0 141 44.5t53 121.5v1q0 77 -53 122t-141 45q-87 0 -140.5 -45t-53.5 -122v-1q0 -76 53.5 -121t140.5 -45zM700 241q110 0 174 52.5t64 139.5v2q0 87 -64 139t-174 52q-109 0 -173 -52t-64 -139v-2q0 -87 64 -139.5t173 -52.5z" />
<glyph unicode="9" horiz-adv-x="1407" d="M685 1503q307 0 470 -190t163 -520v-1q0 -180 -40.5 -328.5t-119.5 -260.5t-206 -174t-291 -62q-228 0 -367.5 118.5t-168.5 300.5h347q40 -145 204 -145q126 0 198 104.5t80 305.5q-128 -152 -363 -152q-93 0 -181 32t-160 92t-116 157t-44 216v2q0 116 45.5 211.5 t125.5 159.5t189 99t235 35zM697 1229q-108 0 -177 -60.5t-69 -165.5v-2q0 -105 69.5 -167.5t176.5 -62.5t176 62.5t69 167.5v2q0 105 -68.5 165.5t-176.5 60.5z" />
<glyph unicode=":" horiz-adv-x="624" d="M493 692h-362v350h362v-350zM493 0h-362v349h362v-349z" />
<glyph unicode=";" horiz-adv-x="687" d="M557 692h-363v350h363v-350zM65 -220l144 569h362l-190 -569h-316z" />
<glyph unicode="&#x3c;" horiz-adv-x="1070" d="M100 862l870 463v-341l-495 -255v-1l495 -255v-340l-870 462v267z" />
<glyph unicode="=" horiz-adv-x="1267" d="M100 810v300h1067v-300h-1067zM100 360v300h1067v-300h-1067z" />
<glyph unicode="&#x3e;" horiz-adv-x="1070" d="M100 1325l870 -463v-267l-870 -462v340l495 255v1l-495 255v341z" />
<glyph unicode="?" horiz-adv-x="1209" d="M594 1233q-78 0 -121 -50t-43 -146h-374q7 213 154 339.5t389 126.5q248 0 391.5 -105t143.5 -279v-1q0 -107 -52 -194t-143 -144l-46 -35q-85 -56 -118 -105.5t-33 -130.5h-336q0 131 36.5 201.5t131.5 136.5l51 39q67 45 97.5 88.5t30.5 104.5v1q0 72 -40.5 112.5 t-118.5 40.5zM755 0h-363v349h363v-349z" />
<glyph unicode="@" horiz-adv-x="1806" d="M777 237q-131 0 -221 94.5t-90 276.5v2q0 121 50.5 230t149.5 179.5t224 70.5q84 0 145 -40.5t89 -104.5l15 108h158l-60 -452q-15 -111 6 -162t76 -51q81 0 135 96.5t54 259.5v2q0 246 -154 381t-410 135q-184 0 -330 -85t-226.5 -233t-80.5 -331v-2q0 -259 154 -411.5 t419 -152.5q191 0 376 88l63 -148q-97 -49 -213.5 -74t-225.5 -25q-340 0 -545 199.5t-205 531.5v2q0 166 63.5 313t172 251.5t260 165t321.5 60.5q121 0 229 -24.5t200 -77t158.5 -128.5t104.5 -184.5t38 -239.5v-2q0 -122 -32.5 -223.5t-85.5 -166.5t-119.5 -100 t-137.5 -35q-83 0 -139 48t-68 137q-45 -85 -129 -131.5t-189 -46.5zM829 399q118 0 188.5 95.5t70.5 232.5v2q0 92 -48.5 143.5t-133.5 51.5q-111 0 -181.5 -93.5t-70.5 -220.5v-2q0 -103 45.5 -156t129.5 -53z" />
<glyph unicode="A" horiz-adv-x="1577" d="M30 0l526 1470h464l527 -1470h-384l-114 350h-527l-113 -350h-379zM616 643l338 -1l-168 520h-3z" />
<glyph unicode="B" horiz-adv-x="1426" d="M141 0v1470h639q242 0 366.5 -101t124.5 -271v-2q0 -108 -53 -192t-132 -124v-1q59 -23 104.5 -51.5t84.5 -70.5t60 -100.5t21 -130.5v-2q0 -204 -146.5 -314t-415.5 -110h-653zM508 889h222q90 0 137 38.5t47 109.5v1q0 71 -47 110t-137 39h-222v-298zM508 283h251 q216 0 216 164v1q0 163 -216 163h-251v-328z" />
<glyph unicode="C" horiz-adv-x="1614" d="M836 -33q-168 0 -310 55t-242 154.5t-156 243t-56 314.5v2q0 171 56 314.5t156 243t242 154.5t310 55q284 0 471 -140.5t241 -398.5h-373q-38 123 -126.5 182t-214.5 59q-173 0 -276 -124.5t-103 -344.5v-2q0 -219 103 -343.5t276 -124.5q126 0 214.5 59t126.5 181h373 q-54 -257 -241.5 -398t-470.5 -141z" />
<glyph unicode="D" horiz-adv-x="1569" d="M141 0v1470h553q133 0 251.5 -27t220 -85t175 -143t115 -207.5t41.5 -272.5v-2q0 -146 -41.5 -267.5t-115 -206.5t-175 -144t-220 -87t-251.5 -28h-553zM508 293h176q209 0 319.5 109t110.5 331v2q0 223 -110.5 332.5t-319.5 109.5h-176v-884z" />
<glyph unicode="E" horiz-adv-x="1320" d="M141 0v1470h1057v-298h-690v-284h624v-298h-624v-291h697v-299h-1064z" />
<glyph unicode="F" horiz-adv-x="1260" d="M141 0v1470h1066v-298h-699v-284h632v-298h-632v-590h-367z" />
<glyph unicode="G" horiz-adv-x="1695" d="M816 -33q-161 0 -298 53.5t-235.5 151.5t-154.5 243t-56 320v2q0 228 96 402.5t269.5 269t398.5 94.5q281 0 469 -129.5t243 -366.5h-373q-36 97 -122 147.5t-205 50.5q-181 0 -287 -124t-106 -344v-2q0 -229 105.5 -353.5t288.5 -124.5q153 0 251 79t98 213v6h-401v268 h754v-823h-262l-5 176q-64 -92 -185.5 -150.5t-282.5 -58.5z" />
<glyph unicode="H" horiz-adv-x="1554" d="M141 0v1470h367v-572h538v572h366v-1470h-366v576h-538v-576h-367z" />
<glyph unicode="I" horiz-adv-x="649" d="M141 0v1470h367v-1470h-367z" />
<glyph unicode="J" horiz-adv-x="1239" d="M571 -33q-260 0 -400.5 136t-140.5 378h368q0 -113 47 -167t131 -54q173 0 173 221v989h364v-989q0 -242 -140.5 -378t-401.5 -136z" />
<glyph unicode="K" horiz-adv-x="1491" d="M141 0v1470h367v-597l504 597h439l-612 -716l640 -754h-463l-508 594v-594h-367z" />
<glyph unicode="L" horiz-adv-x="1175" d="M141 0v1470h367v-1171h620v-299h-987z" />
<glyph unicode="M" horiz-adv-x="1953" d="M141 0v1470h540l295 -1071h2l294 1071h540v-1470h-342v640l6 457h-2l-314 -1097h-366l-315 1097h-2l6 -457v-640h-342z" />
<glyph unicode="N" horiz-adv-x="1554" d="M141 0v1470h464l471 -1012h2l-9 373v639h343v-1470h-467l-468 1012h-2l9 -373v-639h-343z" />
<glyph unicode="O" horiz-adv-x="1704" d="M852 -33q-229 0 -406 95t-275.5 270t-98.5 403v2q0 228 98.5 402.5t275.5 269t406 94.5q228 0 405.5 -94.5t276 -269t98.5 -402.5v-2q0 -228 -98.5 -403t-276 -270t-405.5 -95zM852 266q178 0 287.5 125t109.5 344v2q0 218 -109.5 343t-287.5 125q-179 0 -288 -125 t-109 -343v-2q0 -219 109 -344t288 -125z" />
<glyph unicode="P" horiz-adv-x="1384" d="M141 0v1470h579q620 0 620 -480v-2q0 -480 -620 -480h-212v-508h-367zM508 801h204q125 0 185 46t60 141v2q0 95 -60 141t-185 46h-204v-376z" />
<glyph unicode="Q" horiz-adv-x="1703" d="M852 -33q-229 0 -406 95t-275.5 270t-98.5 403v2q0 228 98.5 402.5t275.5 269t406 94.5q228 0 405.5 -94.5t276 -269t98.5 -402.5v-2q0 -185 -66 -336t-187 -254l344 -351h-388l-207 214q-128 -41 -276 -41zM852 266q178 0 287.5 125t109.5 344v2q0 218 -109.5 343 t-287.5 125q-179 0 -288 -125t-109 -343v-2q0 -219 109 -344t288 -125z" />
<glyph unicode="R" horiz-adv-x="1460" d="M141 0v1470h591q620 0 620 -465v-2q0 -322 -316 -425l372 -578h-407l-339 536l-154 1v-537h-367zM508 830h228q118 0 175.5 41.5t57.5 131.5v2q0 89 -57.5 130.5t-175.5 41.5h-228v-347z" />
<glyph unicode="S" horiz-adv-x="1424" d="M729 -33q-151 0 -270.5 36.5t-197.5 103t-124 152.5t-61 191h373q45 -213 288 -213q113 0 180 41t67 116v2q0 75 -56 113.5t-177 64.5l-214 45q-210 43 -325.5 154t-115.5 293v2q0 194 167 314.5t431 120.5q268 0 421 -119t185 -332h-373q-45 179 -248 179 q-98 0 -158.5 -38.5t-60.5 -107.5v-2q0 -62 44 -102t136 -60l214 -45q241 -50 368 -154.5t127 -288.5v-2q0 -218 -170 -341t-450 -123z" />
<glyph unicode="T" horiz-adv-x="1359" d="M496 0v1172h-471v298h1309v-298h-471v-1172h-367z" />
<glyph unicode="U" horiz-adv-x="1523" d="M761 -33q-318 0 -474 144.5t-156 463.5v895h367v-893q0 -160 63 -235.5t200 -75.5t200.5 75.5t63.5 235.5v893h367v-895q0 -319 -156 -463.5t-475 -144.5z" />
<glyph unicode="V" horiz-adv-x="1605" d="M571 0l-533 1470h387l398 -1117l378 1117h366l-532 -1470h-464z" />
<glyph unicode="W" horiz-adv-x="2076" d="M370 0l-322 1470h373l204 -1100l214 1100h398l212 -1101l206 1101h374l-321 -1470h-445l-225 1148l-223 -1148h-445z" />
<glyph unicode="X" horiz-adv-x="1608" d="M69 0l530 737l-510 733h439l289 -431l294 431h400l-505 -710l534 -760h-440l-312 458l-318 -458h-401z" />
<glyph unicode="Y" horiz-adv-x="1607" d="M621 0v569l-583 901h398l273 -444l96 -154h1l363 598h400l-581 -901v-569h-367z" />
<glyph unicode="Z" horiz-adv-x="1348" d="M88 0v286l700 886h-670v298h1125v-286l-702 -885h719v-299h-1172z" />
<glyph unicode="[" horiz-adv-x="820" d="M100 -336v1898h620v-264h-318v-1370h318v-264h-620z" />
<glyph unicode="\" horiz-adv-x="1202" d="M471 1470l611 -1676h-351l-611 1676h351z" />
<glyph unicode="]" horiz-adv-x="820" d="M721 1562v-1898h-621v264h318v1370h-318v264h621z" />
<glyph unicode="_" horiz-adv-x="1152" d="M50 -369v300h1052v-300h-1052z" />
<glyph unicode="`" horiz-adv-x="778" d="M362 1212l-312 258h416l261 -258h-365z" />
<glyph unicode="a" horiz-adv-x="1222" d="M454 -33q-166 0 -279.5 86t-113.5 227v2q0 97 48.5 166.5t145 111.5t219 64.5t292.5 32.5v21q0 91 -40.5 137t-116.5 46q-147 0 -156 -146h-344q18 169 145 270.5t359 101.5q118 0 208 -25t158 -79t103.5 -146t34.5 -219l-2 -306q-2 -196 33 -312h-328q-8 43 -10 130 q-109 -163 -356 -163zM777 458q-189 -14 -272 -48.5t-83 -110.5v-2q0 -54 40 -86t108 -32q95 0 151 59t56 173v47z" />
<glyph unicode="b" horiz-adv-x="1325" d="M794 -33q-113 0 -197 42t-129 112v-121h-352v1470h352v-549q45 70 129 112t197 42q89 0 170 -37t144.5 -105t101.5 -174.5t38 -236.5v-2q0 -130 -38 -236.5t-101.5 -174.5t-144.5 -105t-170 -37zM668 219q97 0 154 80.5t57 220.5v2q0 141 -57 221t-154 80t-153.5 -80 t-56.5 -221v-2q0 -140 56.5 -220.5t153.5 -80.5z" />
<glyph unicode="c" horiz-adv-x="1251" d="M634 -33q-256 0 -407 153.5t-151 403.5v2q0 251 151 404t407 153q230 0 370.5 -112.5t173.5 -297.5h-348q-16 81 -64.5 121.5t-124.5 40.5q-94 0 -147.5 -82.5t-53.5 -226.5v-2q0 -143 53.5 -225.5t147.5 -82.5q76 0 124.5 40.5t64.5 121.5h348q-33 -185 -173.5 -298 t-370.5 -113z" />
<glyph unicode="d" horiz-adv-x="1325" d="M531 -33q-89 0 -170 37t-145 104.5t-102 174.5t-38 237v2q0 130 38 237t102 174.5t145 104.5t170 37q113 0 197 -42t128 -112v549h353v-1470h-353v121q-44 -70 -128 -112t-197 -42zM656 219q97 0 154 80.5t57 220.5v2q0 141 -57 221t-154 80t-153.5 -80t-56.5 -221v-2 q0 -140 56.5 -220.5t153.5 -80.5z" />
<glyph unicode="e" horiz-adv-x="1292" d="M651 -33q-265 0 -420 151.5t-155 406.5v2q0 167 75 294.5t203.5 194.5t289.5 67q146 0 259 -48.5t182.5 -135.5t102.5 -204.5t26 -257.5v-1h-779q14 -108 73.5 -166.5t150.5 -58.5q153 0 198 108h343q-43 -156 -185.5 -254t-363.5 -98zM436 644h421v1q-6 90 -60.5 148.5 t-148.5 58.5q-184 0 -212 -208z" />
<glyph unicode="f" horiz-adv-x="802" d="M186 0v771h-144v271h144v53q0 192 109.5 283.5t335.5 91.5h117v-257h-58q-80 0 -115.5 -29.5t-35.5 -95.5v-46h209v-271h-209v-771h-353z" />
<glyph unicode="g" horiz-adv-x="1329" d="M542 24q-91 0 -174 34.5t-148.5 98.5t-104.5 166t-39 226v2q0 124 39 225.5t104.5 165.5t148.5 98.5t174 34.5q110 0 193 -39t126 -105v111h352v-933q0 -139 -41 -240.5t-118 -161.5t-177.5 -88t-229.5 -28q-222 0 -363.5 98.5t-171.5 270.5h339q14 -64 67.5 -101 t133.5 -37q97 0 153 58.5t56 178.5v109q-44 -66 -126.5 -105t-192.5 -39zM658 276q97 0 154.5 73t57.5 200v2q0 127 -57.5 199.5t-154.5 72.5q-98 0 -155.5 -72.5t-57.5 -199.5v-2q0 -127 58 -200t155 -73z" />
<glyph unicode="h" d="M116 0v1470h352v-544q114 149 317 149q189 0 281 -111t92 -315v-649h-353v581q0 229 -169 229q-168 0 -168 -229v-581h-352z" />
<glyph unicode="i" horiz-adv-x="584" d="M116 1181v289h352v-289h-352zM116 0v1042h352v-1042h-352z" />
<glyph unicode="j" horiz-adv-x="584" d="M116 1181v289h353v-289h-353zM-41 -385v266h35q70 0 96 25t26 106v1030h353v-1051q0 -208 -95.5 -292t-331.5 -84h-83z" />
<glyph unicode="k" horiz-adv-x="1293" d="M116 0v1470h352v-828l366 400h404l-450 -501l485 -541h-444l-361 389v-389h-352z" />
<glyph unicode="l" horiz-adv-x="584" d="M116 0v1470h352v-1470h-352z" />
<glyph unicode="m" horiz-adv-x="1945" d="M116 0v1042h352v-116q114 149 317 149q243 0 328 -185q122 185 362 185q189 0 280.5 -111t91.5 -315v-649h-353v581q0 229 -168 229t-168 -229v-581h-353v581q0 229 -169 229q-168 0 -168 -229v-581h-352z" />
<glyph unicode="n" d="M116 0v1042h352v-116q114 149 317 149q189 0 281 -111t92 -315v-649h-353v581q0 229 -169 229q-168 0 -168 -229v-581h-352z" />
<glyph unicode="o" horiz-adv-x="1301" d="M650 -33q-264 0 -419 153.5t-155 403.5v2q0 251 155 404t419 153t419 -153t155 -404v-2q0 -250 -155 -403.5t-419 -153.5zM650 216q104 0 157 81t53 227v2q0 146 -53 227.5t-157 81.5t-156.5 -81t-52.5 -228v-2q0 -146 52.5 -227t156.5 -81z" />
<glyph unicode="p" horiz-adv-x="1325" d="M794 -33q-113 0 -197 42t-129 112v-506h-352v1427h352v-121q45 70 129 112t197 42q89 0 170 -37t144.5 -105t101.5 -174.5t38 -236.5v-2q0 -130 -38 -236.5t-101.5 -174.5t-144.5 -105t-170 -37zM668 219q97 0 154 80.5t57 220.5v2q0 141 -57 221t-154 80t-153.5 -80 t-56.5 -221v-2q0 -140 56.5 -220.5t153.5 -80.5z" />
<glyph unicode="q" horiz-adv-x="1325" d="M531 -33q-89 0 -170 37t-145 104.5t-102 174.5t-38 237v2q0 130 38 237t102 174.5t145 104.5t170 37q113 0 197 -42t128 -112v121h353v-1427h-353v506q-44 -70 -128 -112t-197 -42zM656 219q97 0 154 80.5t57 220.5v2q0 141 -57 221t-154 80t-153.5 -80t-56.5 -221v-2 q0 -140 56.5 -220.5t153.5 -80.5z" />
<glyph unicode="r" horiz-adv-x="838" d="M116 0v1042h345v-206q39 100 123.5 161.5t196.5 61.5h20v-336h-78q-124 0 -189.5 -54t-65.5 -189v-480h-352z" />
<glyph unicode="s" horiz-adv-x="1176" d="M604 -33q-237 0 -375 96.5t-156 259.5h344q27 -141 188 -141q68 0 109 25t41 71v1q0 48 -39 73t-129 43l-174 33q-161 31 -246.5 114t-85.5 206v2q0 147 134.5 240t344.5 93q219 0 349 -83.5t156 -245.5h-342q-28 115 -158 115q-59 0 -97 -26t-38 -67v-2q0 -41 33 -65 t104 -39l168 -32q184 -35 276.5 -112.5t92.5 -212.5v-2q0 -156 -136.5 -250t-363.5 -94z" />
<glyph unicode="t" horiz-adv-x="844" d="M602 0q-158 0 -249.5 39t-127.5 114t-36 202v416h-147v271h147v285h353v-285h212v-271h-212v-354q0 -87 32 -116.5t107 -29.5h70v-271h-149z" />
<glyph unicode="u" d="M471 -32q-189 0 -281 111t-92 315v648h353v-579q0 -229 169 -229q168 0 168 229v579h353v-1042h-353v126q-109 -158 -317 -158z" />
<glyph unicode="v" horiz-adv-x="1238" d="M421 0l-395 1042h372l231 -696l236 696h348l-395 -1042h-397z" />
<glyph unicode="w" horiz-adv-x="1823" d="M340 0l-300 1042h347l181 -701l184 701h319l189 -702l184 702h340l-300 -1042h-377l-198 716l-191 -716h-378z" />
<glyph unicode="x" horiz-adv-x="1294" d="M43 0l419 527l-402 515h388l204 -278l206 278h379l-405 -507l419 -535h-388l-221 300l-224 -300h-375z" />
<glyph unicode="y" horiz-adv-x="1275" d="M254 -385l172 385l-400 1042h361l244 -682h2l279 682h337l-640 -1427h-355z" />
<glyph unicode="z" horiz-adv-x="1121" d="M73 0v263l556 508h-540v271h938v-261l-565 -510h586v-271h-975z" />
<glyph unicode="{" horiz-adv-x="813" d="M88 543v141q58 19 87 41t42.5 64t13.5 119v251q0 219 97 312t303 91h83v-264h-29q-91 0 -121.5 -35t-30.5 -140v-211q0 -92 -20 -148.5t-60 -89.5t-113 -60v-2q73 -27 113 -60t60 -89.5t20 -148.5v-210q0 -106 30 -141t122 -35h29v-264h-83q-206 -2 -303 91t-97 312v252 q0 76 -13.5 118t-42.5 64.5t-87 41.5z" />
<glyph unicode="|" horiz-adv-x="542" d="M120 -206v1852h302v-1852h-302z" />
<glyph unicode="}" horiz-adv-x="813" d="M725 684v-141q-85 -28 -114 -71t-29 -153v-252q0 -219 -96.5 -312t-302.5 -91h-83v264h28q92 0 122 34.5t30 141.5v210q0 134 42.5 196t151.5 102v2q-109 40 -151.5 102t-42.5 196v211q0 105 -30.5 140t-121.5 35h-28v264h83q206 2 302.5 -91t96.5 -312v-251 q0 -111 29 -153.5t114 -70.5z" />
<glyph unicode="&#xa2;" horiz-adv-x="1255" d="M483 209v196q-191 43 -299 187t-108 354v2q0 210 108 354t299 187v194h323v-197q156 -38 251 -141t121 -250h-348q-32 162 -189 162q-94 0 -147.5 -82.5t-53.5 -226.5v-2q0 -143 53.5 -226t147.5 -83q76 0 124.5 41t64.5 122h348q-26 -147 -121 -250.5t-251 -141.5v-199 h-323z" />
<glyph unicode="&#xa3;" horiz-adv-x="1404" d="M94 589v264h164q-45 113 -45 218v3q0 201 148 315.5t394 114.5q85 0 159 -14.5t141.5 -48.5t118.5 -85t87 -127.5t50 -173.5h-367q-26 175 -193 175q-80 0 -126 -43.5t-46 -125.5v-3q0 -95 47 -205h420v-264h-324q3 -19 3 -39v-5q0 -77 -38 -140t-102 -106h708v-299 h-1159v289q216 78 216 268v3q0 19 -1 29h-255z" />
<glyph unicode="&#xa8;" horiz-adv-x="864" d="M316 1232h-264v238h264v-238zM811 1232h-263v238h263v-238z" />
<glyph unicode="&#xab;" horiz-adv-x="1320" d="M312 192l-236 373l236 372h365l-229 -372l229 -373h-365zM838 192l-236 373l236 372h366l-229 -372l229 -373h-366z" />
<glyph unicode="&#xad;" horiz-adv-x="859" d="M100 371v301h659v-301h-659z" />
<glyph unicode="&#xb4;" horiz-adv-x="777" d="M727 1470l-311 -258h-366l262 258h415z" />
<glyph unicode="&#xb8;" horiz-adv-x="515" d="M465 -96l-122 -242h-293l170 242h245z" />
<glyph unicode="&#xbb;" horiz-adv-x="1320" d="M1244 565l-236 -373h-365l229 373l-229 372h365zM717 565l-236 -373h-365l229 373l-229 372h365z" />
<glyph unicode="&#xc2;" horiz-adv-x="1577" d="M350 1630l298 268h280l299 -268h-295l-144 124l-143 -124h-295zM30 0l526 1470h464l527 -1470h-384l-114 350h-527l-113 -350h-379zM616 643l338 -1l-168 520h-3z" />
<glyph unicode="&#xce;" horiz-adv-x="649" d="M-113 1630l298 268h280l299 -268h-295l-144 124l-143 -124h-295zM141 0v1470h367v-1470h-367z" />
<glyph unicode="&#xe2;" horiz-adv-x="1222" d="M202 1212l267 258h270l268 -258h-286l-117 124l-116 -124h-286zM454 -33q-166 0 -279.5 86t-113.5 227v2q0 97 48.5 166.5t145 111.5t219 64.5t292.5 32.5v21q0 91 -40.5 137t-116.5 46q-147 0 -156 -146h-344q18 169 145 270.5t359 101.5q118 0 208 -25t158 -79 t103.5 -146t34.5 -219l-2 -306q-2 -196 33 -312h-328q-8 43 -10 130q-109 -163 -356 -163zM777 458q-189 -14 -272 -48.5t-83 -110.5v-2q0 -54 40 -86t108 -32q95 0 151 59t56 173v47z" />
<glyph unicode="&#xee;" horiz-adv-x="584" d="M-110 1212l267 258h270l268 -258h-286l-117 124l-116 -124h-286zM116 0v1042h352v-1042h-352z" />
<glyph unicode="&#x100;" horiz-adv-x="1577" d="M447 1698v200h682v-200h-682zM30 0l526 1470h464l527 -1470h-384l-114 350h-527l-113 -350h-379zM616 643l338 -1l-168 520h-3z" />
<glyph unicode="&#x101;" horiz-adv-x="1222" d="M263 1270v200h682v-200h-682zM454 -33q-166 0 -279.5 86t-113.5 227v2q0 97 48.5 166.5t145 111.5t219 64.5t292.5 32.5v21q0 91 -40.5 137t-116.5 46q-147 0 -156 -146h-344q18 169 145 270.5t359 101.5q118 0 208 -25t158 -79t103.5 -146t34.5 -219l-2 -306 q-2 -196 33 -312h-328q-8 43 -10 130q-109 -163 -356 -163zM777 458q-189 -14 -272 -48.5t-83 -110.5v-2q0 -54 40 -86t108 -32q95 0 151 59t56 173v47z" />
<glyph unicode="&#x102;" horiz-adv-x="1577" d="M421 1898h226q11 -38 50 -61t91 -23q53 0 92 23t50 61h226q-15 -122 -114.5 -193t-253.5 -71t-253 71t-114 193zM30 0l526 1470h464l527 -1470h-384l-114 350h-527l-113 -350h-379zM616 643l338 -1l-168 520h-3z" />
<glyph unicode="&#x103;" horiz-adv-x="1222" d="M237 1470h226q11 -38 50 -61t91 -23q53 0 92 23t50 61h226q-15 -122 -114.5 -193t-253.5 -71t-253 71t-114 193zM454 -33q-166 0 -279.5 86t-113.5 227v2q0 97 48.5 166.5t145 111.5t219 64.5t292.5 32.5v21q0 91 -40.5 137t-116.5 46q-147 0 -156 -146h-344 q18 169 145 270.5t359 101.5q118 0 208 -25t158 -79t103.5 -146t34.5 -219l-2 -306q-2 -196 33 -312h-328q-8 43 -10 130q-109 -163 -356 -163zM777 458q-189 -14 -272 -48.5t-83 -110.5v-2q0 -54 40 -86t108 -32q95 0 151 59t56 173v47z" />
<glyph unicode="&#x104;" horiz-adv-x="1577" d="M30 0l526 1470h464l527 -1470q-36 -22 -58 -56t-22 -69q0 -32 19.5 -50t52.5 -18q26 0 58 12l85 -151q-86 -57 -215 -57q-124 0 -200 56t-76 147q0 95 93 186h-121l-114 350h-527l-113 -350h-379zM616 643l338 -1l-168 520h-3z" />
<glyph unicode="&#x105;" horiz-adv-x="1222" d="M454 -33q-166 0 -279.5 86t-113.5 227v2q0 97 48.5 166.5t145 111.5t219 64.5t292.5 32.5v21q0 91 -40.5 137t-116.5 46q-147 0 -156 -146h-344q18 169 145 270.5t359 101.5q118 0 208 -25t158 -79t103.5 -146t34.5 -219l-2 -306q-2 -196 33 -312q-36 -22 -58 -56 t-22 -69q0 -32 19.5 -50t52.5 -18q26 0 58 12l86 -151q-86 -57 -216 -57q-124 0 -200 56t-76 147q0 95 93 186h-65q-8 43 -10 130q-109 -163 -356 -163zM777 458q-189 -14 -272 -48.5t-83 -110.5v-2q0 -54 40 -86t108 -32q95 0 151 59t56 173v47z" />
<glyph unicode="&#x106;" horiz-adv-x="1614" d="M1025 1670h-364l229 228h419zM836 -33q-168 0 -310 55t-242 154.5t-156 243t-56 314.5v2q0 171 56 314.5t156 243t242 154.5t310 55q284 0 471 -140.5t241 -398.5h-373q-38 123 -126.5 182t-214.5 59q-173 0 -276 -124.5t-103 -344.5v-2q0 -219 103 -343.5t276 -124.5 q126 0 214.5 59t126.5 181h373q-54 -257 -241.5 -398t-470.5 -141z" />
<glyph unicode="&#x107;" horiz-adv-x="1251" d="M1120 1470l-311 -258h-366l262 258h415zM634 -33q-256 0 -407 153.5t-151 403.5v2q0 251 151 404t407 153q230 0 370.5 -112.5t173.5 -297.5h-348q-16 81 -64.5 121.5t-124.5 40.5q-94 0 -147.5 -82.5t-53.5 -226.5v-2q0 -143 53.5 -225.5t147.5 -82.5q76 0 124.5 40.5 t64.5 121.5h348q-33 -185 -173.5 -298t-370.5 -113z" />
<glyph unicode="&#x108;" horiz-adv-x="1614" d="M372 1630l298 268h281l298 -268h-295l-143 124l-144 -124h-295zM836 -33q-168 0 -310 55t-242 154.5t-156 243t-56 314.5v2q0 171 56 314.5t156 243t242 154.5t310 55q284 0 471 -140.5t241 -398.5h-373q-38 123 -126.5 182t-214.5 59q-173 0 -276 -124.5t-103 -344.5v-2 q0 -219 103 -343.5t276 -124.5q126 0 214.5 59t126.5 181h373q-54 -257 -241.5 -398t-470.5 -141z" />
<glyph unicode="&#x109;" horiz-adv-x="1251" d="M224 1212l267 258h269l268 -258h-285l-117 124l-117 -124h-285zM634 -33q-256 0 -407 153.5t-151 403.5v2q0 251 151 404t407 153q230 0 370.5 -112.5t173.5 -297.5h-348q-16 81 -64.5 121.5t-124.5 40.5q-94 0 -147.5 -82.5t-53.5 -226.5v-2q0 -143 53.5 -225.5 t147.5 -82.5q76 0 124.5 40.5t64.5 121.5h348q-33 -185 -173.5 -298t-370.5 -113z" />
<glyph unicode="&#x10a;" horiz-adv-x="1614" d="M950 1667h-279v231h279v-231zM836 -33q-168 0 -310 55t-242 154.5t-156 243t-56 314.5v2q0 171 56 314.5t156 243t242 154.5t310 55q284 0 471 -140.5t241 -398.5h-373q-38 123 -126.5 182t-214.5 59q-173 0 -276 -124.5t-103 -344.5v-2q0 -219 103 -343.5t276 -124.5 q126 0 214.5 59t126.5 181h373q-54 -257 -241.5 -398t-470.5 -141z" />
<glyph unicode="&#x10b;" horiz-adv-x="1251" d="M758 1232h-264v238h264v-238zM634 -33q-256 0 -407 153.5t-151 403.5v2q0 251 151 404t407 153q230 0 370.5 -112.5t173.5 -297.5h-348q-16 81 -64.5 121.5t-124.5 40.5q-94 0 -147.5 -82.5t-53.5 -226.5v-2q0 -143 53.5 -225.5t147.5 -82.5q76 0 124.5 40.5t64.5 121.5 h348q-33 -185 -173.5 -298t-370.5 -113z" />
<glyph unicode="&#x10c;" horiz-adv-x="1614" d="M372 1898h295l144 -123l143 123h295l-298 -268h-281zM836 -33q-168 0 -310 55t-242 154.5t-156 243t-56 314.5v2q0 171 56 314.5t156 243t242 154.5t310 55q284 0 471 -140.5t241 -398.5h-373q-38 123 -126.5 182t-214.5 59q-173 0 -276 -124.5t-103 -344.5v-2 q0 -219 103 -343.5t276 -124.5q126 0 214.5 59t126.5 181h373q-54 -257 -241.5 -398t-470.5 -141z" />
<glyph unicode="&#x10d;" horiz-adv-x="1251" d="M491 1212l-267 258h285l117 -123l117 123h285l-268 -258h-269zM634 -33q-256 0 -407 153.5t-151 403.5v2q0 251 151 404t407 153q230 0 370.5 -112.5t173.5 -297.5h-348q-16 81 -64.5 121.5t-124.5 40.5q-94 0 -147.5 -82.5t-53.5 -226.5v-2q0 -143 53.5 -225.5 t147.5 -82.5q76 0 124.5 40.5t64.5 121.5h348q-33 -185 -173.5 -298t-370.5 -113z" />
<glyph unicode="&#x10e;" horiz-adv-x="1569" d="M131 1898h295l144 -123l143 123h295l-298 -268h-281zM141 0v1470h553q133 0 251.5 -27t220 -85t175 -143t115 -207.5t41.5 -272.5v-2q0 -146 -41.5 -267.5t-115 -206.5t-175 -144t-220 -87t-251.5 -28h-553zM508 293h176q209 0 319.5 109t110.5 331v2q0 223 -110.5 332.5 t-319.5 109.5h-176v-884z" />
<glyph unicode="&#x10f;" horiz-adv-x="1656" d="M531 -33q-89 0 -170 37t-145 104.5t-102 174.5t-38 237v2q0 130 38 237t102 174.5t145 104.5t170 37q113 0 197 -42t128 -112v549h353v-1470h-353v121q-44 -70 -128 -112t-197 -42zM1359 1470h296v-328h-296v328zM656 219q97 0 154 80.5t57 220.5v2q0 141 -57 221 t-154 80t-153.5 -80t-56.5 -221v-2q0 -140 56.5 -220.5t153.5 -80.5z" />
<glyph unicode="&#x110;" horiz-adv-x="1569" d="M141 0v622h-134v226h134v622h553q133 0 251.5 -27t220 -85t175 -143t115 -207.5t41.5 -272.5v-2q0 -146 -41.5 -267.5t-115 -206.5t-175 -144t-220 -87t-251.5 -28h-553zM508 293h176q209 0 319.5 109t110.5 331v2q0 223 -110.5 332.5t-319.5 109.5h-176v-329h302v-226 h-302v-329z" />
<glyph unicode="&#x111;" horiz-adv-x="1325" d="M531 -33q-89 0 -170 37t-145 104.5t-102 174.5t-38 237v2q0 130 38 237t102 174.5t145 104.5t170 37q113 0 197 -42t128 -112v268h-334v174h334v107h353v-107h109v-174h-109v-1189h-353v121q-44 -70 -128 -112t-197 -42zM656 219q97 0 154 80.5t57 220.5v2q0 141 -57 221 t-154 80t-153.5 -80t-56.5 -221v-2q0 -140 56.5 -220.5t153.5 -80.5z" />
<glyph unicode="&#x112;" horiz-adv-x="1320" d="M332 1698v200h682v-200h-682zM141 0v1470h1057v-298h-690v-284h624v-298h-624v-291h697v-299h-1064z" />
<glyph unicode="&#x113;" horiz-adv-x="1292" d="M303 1270v200h682v-200h-682zM651 -33q-265 0 -420 151.5t-155 406.5v2q0 167 75 294.5t203.5 194.5t289.5 67q146 0 259 -48.5t182.5 -135.5t102.5 -204.5t26 -257.5v-1h-779q14 -108 73.5 -166.5t150.5 -58.5q153 0 198 108h343q-43 -156 -185.5 -254t-363.5 -98z M436 644h421v1q-6 90 -60.5 148.5t-148.5 58.5q-184 0 -212 -208z" />
<glyph unicode="&#x114;" horiz-adv-x="1320" d="M306 1898h226q11 -38 50 -61t91 -23q53 0 92 23t50 61h226q-15 -122 -114.5 -193t-253.5 -71t-253 71t-114 193zM141 0v1470h1057v-298h-690v-284h624v-298h-624v-291h697v-299h-1064z" />
<glyph unicode="&#x115;" horiz-adv-x="1292" d="M276 1470h226q11 -38 50 -61t92 -23q52 0 91 23t50 61h226q-15 -122 -114 -193t-253 -71t-253.5 71t-114.5 193zM651 -33q-265 0 -420 151.5t-155 406.5v2q0 167 75 294.5t203.5 194.5t289.5 67q146 0 259 -48.5t182.5 -135.5t102.5 -204.5t26 -257.5v-1h-779 q14 -108 73.5 -166.5t150.5 -58.5q153 0 198 108h343q-43 -156 -185.5 -254t-363.5 -98zM436 644h421v1q-6 90 -60.5 148.5t-148.5 58.5q-184 0 -212 -208z" />
<glyph unicode="&#x116;" horiz-adv-x="1320" d="M813 1667h-279v231h279v-231zM141 0v1470h1057v-298h-690v-284h624v-298h-624v-291h697v-299h-1064z" />
<glyph unicode="&#x117;" horiz-adv-x="1292" d="M775 1232h-263v238h263v-238zM651 -33q-265 0 -420 151.5t-155 406.5v2q0 167 75 294.5t203.5 194.5t289.5 67q146 0 259 -48.5t182.5 -135.5t102.5 -204.5t26 -257.5v-1h-779q14 -108 73.5 -166.5t150.5 -58.5q153 0 198 108h343q-43 -156 -185.5 -254t-363.5 -98z M436 644h421v1q-6 90 -60.5 148.5t-148.5 58.5q-184 0 -212 -208z" />
<glyph unicode="&#x118;" horiz-adv-x="1320" d="M141 0v1470h1057v-298h-690v-284h624v-298h-624v-291h697v-299h-223q-36 -22 -58 -56t-22 -69q0 -32 19 -50t52 -18q27 0 59 12l85 -151q-86 -57 -215 -57q-124 0 -200 56t-76 147q0 95 93 186h-578z" />
<glyph unicode="&#x119;" horiz-adv-x="1292" d="M924 -181l85 -151q-85 -57 -215 -57q-124 0 -200 56t-76 147q0 79 65 156q-236 20 -371.5 169t-135.5 386v2q0 167 75 294.5t203.5 194.5t289.5 67q146 0 259 -48.5t182.5 -135.5t102.5 -204.5t26 -257.5v-1h-779q14 -108 73.5 -166.5t150.5 -58.5q153 0 198 108h343 q-31 -112 -115.5 -197t-215.5 -125q-34 -22 -54.5 -55t-20.5 -67q0 -32 19.5 -50t52.5 -18q26 0 58 12zM436 644h421v1q-6 90 -60.5 148.5t-148.5 58.5q-184 0 -212 -208z" />
<glyph unicode="&#x11a;" horiz-adv-x="1320" d="M235 1898h295l143 -123l144 123h295l-299 -268h-280zM141 0v1470h1057v-298h-690v-284h624v-298h-624v-291h697v-299h-1064z" />
<glyph unicode="&#x11b;" horiz-adv-x="1292" d="M509 1212l-267 258h285l117 -123l117 123h285l-268 -258h-269zM651 -33q-265 0 -420 151.5t-155 406.5v2q0 167 75 294.5t203.5 194.5t289.5 67q146 0 259 -48.5t182.5 -135.5t102.5 -204.5t26 -257.5v-1h-779q14 -108 73.5 -166.5t150.5 -58.5q153 0 198 108h343 q-43 -156 -185.5 -254t-363.5 -98zM436 644h421v1q-6 90 -60.5 148.5t-148.5 58.5q-184 0 -212 -208z" />
<glyph unicode="&#x11c;" horiz-adv-x="1695" d="M375 1630l298 268h280l299 -268h-295l-144 124l-143 -124h-295zM816 -33q-161 0 -298 53.5t-235.5 151.5t-154.5 243t-56 320v2q0 228 96 402.5t269.5 269t398.5 94.5q281 0 469 -129.5t243 -366.5h-373q-36 97 -122 147.5t-205 50.5q-181 0 -287 -124t-106 -344v-2 q0 -229 105.5 -353.5t288.5 -124.5q153 0 251 79t98 213v6h-401v268h754v-823h-262l-5 176q-64 -92 -185.5 -150.5t-282.5 -58.5z" />
<glyph unicode="&#x11d;" horiz-adv-x="1329" d="M243 1212l267 258h270l267 -258h-285l-117 124l-117 -124h-285zM542 24q-91 0 -174 34.5t-148.5 98.5t-104.5 166t-39 226v2q0 124 39 225.5t104.5 165.5t148.5 98.5t174 34.5q110 0 193 -39t126 -105v111h352v-933q0 -139 -41 -240.5t-118 -161.5t-177.5 -88t-229.5 -28 q-222 0 -363.5 98.5t-171.5 270.5h339q14 -64 67.5 -101t133.5 -37q97 0 153 58.5t56 178.5v109q-44 -66 -126.5 -105t-192.5 -39zM658 276q97 0 154.5 73t57.5 200v2q0 127 -57.5 199.5t-154.5 72.5q-98 0 -155.5 -72.5t-57.5 -199.5v-2q0 -127 58 -200t155 -73z" />
<glyph unicode="&#x11e;" horiz-adv-x="1695" d="M446 1898h225q12 -38 51 -61t91 -23q53 0 92 23t50 61h226q-15 -122 -114.5 -193t-253.5 -71t-253 71t-114 193zM816 -33q-161 0 -298 53.5t-235.5 151.5t-154.5 243t-56 320v2q0 228 96 402.5t269.5 269t398.5 94.5q281 0 469 -129.5t243 -366.5h-373q-36 97 -122 147.5 t-205 50.5q-181 0 -287 -124t-106 -344v-2q0 -229 105.5 -353.5t288.5 -124.5q153 0 251 79t98 213v6h-401v268h754v-823h-262l-5 176q-64 -92 -185.5 -150.5t-282.5 -58.5z" />
<glyph unicode="&#x11f;" horiz-adv-x="1329" d="M278 1470h225q12 -38 51 -61t91 -23q53 0 92 23t50 61h226q-15 -122 -114.5 -193t-253.5 -71t-253 71t-114 193zM542 24q-91 0 -174 34.5t-148.5 98.5t-104.5 166t-39 226v2q0 124 39 225.5t104.5 165.5t148.5 98.5t174 34.5q110 0 193 -39t126 -105v111h352v-933 q0 -139 -41 -240.5t-118 -161.5t-177.5 -88t-229.5 -28q-222 0 -363.5 98.5t-171.5 270.5h339q14 -64 67.5 -101t133.5 -37q97 0 153 58.5t56 178.5v109q-44 -66 -126.5 -105t-192.5 -39zM658 276q97 0 154.5 73t57.5 200v2q0 127 -57.5 199.5t-154.5 72.5 q-98 0 -155.5 -72.5t-57.5 -199.5v-2q0 -127 58 -200t155 -73z" />
<glyph unicode="&#x120;" horiz-adv-x="1695" d="M953 1667h-279v231h279v-231zM816 -33q-161 0 -298 53.5t-235.5 151.5t-154.5 243t-56 320v2q0 228 96 402.5t269.5 269t398.5 94.5q281 0 469 -129.5t243 -366.5h-373q-36 97 -122 147.5t-205 50.5q-181 0 -287 -124t-106 -344v-2q0 -229 105.5 -353.5t288.5 -124.5 q153 0 251 79t98 213v6h-401v268h754v-823h-262l-5 176q-64 -92 -185.5 -150.5t-282.5 -58.5z" />
<glyph unicode="&#x121;" horiz-adv-x="1329" d="M777 1232h-264v238h264v-238zM542 24q-91 0 -174 34.5t-148.5 98.5t-104.5 166t-39 226v2q0 124 39 225.5t104.5 165.5t148.5 98.5t174 34.5q110 0 193 -39t126 -105v111h352v-933q0 -139 -41 -240.5t-118 -161.5t-177.5 -88t-229.5 -28q-222 0 -363.5 98.5t-171.5 270.5 h339q14 -64 67.5 -101t133.5 -37q97 0 153 58.5t56 178.5v109q-44 -66 -126.5 -105t-192.5 -39zM658 276q97 0 154.5 73t57.5 200v2q0 127 -57.5 199.5t-154.5 72.5q-98 0 -155.5 -72.5t-57.5 -199.5v-2q0 -127 58 -200t155 -73z" />
<glyph unicode="&#x122;" horiz-adv-x="1695" d="M816 -33q-161 0 -298 53.5t-235.5 151.5t-154.5 243t-56 320v2q0 228 96 402.5t269.5 269t398.5 94.5q281 0 469 -129.5t243 -366.5h-373q-36 97 -122 147.5t-205 50.5q-181 0 -287 -124t-106 -344v-2q0 -229 105.5 -353.5t288.5 -124.5q153 0 251 79t98 213v6h-401v268 h754v-823h-262l-5 176q-64 -92 -185.5 -150.5t-282.5 -58.5zM961 -96l-169 -242h-245l122 242h292z" />
<glyph unicode="&#x123;" horiz-adv-x="1329" d="M968 1470l-122 -242h-293l170 242h245zM542 24q-91 0 -174 34.5t-148.5 98.5t-104.5 166t-39 226v2q0 124 39 225.5t104.5 165.5t148.5 98.5t174 34.5q110 0 193 -39t126 -105v111h352v-933q0 -139 -41 -240.5t-118 -161.5t-177.5 -88t-229.5 -28q-222 0 -363.5 98.5 t-171.5 270.5h339q14 -64 67.5 -101t133.5 -37q97 0 153 58.5t56 178.5v109q-44 -66 -126.5 -105t-192.5 -39zM658 276q97 0 154.5 73t57.5 200v2q0 127 -57.5 199.5t-154.5 72.5q-98 0 -155.5 -72.5t-57.5 -199.5v-2q0 -127 58 -200t155 -73z" />
<glyph unicode="&#x124;" horiz-adv-x="1554" d="M339 1630l298 268h280l299 -268h-295l-144 124l-143 -124h-295zM141 0v1470h367v-572h538v572h366v-1470h-366v576h-538v-576h-367z" />
<glyph unicode="&#x125;" d="M-111 1640l268 258h269l268 -258h-285l-117 124l-117 -124h-286zM116 0v1470h352v-544q114 149 317 149q189 0 281 -111t92 -315v-649h-353v581q0 229 -169 229q-168 0 -168 -229v-581h-352z" />
<glyph unicode="&#x126;" horiz-adv-x="1554" d="M141 0v1071h-150v226h150v173h367v-173h538v173h366v-173h150v-226h-150v-1071h-366v576h-538v-576h-367zM508 898h538v173h-538v-173z" />
<glyph unicode="&#x127;" d="M116 0l-1 1183h-120v174h121v113h352v-113h324v-174h-324v-257q114 149 317 149q189 0 281 -111t92 -315v-649h-353v581q0 229 -169 229q-168 0 -168 -229v-581h-352z" />
<glyph unicode="&#x128;" horiz-adv-x="649" d="M488 1911h197q0 -116 -59 -190.5t-152 -74.5q-46 0 -97.5 19.5t-93 39t-65.5 19.5q-56 0 -57 -73h-197q0 117 59 191t152 74q47 0 97.5 -19.5t91.5 -39t66 -19.5q57 0 58 73zM141 0v1470h367v-1470h-367z" />
<glyph unicode="&#x129;" horiz-adv-x="584" d="M455 1485h197q0 -117 -59 -191.5t-152 -74.5q-59 0 -145 39.5t-110 39.5q-57 0 -57 -73h-198q0 116 59.5 190t151.5 74q47 0 97.5 -19.5t92 -38.5t66.5 -19q56 0 57 73zM116 0v1042h352v-1042h-352z" />
<glyph unicode="&#x12a;" horiz-adv-x="649" d="M-16 1698v200h682v-200h-682zM141 0v1470h367v-1470h-367z" />
<glyph unicode="&#x12b;" horiz-adv-x="584" d="M-49 1270v200h682v-200h-682zM116 0v1042h352v-1042h-352z" />
<glyph unicode="&#x12e;" horiz-adv-x="649" d="M141 0v1470h367v-1470h-52q-36 -22 -58 -56t-22 -69q0 -32 19.5 -50t52.5 -18q26 0 59 12l85 -151q-86 -57 -215 -57q-124 0 -200.5 56t-76.5 147q0 95 94 186h-53z" />
<glyph unicode="&#x12f;" horiz-adv-x="584" d="M116 1181v289h352v-289h-352zM116 0v1042h352v-1042h-44q-36 -22 -58 -56t-22 -69q0 -32 19 -50t52 -18q27 0 59 12l85 -151q-86 -57 -215 -57q-124 0 -200 56t-76 147q0 95 93 186h-45z" />
<glyph unicode="&#x130;" horiz-adv-x="649" d="M465 1667h-279v231h279v-231zM141 0v1470h367v-1470h-367z" />
<glyph unicode="&#x131;" horiz-adv-x="584" d="M116 0v1042h352v-1042h-352z" />
<glyph unicode="&#x132;" horiz-adv-x="1888" d="M141 0v1470h367v-1470h-367zM1221 -33q-261 0 -401.5 136t-140.5 378h368q0 -113 47 -167t131 -54q173 0 173 221v989h364v-989q0 -242 -140.5 -378t-400.5 -136z" />
<glyph unicode="&#x133;" horiz-adv-x="1168" d="M116 1181v289h352v-289h-352zM700 1181v289h353v-289h-353zM116 0v1042h352v-1042h-352zM543 -385v266h35q70 0 96 25t26 106v1030h353v-1051q0 -207 -96 -291.5t-331 -84.5h-83z" />
<glyph unicode="&#x134;" horiz-adv-x="1239" d="M493 1630l298 268h280l299 -268h-295l-144 124l-143 -124h-295zM571 -33q-260 0 -400.5 136t-140.5 378h368q0 -113 47 -167t131 -54q173 0 173 221v989h364v-989q0 -242 -140.5 -378t-401.5 -136z" />
<glyph unicode="&#x135;" horiz-adv-x="584" d="M-110 1212l267 258h270l268 -258h-286l-117 124l-117 -124h-285zM-41 -385v266h35q70 0 96 25t26 106v1030h353v-1051q0 -208 -95.5 -292t-331.5 -84h-83z" />
<glyph unicode="&#x136;" horiz-adv-x="1491" d="M141 0v1470h367v-597l504 597h439l-612 -716l640 -754h-463l-508 594v-594h-367zM958 -96l-169 -242h-245l122 242h292z" />
<glyph unicode="&#x137;" horiz-adv-x="1293" d="M116 0v1470h352v-828l366 400h404l-450 -501l485 -541h-444l-361 389v-389h-352zM843 -96l-170 -242h-245l122 242h293z" />
<glyph unicode="&#x139;" horiz-adv-x="1175" d="M539 1670h-364l229 228h419zM141 0v1470h367v-1171h620v-299h-987z" />
<glyph unicode="&#x13a;" horiz-adv-x="584" d="M787 1898l-312 -258h-365l261 258h416zM116 0v1470h352v-1470h-352z" />
<glyph unicode="&#x13b;" horiz-adv-x="1175" d="M141 0v1470h367v-1171h620v-299h-987zM783 -96l-169 -242h-245l122 242h292z" />
<glyph unicode="&#x13c;" horiz-adv-x="584" d="M116 0v1470h352v-1470h-352zM440 -96l-169 -242h-245l122 242h292z" />
<glyph unicode="&#x13d;" horiz-adv-x="1175" d="M687 1670h295v-328h-295v328zM141 0v1470h367v-1171h620v-299h-987z" />
<glyph unicode="&#x13e;" horiz-adv-x="915" d="M116 0v1470h352v-1470h-352zM618 1470h296v-328h-296v328z" />
<glyph unicode="&#x13f;" horiz-adv-x="1197" d="M141 0v1470h367v-1171h620v-299h-987zM1042 710h-362v349h362v-349z" />
<glyph unicode="&#x140;" horiz-adv-x="1012" d="M116 0v1470h352v-1470h-352zM981 561h-363v349h363v-349z" />
<glyph unicode="&#x143;" horiz-adv-x="1554" d="M991 1670h-364l229 228h419zM141 0v1470h464l471 -1012h2l-9 373v639h343v-1470h-467l-468 1012h-2l9 -373v-639h-343z" />
<glyph unicode="&#x144;" d="M1131 1470l-312 -258h-365l262 258h415zM116 0v1042h352v-116q114 149 317 149q189 0 281 -111t92 -315v-649h-353v581q0 229 -169 229q-168 0 -168 -229v-581h-352z" />
<glyph unicode="&#x145;" horiz-adv-x="1554" d="M141 0v1470h464l471 -1012h2l-9 373v639h343v-1470h-467l-468 1012h-2l9 -373v-639h-343zM926 -96l-170 -242h-245l122 242h293z" />
<glyph unicode="&#x146;" d="M116 0v1042h352v-116q114 149 317 149q189 0 281 -111t92 -315v-649h-353v581q0 229 -169 229q-168 0 -168 -229v-581h-352zM785 -96l-169 -242h-245l122 242h292z" />
<glyph unicode="&#x147;" horiz-adv-x="1554" d="M339 1898h295l143 -123l143 123h295l-298 -268h-280zM141 0v1470h464l471 -1012h2l-9 373v639h343v-1470h-467l-468 1012h-2l9 -373v-639h-343z" />
<glyph unicode="&#x148;" d="M502 1212l-268 258h286l117 -123l116 123h286l-268 -258h-269zM116 0v1042h352v-116q114 149 317 149q189 0 281 -111t92 -315v-649h-353v581q0 229 -169 229q-168 0 -168 -229v-581h-352z" />
<glyph unicode="&#x149;" d="M438 1470l-106 -328h-347l133 328h320zM116 0v1042h352v-116q114 149 317 149q189 0 281 -111t92 -315v-649h-353v581q0 229 -169 229q-168 0 -168 -229v-581h-352z" />
<glyph unicode="&#x14c;" horiz-adv-x="1704" d="M511 1698v200h682v-200h-682zM852 -33q-229 0 -406 95t-275.5 270t-98.5 403v2q0 228 98.5 402.5t275.5 269t406 94.5q228 0 405.5 -94.5t276 -269t98.5 -402.5v-2q0 -228 -98.5 -403t-276 -270t-405.5 -95zM852 266q178 0 287.5 125t109.5 344v2q0 218 -109.5 343 t-287.5 125q-179 0 -288 -125t-109 -343v-2q0 -219 109 -344t288 -125z" />
<glyph unicode="&#x14d;" horiz-adv-x="1301" d="M310 1270v200h681v-200h-681zM650 -33q-264 0 -419 153.5t-155 403.5v2q0 251 155 404t419 153t419 -153t155 -404v-2q0 -250 -155 -403.5t-419 -153.5zM650 216q104 0 157 81t53 227v2q0 146 -53 227.5t-157 81.5t-156.5 -81t-52.5 -228v-2q0 -146 52.5 -227t156.5 -81z " />
<glyph unicode="&#x14e;" horiz-adv-x="1704" d="M484 1898h226q11 -38 50 -61t92 -23q52 0 91 23t50 61h226q-15 -122 -114 -193t-253 -71t-253.5 71t-114.5 193zM852 -33q-229 0 -406 95t-275.5 270t-98.5 403v2q0 228 98.5 402.5t275.5 269t406 94.5q228 0 405.5 -94.5t276 -269t98.5 -402.5v-2q0 -228 -98.5 -403 t-276 -270t-405.5 -95zM852 266q178 0 287.5 125t109.5 344v2q0 218 -109.5 343t-287.5 125q-179 0 -288 -125t-109 -343v-2q0 -219 109 -344t288 -125z" />
<glyph unicode="&#x14f;" horiz-adv-x="1301" d="M283 1470h226q11 -38 50 -61t91 -23q53 0 92 23t50 61h226q-15 -122 -114.5 -193t-253.5 -71t-253 71t-114 193zM650 -33q-264 0 -419 153.5t-155 403.5v2q0 251 155 404t419 153t419 -153t155 -404v-2q0 -250 -155 -403.5t-419 -153.5zM650 216q104 0 157 81t53 227v2 q0 146 -53 227.5t-157 81.5t-156.5 -81t-52.5 -228v-2q0 -146 52.5 -227t156.5 -81z" />
<glyph unicode="&#x150;" horiz-adv-x="1704" d="M754 1670h-364l228 228h420zM1297 1670h-364l229 228h419zM852 -33q-229 0 -406 95t-275.5 270t-98.5 403v2q0 228 98.5 402.5t275.5 269t406 94.5q228 0 405.5 -94.5t276 -269t98.5 -402.5v-2q0 -228 -98.5 -403t-276 -270t-405.5 -95zM852 266q178 0 287.5 125 t109.5 344v2q0 218 -109.5 343t-287.5 125q-179 0 -288 -125t-109 -343v-2q0 -219 109 -344t288 -125z" />
<glyph unicode="&#x151;" horiz-adv-x="1301" d="M827 1470l-279 -258h-327l251 258h355zM1317 1470l-279 -258h-327l251 258h355zM650 -33q-264 0 -419 153.5t-155 403.5v2q0 251 155 404t419 153t419 -153t155 -404v-2q0 -250 -155 -403.5t-419 -153.5zM650 216q104 0 157 81t53 227v2q0 146 -53 227.5t-157 81.5 t-156.5 -81t-52.5 -228v-2q0 -146 52.5 -227t156.5 -81z" />
<glyph unicode="&#x152;" horiz-adv-x="2431" d="M852 -33q-229 0 -406 95t-275.5 270t-98.5 403v2q0 228 98.5 402.5t275.5 269t406 94.5q223 0 400 -93v60h1057v-298h-690v-280v-4h624v-298h-622q-2 -8 -2 -11v-280h697v-299h-1064v60q-177 -93 -400 -93zM852 266q178 0 287.5 125t109.5 344v2q0 218 -109.5 343 t-287.5 125q-179 0 -288 -125t-109 -343v-2q0 -219 109 -344t288 -125z" />
<glyph unicode="&#x153;" horiz-adv-x="2073" d="M650 -33q-264 0 -419 153.5t-155 403.5v2q0 251 155 404t419 153q241 0 396 -131q154 131 384 131q146 0 259 -48.5t182.5 -135.5t102.5 -204.5t26 -257.5v-1h-779q13 -108 73 -166.5t151 -58.5q153 0 197 108h344q-43 -156 -185.5 -254t-363.5 -98q-243 0 -395 129 q-153 -129 -392 -129zM1222 644h421v1q-6 90 -60.5 148.5t-149.5 58.5q-183 0 -211 -208zM650 216q104 0 157 81t53 227v2q0 146 -53 227.5t-157 81.5t-156.5 -81t-52.5 -228v-2q0 -146 52.5 -227t156.5 -81z" />
<glyph unicode="&#x154;" horiz-adv-x="1460" d="M895 1670h-365l229 228h419zM141 0v1470h591q620 0 620 -465v-2q0 -322 -316 -425l372 -578h-407l-339 536l-154 1v-537h-367zM508 830h228q118 0 175.5 41.5t57.5 131.5v2q0 89 -57.5 130.5t-175.5 41.5h-228v-347z" />
<glyph unicode="&#x155;" horiz-adv-x="838" d="M953 1470l-312 -258h-365l261 258h416zM116 0v1042h345v-206q39 100 123.5 161.5t196.5 61.5h20v-336h-78q-124 0 -189.5 -54t-65.5 -189v-480h-352z" />
<glyph unicode="&#x156;" horiz-adv-x="1460" d="M141 0v1470h591q620 0 620 -465v-2q0 -322 -316 -425l372 -578h-407l-339 536l-154 1v-537h-367zM508 830h228q118 0 175.5 41.5t57.5 131.5v2q0 89 -57.5 130.5t-175.5 41.5h-228v-347zM923 -96l-170 -242h-245l122 242h293z" />
<glyph unicode="&#x157;" horiz-adv-x="838" d="M116 0v1042h345v-206q39 100 123.5 161.5t196.5 61.5h20v-336h-78q-124 0 -189.5 -54t-65.5 -189v-480h-352zM440 -96l-170 -242h-245l122 242h293z" />
<glyph unicode="&#x158;" horiz-adv-x="1460" d="M242 1898h295l143 -123l144 123h295l-299 -268h-280zM141 0v1470h591q620 0 620 -465v-2q0 -322 -316 -425l372 -578h-407l-339 536l-154 1v-537h-367zM508 830h228q118 0 175.5 41.5t57.5 131.5v2q0 89 -57.5 130.5t-175.5 41.5h-228v-347z" />
<glyph unicode="&#x159;" horiz-adv-x="838" d="M323 1212l-267 258h285l117 -123l117 123h286l-268 -258h-270zM116 0v1042h345v-206q39 100 123.5 161.5t196.5 61.5h20v-336h-78q-124 0 -189.5 -54t-65.5 -189v-480h-352z" />
<glyph unicode="&#x15a;" horiz-adv-x="1424" d="M927 1670h-365l229 228h419zM729 -33q-151 0 -270.5 36.5t-197.5 103t-124 152.5t-61 191h373q45 -213 288 -213q113 0 180 41t67 116v2q0 75 -56 113.5t-177 64.5l-214 45q-210 43 -325.5 154t-115.5 293v2q0 194 167 314.5t431 120.5q268 0 421 -119t185 -332h-373 q-45 179 -248 179q-98 0 -158.5 -38.5t-60.5 -107.5v-2q0 -62 44 -102t136 -60l214 -45q241 -50 368 -154.5t127 -288.5v-2q0 -218 -170 -341t-450 -123z" />
<glyph unicode="&#x15b;" horiz-adv-x="1176" d="M1083 1470l-312 -258h-366l262 258h416zM604 -33q-237 0 -375 96.5t-156 259.5h344q27 -141 188 -141q68 0 109 25t41 71v1q0 48 -39 73t-129 43l-174 33q-161 31 -246.5 114t-85.5 206v2q0 147 134.5 240t344.5 93q219 0 349 -83.5t156 -245.5h-342q-28 115 -158 115 q-59 0 -97 -26t-38 -67v-2q0 -41 33 -65t104 -39l168 -32q184 -35 276.5 -112.5t92.5 -212.5v-2q0 -156 -136.5 -250t-363.5 -94z" />
<glyph unicode="&#x15c;" horiz-adv-x="1424" d="M274 1630l298 268h280l299 -268h-295l-144 124l-143 -124h-295zM729 -33q-151 0 -270.5 36.5t-197.5 103t-124 152.5t-61 191h373q45 -213 288 -213q113 0 180 41t67 116v2q0 75 -56 113.5t-177 64.5l-214 45q-210 43 -325.5 154t-115.5 293v2q0 194 167 314.5t431 120.5 q268 0 421 -119t185 -332h-373q-45 179 -248 179q-98 0 -158.5 -38.5t-60.5 -107.5v-2q0 -62 44 -102t136 -60l214 -45q241 -50 368 -154.5t127 -288.5v-2q0 -218 -170 -341t-450 -123z" />
<glyph unicode="&#x15d;" horiz-adv-x="1176" d="M186 1212l267 258h270l267 -258h-285l-117 124l-117 -124h-285zM604 -33q-237 0 -375 96.5t-156 259.5h344q27 -141 188 -141q68 0 109 25t41 71v1q0 48 -39 73t-129 43l-174 33q-161 31 -246.5 114t-85.5 206v2q0 147 134.5 240t344.5 93q219 0 349 -83.5t156 -245.5 h-342q-28 115 -158 115q-59 0 -97 -26t-38 -67v-2q0 -41 33 -65t104 -39l168 -32q184 -35 276.5 -112.5t92.5 -212.5v-2q0 -156 -136.5 -250t-363.5 -94z" />
<glyph unicode="&#x15e;" horiz-adv-x="1424" d="M729 -33q-151 0 -270.5 36.5t-197.5 103t-124 152.5t-61 191h373q45 -213 288 -213q113 0 180 41t67 116v2q0 75 -56 113.5t-177 64.5l-214 45q-210 43 -325.5 154t-115.5 293v2q0 194 167 314.5t431 120.5q268 0 421 -119t185 -332h-373q-45 179 -248 179 q-98 0 -158.5 -38.5t-60.5 -107.5v-2q0 -62 44 -102t136 -60l214 -45q241 -50 368 -154.5t127 -288.5v-2q0 -218 -170 -341t-450 -123zM832 -96l-122 -242h-292l169 242h245z" />
<glyph unicode="&#x15f;" horiz-adv-x="1176" d="M604 -33q-237 0 -375 96.5t-156 259.5h344q27 -141 188 -141q68 0 109 25t41 71v1q0 48 -39 73t-129 43l-174 33q-161 31 -246.5 114t-85.5 206v2q0 147 134.5 240t344.5 93q219 0 349 -83.5t156 -245.5h-342q-28 115 -158 115q-59 0 -97 -26t-38 -67v-2q0 -41 33 -65 t104 -39l168 -32q184 -35 276.5 -112.5t92.5 -212.5v-2q0 -156 -136.5 -250t-363.5 -94zM709 -96l-122 -242h-293l170 242h245z" />
<glyph unicode="&#x160;" horiz-adv-x="1424" d="M274 1898h295l143 -123l144 123h295l-299 -268h-280zM729 -33q-151 0 -270.5 36.5t-197.5 103t-124 152.5t-61 191h373q45 -213 288 -213q113 0 180 41t67 116v2q0 75 -56 113.5t-177 64.5l-214 45q-210 43 -325.5 154t-115.5 293v2q0 194 167 314.5t431 120.5 q268 0 421 -119t185 -332h-373q-45 179 -248 179q-98 0 -158.5 -38.5t-60.5 -107.5v-2q0 -62 44 -102t136 -60l214 -45q241 -50 368 -154.5t127 -288.5v-2q0 -218 -170 -341t-450 -123z" />
<glyph unicode="&#x161;" horiz-adv-x="1176" d="M453 1212l-267 258h285l117 -123l117 123h285l-267 -258h-270zM604 -33q-237 0 -375 96.5t-156 259.5h344q27 -141 188 -141q68 0 109 25t41 71v1q0 48 -39 73t-129 43l-174 33q-161 31 -246.5 114t-85.5 206v2q0 147 134.5 240t344.5 93q219 0 349 -83.5t156 -245.5 h-342q-28 115 -158 115q-59 0 -97 -26t-38 -67v-2q0 -41 33 -65t104 -39l168 -32q184 -35 276.5 -112.5t92.5 -212.5v-2q0 -156 -136.5 -250t-363.5 -94z" />
<glyph unicode="&#x162;" horiz-adv-x="1359" d="M496 0v1172h-471v298h1309v-298h-471v-1172h-367zM800 -96l-122 -242h-292l169 242h245z" />
<glyph unicode="&#x163;" horiz-adv-x="844" d="M602 0q-158 0 -249.5 39t-127.5 114t-36 202v416h-147v271h147v285h353v-285h212v-271h-212v-354q0 -87 32 -116.5t107 -29.5h70v-271h-149zM546 -96l-169 -242h-245l122 242h292z" />
<glyph unicode="&#x164;" horiz-adv-x="1359" d="M242 1898h295l143 -123l144 123h295l-299 -268h-280zM496 0v1172h-471v298h1309v-298h-471v-1172h-367z" />
<glyph unicode="&#x165;" horiz-adv-x="999" d="M673 1670h295v-328h-295v328zM602 0q-158 0 -249.5 39t-127.5 114t-36 202v416h-147v271h147v285h353v-285h212v-271h-212v-354q0 -87 32 -116.5t107 -29.5h70v-271h-149z" />
<glyph unicode="&#x166;" horiz-adv-x="1359" d="M496 0v697h-263v225h263v250h-471v298h1309v-298h-471v-250h264v-225h-264v-697h-367z" />
<glyph unicode="&#x167;" horiz-adv-x="844" d="M602 0q-158 0 -249.5 39t-127.5 114t-36 202v85h-147v163h147v168h-147v271h147v285h353v-285h212v-271h-212v-168h212v-163h-212v-23q0 -87 32 -116.5t107 -29.5h70v-271h-149z" />
<glyph unicode="&#x168;" horiz-adv-x="1523" d="M924 1911h197q0 -116 -59 -190.5t-152 -74.5q-46 0 -97 19.5t-93 39t-65 19.5q-57 0 -57 -73h-197q0 117 59 191t151 74q47 0 97.5 -19.5t92 -39t66.5 -19.5q56 0 57 73zM761 -33q-318 0 -474 144.5t-156 463.5v895h367v-893q0 -160 63 -235.5t200 -75.5t200.5 75.5 t63.5 235.5v893h367v-895q0 -319 -156 -463.5t-475 -144.5z" />
<glyph unicode="&#x169;" d="M782 1485h197q0 -117 -59 -191.5t-152 -74.5q-46 0 -97 19.5t-93 39.5t-65 20q-56 0 -57 -73h-197q0 116 59 190t152 74q47 0 97 -19.5t91.5 -38.5t66.5 -19q56 0 57 73zM471 -32q-189 0 -281 111t-92 315v648h353v-579q0 -229 169 -229q168 0 168 229v579h353v-1042 h-353v126q-109 -158 -317 -158z" />
<glyph unicode="&#x16a;" horiz-adv-x="1523" d="M421 1698v200h681v-200h-681zM761 -33q-318 0 -474 144.5t-156 463.5v895h367v-893q0 -160 63 -235.5t200 -75.5t200.5 75.5t63.5 235.5v893h367v-895q0 -319 -156 -463.5t-475 -144.5z" />
<glyph unicode="&#x16b;" d="M279 1270v200h682v-200h-682zM471 -32q-189 0 -281 111t-92 315v648h353v-579q0 -229 169 -229q168 0 168 229v579h353v-1042h-353v126q-109 -158 -317 -158z" />
<glyph unicode="&#x16c;" horiz-adv-x="1523" d="M394 1898h226q11 -38 50 -61t92 -23q52 0 91 23t50 61h226q-15 -122 -114 -193t-253 -71t-253.5 71t-114.5 193zM761 -33q-318 0 -474 144.5t-156 463.5v895h367v-893q0 -160 63 -235.5t200 -75.5t200.5 75.5t63.5 235.5v893h367v-895q0 -319 -156 -463.5t-475 -144.5z " />
<glyph unicode="&#x16d;" d="M252 1470h226q11 -38 50 -61t92 -23q52 0 91 23t50 61h226q-15 -122 -114 -193t-253 -71t-253.5 71t-114.5 193zM471 -32q-189 0 -281 111t-92 315v648h353v-579q0 -229 169 -229q168 0 168 229v579h353v-1042h-353v126q-109 -158 -317 -158z" />
<glyph unicode="&#x16e;" horiz-adv-x="1523" d="M531 1847q0 90 70 159t161 69q92 0 161 -68.5t69 -159.5q0 -95 -68 -163.5t-162 -68.5t-162.5 69t-68.5 163zM669 1847q0 -41 26 -66.5t66 -25.5q41 0 65 24t24 68q0 39 -24.5 64t-64.5 25q-39 0 -65.5 -26t-26.5 -63zM761 -33q-318 0 -474 144.5t-156 463.5v895h367 v-893q0 -160 63 -235.5t200 -75.5t200.5 75.5t63.5 235.5v893h367v-895q0 -319 -156 -463.5t-475 -144.5z" />
<glyph unicode="&#x16f;" d="M390 1422q0 91 69.5 159.5t160.5 68.5q92 0 161 -68.5t69 -159.5q0 -95 -68 -163.5t-162 -68.5t-162 68.5t-68 163.5zM528 1422q0 -41 25.5 -66.5t66.5 -25.5q40 0 64 24t24 68q0 39 -24.5 64t-63.5 25q-40 0 -66 -26t-26 -63zM471 -32q-189 0 -281 111t-92 315v648h353 v-579q0 -229 169 -229q168 0 168 229v579h353v-1042h-353v126q-109 -158 -317 -158z" />
<glyph unicode="&#x170;" horiz-adv-x="1523" d="M664 1670h-364l228 228h419zM1207 1670h-364l229 228h419zM761 -33q-318 0 -474 144.5t-156 463.5v895h367v-893q0 -160 63 -235.5t200 -75.5t200.5 75.5t63.5 235.5v893h367v-895q0 -319 -156 -463.5t-475 -144.5z" />
<glyph unicode="&#x171;" d="M797 1470l-279 -258h-328l251 258h356zM1287 1470l-279 -258h-328l251 258h356zM471 -32q-189 0 -281 111t-92 315v648h353v-579q0 -229 169 -229q168 0 168 229v579h353v-1042h-353v126q-109 -158 -317 -158z" />
<glyph unicode="&#x172;" horiz-adv-x="1523" d="M943 -181l85 -151q-86 -57 -215 -57q-124 0 -200 56t-76 147q0 83 70 162q-239 31 -357.5 176t-118.5 423v895h367v-893q0 -160 63 -235.5t200 -75.5t200.5 75.5t63.5 235.5v893h367v-895q0 -295 -133.5 -440t-403.5 -165q-42 -44 -42 -95q0 -32 19.5 -50t52.5 -18 q27 0 58 12z" />
<glyph unicode="&#x173;" d="M471 -32q-189 0 -281 111t-92 315v648h353v-579q0 -229 169 -229q168 0 168 229v579h353v-1042h-46q-36 -22 -58 -56t-22 -69q0 -32 19.5 -50t52.5 -18q27 0 58 12l86 -151q-86 -57 -216 -57q-124 0 -200 56t-76 147q0 95 93 186h-44v126q-109 -158 -317 -158z" />
<glyph unicode="&#x174;" horiz-adv-x="2076" d="M600 1630l298 268h280l299 -268h-295l-144 124l-143 -124h-295zM370 0l-322 1470h373l204 -1100l214 1100h398l212 -1101l206 1101h374l-321 -1470h-445l-225 1148l-223 -1148h-445z" />
<glyph unicode="&#x175;" horiz-adv-x="1823" d="M510 1212l267 258h269l268 -258h-285l-117 124l-117 -124h-285zM340 0l-300 1042h347l181 -701l184 701h319l189 -702l184 702h340l-300 -1042h-377l-198 716l-191 -716h-378z" />
<glyph unicode="&#x176;" horiz-adv-x="1607" d="M365 1630l298 268h281l298 -268h-295l-143 124l-144 -124h-295zM621 0v569l-583 901h398l273 -444l96 -154h1l363 598h400l-581 -901v-569h-367z" />
<glyph unicode="&#x177;" horiz-adv-x="1275" d="M235 1212l268 258h269l268 -258h-285l-117 124l-117 -124h-286zM254 -385l172 385l-400 1042h361l244 -682h2l279 682h337l-640 -1427h-355z" />
<glyph unicode="&#x178;" horiz-adv-x="1607" d="M698 1668h-279v231h279v-231zM1189 1668h-279v231h279v-231zM621 0v569l-583 901h398l273 -444l96 -154h1l363 598h400l-581 -901v-569h-367z" />
<glyph unicode="&#x179;" horiz-adv-x="1348" d="M938 1670h-364l228 228h419zM88 0v286l700 886h-670v298h1125v-286l-702 -885h719v-299h-1172z" />
<glyph unicode="&#x17a;" horiz-adv-x="1121" d="M1080 1470l-312 -258h-365l261 258h416zM73 0v263l556 508h-540v271h938v-261l-565 -510h586v-271h-975z" />
<glyph unicode="&#x17b;" horiz-adv-x="1348" d="M863 1667h-279v231h279v-231zM88 0v286l700 886h-670v298h1125v-286l-702 -885h719v-299h-1172z" />
<glyph unicode="&#x17c;" horiz-adv-x="1121" d="M717 1232h-263v238h263v-238zM73 0v263l556 508h-540v271h938v-261l-565 -510h586v-271h-975z" />
<glyph unicode="&#x17d;" horiz-adv-x="1348" d="M285 1898h295l144 -123l143 123h295l-298 -268h-281zM88 0v286l700 886h-670v298h1125v-286l-702 -885h719v-299h-1172z" />
<glyph unicode="&#x17e;" horiz-adv-x="1121" d="M450 1212l-267 258h286l116 -123l117 123h286l-268 -258h-270zM73 0v263l556 508h-540v271h938v-261l-565 -510h586v-271h-975z" />
<glyph unicode="&#x218;" horiz-adv-x="1424" d="M729 -33q-151 0 -270.5 36.5t-197.5 103t-124 152.5t-61 191h373q45 -213 288 -213q113 0 180 41t67 116v2q0 75 -56 113.5t-177 64.5l-214 45q-210 43 -325.5 154t-115.5 293v2q0 194 167 314.5t431 120.5q268 0 421 -119t185 -332h-373q-45 179 -248 179 q-98 0 -158.5 -38.5t-60.5 -107.5v-2q0 -62 44 -102t136 -60l214 -45q241 -50 368 -154.5t127 -288.5v-2q0 -218 -170 -341t-450 -123zM860 -96l-169 -242h-245l122 242h292z" />
<glyph unicode="&#x219;" horiz-adv-x="1176" d="M604 -33q-237 0 -375 96.5t-156 259.5h344q27 -141 188 -141q68 0 109 25t41 71v1q0 48 -39 73t-129 43l-174 33q-161 31 -246.5 114t-85.5 206v2q0 147 134.5 240t344.5 93q219 0 349 -83.5t156 -245.5h-342q-28 115 -158 115q-59 0 -97 -26t-38 -67v-2q0 -41 33 -65 t104 -39l168 -32q184 -35 276.5 -112.5t92.5 -212.5v-2q0 -156 -136.5 -250t-363.5 -94zM737 -96l-170 -242h-245l122 242h293z" />
<glyph unicode="&#x21a;" horiz-adv-x="1359" d="M496 0v1172h-471v298h1309v-298h-471v-1172h-367zM828 -96l-169 -242h-245l122 242h292z" />
<glyph unicode="&#x21b;" horiz-adv-x="844" d="M602 0q-158 0 -249.5 39t-127.5 114t-36 202v416h-147v271h147v285h353v-285h212v-271h-212v-354q0 -87 32 -116.5t107 -29.5h70v-271h-149zM546 -96l-169 -242h-245l122 242h292z" />
<glyph unicode="&#x2c6;" horiz-adv-x="905" d="M50 1212l267 258h270l268 -258h-286l-117 124l-116 -124h-286z" />
<glyph unicode="&#x2da;" horiz-adv-x="560" d="M50 1422q0 91 69.5 159.5t160.5 68.5q93 0 161.5 -68t68.5 -160q0 -95 -67.5 -163.5t-162.5 -68.5q-94 0 -162 68.5t-68 163.5zM188 1422q0 -41 25.5 -66.5t66.5 -25.5q40 0 64 24t24 68q0 39 -24.5 64t-63.5 25q-40 0 -66 -26t-26 -63z" />
<glyph unicode="&#x2dc;" horiz-adv-x="821" d="M574 1485h197q0 -117 -59 -191.5t-152 -74.5q-46 0 -97.5 19.5t-93.5 39.5t-65 20q-56 0 -57 -73h-197q0 116 59 190t152 74q47 0 97 -19.5t91.5 -38.5t66.5 -19q57 0 58 73z" />
<glyph unicode="&#x2000;" horiz-adv-x="1037" />
<glyph unicode="&#x2001;" horiz-adv-x="2075" />
<glyph unicode="&#x2002;" horiz-adv-x="1037" />
<glyph unicode="&#x2003;" horiz-adv-x="2075" />
<glyph unicode="&#x2004;" horiz-adv-x="691" />
<glyph unicode="&#x2005;" horiz-adv-x="518" />
<glyph unicode="&#x2006;" horiz-adv-x="345" />
<glyph unicode="&#x2007;" horiz-adv-x="345" />
<glyph unicode="&#x2008;" horiz-adv-x="259" />
<glyph unicode="&#x2009;" horiz-adv-x="415" />
<glyph unicode="&#x200a;" horiz-adv-x="115" />
<glyph unicode="&#x2010;" horiz-adv-x="859" d="M100 371v301h659v-301h-659z" />
<glyph unicode="&#x2011;" horiz-adv-x="859" d="M100 371v301h659v-301h-659z" />
<glyph unicode="&#x2012;" horiz-adv-x="859" d="M100 371v301h659v-301h-659z" />
<glyph unicode="&#x2013;" horiz-adv-x="1252" d="M100 371v301h1052v-301h-1052z" />
<glyph unicode="&#x2014;" horiz-adv-x="2052" d="M100 371v301h1852v-301h-1852z" />
<glyph unicode="&#x2018;" horiz-adv-x="655" d="M590 1470l-144 -569h-363l190 569h317z" />
<glyph unicode="&#x2019;" horiz-adv-x="655" d="M65 901l144 569h362l-190 -569h-316z" />
<glyph unicode="&#x201a;" horiz-adv-x="655" d="M65 -220l144 569h362l-190 -569h-316z" />
<glyph unicode="&#x201c;" horiz-adv-x="1138" d="M590 1470l-144 -569h-363l190 569h317zM1074 1470l-144 -569h-363l190 569h317z" />
<glyph unicode="&#x201d;" horiz-adv-x="1138" d="M548 901l144 569h363l-190 -569h-317zM65 901l144 569h362l-190 -569h-316z" />
<glyph unicode="&#x201e;" horiz-adv-x="1138" d="M65 -220l144 569h362l-190 -569h-316zM548 -220l144 569h363l-190 -569h-317z" />
<glyph unicode="&#x2026;" horiz-adv-x="1869" d="M1117 0h-363v349h363v-349zM1740 0h-363v349h363v-349zM493 0h-362v349h362v-349z" />
<glyph unicode="&#x202f;" horiz-adv-x="415" />
<glyph unicode="&#x2039;" horiz-adv-x="793" d="M312 192l-236 373l236 372h365l-229 -372l229 -373h-365z" />
<glyph unicode="&#x203a;" horiz-adv-x="793" d="M717 565l-236 -373h-365l229 373l-229 372h365z" />
<glyph unicode="&#x205f;" horiz-adv-x="518" />
<glyph unicode="&#x20ac;" horiz-adv-x="1706" d="M965 -33q-261 0 -437.5 137t-232.5 394h-276l87 181h167q-1 17 -1 52v8v41h-253l87 181h187q53 262 230.5 402t441.5 140q265 0 438.5 -137.5t212.5 -401.5h-370q-48 241 -284 241q-100 0 -173 -60.5t-107 -183.5h371l-87 -181h-309q-1 -13 -1 -40v-10q0 -34 1 -51h396 l-87 -181h-281q35 -117 107 -175t170 -58q236 0 284 241h370q-39 -264 -212.5 -401.5t-438.5 -137.5z" />
<glyph unicode="&#x25fc;" horiz-adv-x="1040" d="M0 1040h1040v-1040h-1040v1040z" />
</font>
</defs>
</svg>
