<?xml version="1.0" standalone="no"?>
<!DOCTYPE svg PUBLIC "-//W3C//DTD SVG 1.1//EN" "http://www.w3.org/Graphics/SVG/1.1/DTD/svg11.dtd" >
<svg xmlns="http://www.w3.org/2000/svg" xmlns:xlink="http://www.w3.org/1999/xlink" version="1.1">
<metadata></metadata>
<defs>
<font id="antarctica_betaextra_black" horiz-adv-x="1305" >
<font-face units-per-em="2000" ascent="1600" descent="-400" />
<missing-glyph horiz-adv-x="410" />
<glyph horiz-adv-x="1000" />
<glyph horiz-adv-x="1000" />
<glyph unicode="&#xd;" horiz-adv-x="0" />
<glyph unicode=" "  horiz-adv-x="410" />
<glyph unicode="&#x09;" horiz-adv-x="410" />
<glyph unicode="&#xa0;" horiz-adv-x="410" />
<glyph unicode="!" horiz-adv-x="722" d="M168 573l-57 557v340h500v-340l-58 -557h-385zM602 0h-482v433h482v-433z" />
<glyph unicode="&#x22;" horiz-adv-x="1330" d="M735 1470h495v-120l-25 -407h-445l-25 407v120zM100 1470h495v-120l-25 -407h-445l-25 407v120z" />
<glyph unicode="#" horiz-adv-x="1539" d="M167 835l43 325h185l40 310h330l-40 -310h202l40 310h330l-40 -310h182l-44 -325h-181l-25 -189h182l-43 -325h-181l-42 -321h-329l42 321h-203l-42 -321h-329l42 321h-186l43 325h185l24 189h-185zM657 646h203l24 189h-202z" />
<glyph unicode="$" horiz-adv-x="1498" d="M563 -246v226q-116 20 -207 64.5t-151.5 107.5t-96 139t-48.5 165h500q16 -69 70.5 -106.5t144.5 -37.5q82 0 129 27t47 71v1q0 42 -40 70t-135 45l-231 42q-226 41 -350 161t-124 309v2q0 174 134 296.5t358 157.5v222h339v-222q218 -34 340.5 -154.5t151.5 -309.5h-500 q-15 59 -62.5 91.5t-119.5 32.5q-71 0 -112.5 -23.5t-41.5 -66.5v-1q0 -78 134 -103l231 -42q262 -48 388.5 -161.5t126.5 -299.5v-2q0 -202 -143.5 -329.5t-392.5 -155.5v-216h-339z" />
<glyph unicode="%" horiz-adv-x="2267" d="M496 675q-190 0 -308 110.5t-118 304.5v2q0 194 118 304.5t308 110.5t308 -110.5t118 -304.5v-2q0 -194 -118 -304.5t-308 -110.5zM598 0l633 1470h439l-633 -1470h-439zM496 899q63 0 89.5 49t26.5 142v2q0 93 -26.5 142t-89.5 49t-89 -49t-26 -142v-2q0 -93 26 -142 t89 -49zM1771 -37q-190 0 -308 110.5t-118 304.5v2q0 194 118 304.5t308 110.5t308 -110.5t118 -304.5v-2q0 -194 -118 -304.5t-308 -110.5zM1771 187q63 0 89.5 49t26.5 142v2q0 93 -26.5 142t-89.5 49t-89 -49t-26 -142v-2q0 -93 26 -142t89 -49z" />
<glyph unicode="&#x26;" horiz-adv-x="1839" d="M1233 0l-114 112q-101 -77 -213 -113t-268 -36q-267 0 -417.5 119.5t-150.5 321.5v6q0 138 83.5 243t234.5 173l-23 22q-48 58 -79 135t-31 150v3q0 157 132.5 264t363.5 107q239 0 366 -98.5t127 -260.5v-3q0 -106 -73 -196t-190 -152l130 -126q18 31 49 88t43 79h469 q-97 -222 -277 -444l404 -394h-566zM751 1026q55 47 55 115v1q0 73 -55 73q-52 0 -52 -72v-2q0 -55 52 -115zM863 361l-232 227q-85 -73 -85 -168v-6q0 -62 40 -97.5t103 -35.5q85 0 174 80z" />
<glyph unicode="'" horiz-adv-x="695" d="M100 1470h495v-120l-25 -407h-445l-25 407v120z" />
<glyph unicode="(" horiz-adv-x="824" d="M774 1585q-131 -210 -202.5 -463.5t-71.5 -508.5t71.5 -508.5t202.5 -463.5h-395q-125 180 -202 448.5t-77 523.5t77 523.5t202 448.5h395z" />
<glyph unicode=")" horiz-adv-x="824" d="M50 1585h395q125 -180 202 -448.5t77 -523.5t-77 -523.5t-202 -448.5h-395q131 210 202.5 463.5t71.5 508.5t-71.5 508.5t-202.5 463.5z" />
<glyph unicode="*" horiz-adv-x="959" d="M366 749l-198 144l113 153l-181 60l76 233l181 -60v191h245v-191l181 60l76 -233l-181 -60l113 -153l-198 -144l-114 153z" />
<glyph unicode="+" horiz-adv-x="1282" d="M440 935v341h400v-341h342v-400h-342v-341h-400v341h-340v400h340z" />
<glyph unicode="," horiz-adv-x="750" d="M52 -214l145 647h483l-199 -647h-429z" />
<glyph unicode="-" horiz-adv-x="910" d="M100 321v400h710v-400h-710z" />
<glyph unicode="." horiz-adv-x="682" d="M582 0h-482v433h482v-433z" />
<glyph unicode="/" horiz-adv-x="1326" d="M120 -206l611 1676h475l-611 -1676h-475z" />
<glyph unicode="0" horiz-adv-x="1630" d="M815 -37q-349 0 -547 202.5t-198 568.5v2q0 366 198 568.5t547 202.5t547 -202.5t198 -568.5v-2q0 -366 -198 -568.5t-547 -202.5zM815 335q245 0 245 399v2q0 399 -245 399t-245 -399v-2q0 -399 245 -399z" />
<glyph unicode="1" horiz-adv-x="1064" d="M359 0v895h-319v393h42q167 0 249.5 36.5t127.5 145.5h395v-1470h-495z" />
<glyph unicode="2" horiz-adv-x="1455" d="M60 0v56q0 119 14 209.5t49 175t94.5 150.5t150.5 124.5t218 108.5l96 38q111 44 154.5 83.5t43.5 95.5v2q0 53 -36.5 82t-101.5 29q-71 0 -114 -43.5t-47 -133.5h-500q24 262 200.5 396t474.5 134q187 0 330 -49t226 -148.5t83 -238.5v-2q0 -179 -102 -294.5 t-320 -202.5l-96 -38q-117 -47 -158 -76t-52 -65h700v-393h-1307z" />
<glyph unicode="3" horiz-adv-x="1520" d="M792 -37q-199 0 -355.5 57.5t-257.5 176.5t-119 288h500q23 -93 78.5 -131t141.5 -38q81 0 130.5 31.5t49.5 88.5v2q0 62 -51.5 95t-172.5 33h-134v352h134q91 0 136 34t45 88v2q0 52 -40.5 82t-109.5 30q-152 0 -176 -148h-500q33 243 216.5 372t482.5 129 q179 0 316.5 -43t221 -135.5t83.5 -225.5v-1q0 -105 -46 -190t-128 -127v-2q223 -95 223 -339v-2q0 -219 -185.5 -349t-482.5 -130z" />
<glyph unicode="4" horiz-adv-x="1519" d="M765 0v263h-735v395l735 812h495v-814h229v-393h-229v-263h-495zM475 656h290v327h-2z" />
<glyph unicode="5" horiz-adv-x="1488" d="M755 -37q-273 0 -466 126.5t-229 334.5h500q50 -108 188 -108q82 0 131.5 42t49.5 112v2q0 71 -49.5 115.5t-130.5 44.5q-135 0 -186 -112l-472 58l93 892h1132v-393h-723l-22 -206q123 114 339 114q242 0 380 -136t138 -365v-1q0 -237 -182.5 -378.5t-490.5 -141.5z" />
<glyph unicode="6" horiz-adv-x="1486" d="M768 -37q-172 0 -306 54t-219 151.5t-129 229t-44 290.5v2q0 178 44.5 325.5t131 258t225 172t316.5 61.5q252 0 407.5 -126t188.5 -324h-462q-19 52 -54.5 74.5t-96.5 22.5q-202 0 -213 -296q123 113 344 113q70 0 140 -16.5t138.5 -55t120.5 -94t84 -140.5t32 -187v-2 q0 -123 -50.5 -222t-139.5 -162t-205.5 -96t-252.5 -33zM749 316q82 0 134.5 40.5t52.5 111.5v2q0 71 -52.5 111.5t-134.5 40.5q-81 0 -133.5 -40.5t-52.5 -111.5v-2q0 -71 52.5 -111.5t133.5 -40.5z" />
<glyph unicode="7" horiz-adv-x="1346" d="M237 0q-7 745 607 1077h-804v393h1266v-393q-295 -184 -437.5 -444t-136.5 -633h-495z" />
<glyph unicode="8" horiz-adv-x="1478" d="M739 -37q-170 0 -301 38.5t-210 104.5t-118.5 148.5t-39.5 176.5v2q0 115 64 206t160 138v1q-174 103 -174 321v2q0 183 157 294.5t462 111.5t462 -111.5t157 -294.5v-2q0 -218 -174 -321v-1q96 -47 160 -138t64 -206v-2q0 -94 -39.5 -176.5t-118.5 -148.5t-210 -104.5 t-301 -38.5zM739 926q58 0 93 31t35 82v2q0 51 -35 82t-93 31t-93 -31t-35 -82v-2q0 -51 35 -82t93 -31zM739 316q80 0 125 38t45 94v2q0 56 -45 94t-125 38t-125 -38t-45 -94v-2q0 -56 45 -94t125 -38z" />
<glyph unicode="9" horiz-adv-x="1486" d="M718 1507q172 0 306 -54t219 -151.5t129 -229t44 -290.5v-2q0 -178 -44.5 -325.5t-131 -258t-225 -172t-316.5 -61.5q-252 0 -407.5 126t-188.5 324h462q19 -52 54.5 -74.5t96.5 -22.5q202 0 213 296q-123 -113 -344 -113q-70 0 -140 16.5t-138.5 55t-120.5 94t-84 140.5 t-32 187v2q0 123 50.5 222t139.5 162t205.5 96t252.5 33zM737 1154q-82 0 -134.5 -40.5t-52.5 -111.5v-2q0 -71 52.5 -111.5t134.5 -40.5q81 0 133.5 40.5t52.5 111.5v2q0 71 -52.5 111.5t-133.5 40.5z" />
<glyph unicode=":" horiz-adv-x="682" d="M582 609h-482v433h482v-433zM582 0h-482v433h482v-433z" />
<glyph unicode=";" horiz-adv-x="766" d="M666 609h-482v433h482v-433zM52 -214l145 647h483l-199 -647h-429z" />
<glyph unicode="&#x3c;" horiz-adv-x="1107" d="M100 901l907 485v-454l-402 -203v-1l402 -202v-454l-907 485v344z" />
<glyph unicode="=" horiz-adv-x="1282" d="M100 787v400h1082v-400h-1082zM100 282v400h1082v-400h-1082z" />
<glyph unicode="&#x3e;" horiz-adv-x="1107" d="M100 1386l907 -485v-344l-907 -485v454l402 202v1l-402 203v454z" />
<glyph unicode="?" horiz-adv-x="1312" d="M657 1154q-48 0 -70 -36t-22 -116h-505q11 232 173.5 368.5t430.5 136.5q269 0 428.5 -107.5t159.5 -277.5v-1q0 -113 -57 -200t-160 -142l-19 -10q-80 -42 -117.5 -88t-37.5 -108h-455q0 115 42 184t134 122l24 14q73 43 104.5 79t31.5 86v1q0 43 -20.5 69t-64.5 26z M873 0h-482v433h482v-433z" />
<glyph unicode="@" horiz-adv-x="1816" d="M782 236q-63 0 -118.5 22.5t-101 66.5t-72.5 118t-27 169v2q0 122 50 231t149.5 180.5t226.5 71.5q79 0 139.5 -35.5t91.5 -92.5l12 92h179l-59 -451q-27 -203 70 -203q75 0 124 92t49 248v2q0 240 -148 372.5t-396 132.5q-135 0 -250.5 -47.5t-197 -131t-128 -202 t-46.5 -256.5v-2q0 -253 149.5 -401t410.5 -148q179 0 366 88l71 -164q-195 -101 -437 -101q-347 0 -553 199.5t-206 537.5v2q0 226 109 407.5t297 282.5t417 101q118 0 224.5 -24.5t200 -77.5t161.5 -129t107.5 -185.5t39.5 -241.5v-2q0 -123 -33 -225.5t-87.5 -167.5 t-122.5 -100.5t-140 -35.5q-79 0 -134.5 43.5t-69.5 128.5q-45 -79 -130 -122.5t-187 -43.5zM843 418q117 0 183.5 89t66.5 221v2q0 83 -48 131.5t-132 48.5q-108 0 -173.5 -87t-65.5 -207v-2q0 -97 44 -146.5t125 -49.5z" />
<glyph unicode="A" horiz-adv-x="1666" d="M30 0l477 1470h650l479 -1470h-519l-77 294h-414l-77 -294h-519zM726 677h214l-106 404h-2z" />
<glyph unicode="B" horiz-adv-x="1476" d="M110 0v1470h719q260 0 392 -98t132 -273v-2q0 -107 -53 -192.5t-130 -125.5v-1q124 -52 195 -133t71 -212v-2q0 -206 -150.5 -318.5t-434.5 -112.5h-741zM605 924h148q66 0 95 20.5t29 65.5v2q0 45 -29 65.5t-95 20.5h-148v-174zM605 372h187q71 0 102 23.5t31 70.5v2 q0 47 -31 70.5t-102 23.5h-187v-190z" />
<glyph unicode="C" horiz-adv-x="1647" d="M849 -37q-230 0 -408.5 92t-279.5 268t-101 411v2q0 235 101 411t279.5 268t408.5 92q302 0 499.5 -150t248.5 -431h-500q-31 101 -93 144.5t-158 43.5q-120 0 -195.5 -95.5t-75.5 -282.5v-2q0 -187 75.5 -282.5t195.5 -95.5q96 0 158 43.5t93 144.5h500 q-51 -281 -248.5 -431t-499.5 -150z" />
<glyph unicode="D" horiz-adv-x="1623" d="M110 0v1470h623q131 0 247 -22.5t224.5 -76t186.5 -135.5t125 -210t47 -290v-2q0 -156 -46.5 -282t-125.5 -209t-186.5 -139t-225 -80t-246.5 -24h-623zM605 384h112q164 0 247.5 78t83.5 272v2q0 194 -83.5 272t-247.5 78h-112v-702z" />
<glyph unicode="E" horiz-adv-x="1367" d="M110 0v1470h1147v-393h-652v-146h594v-393h-594v-145h662v-393h-1157z" />
<glyph unicode="F" horiz-adv-x="1312" d="M110 0v1470h1147v-393h-652v-146h594v-393h-594v-538h-495z" />
<glyph unicode="G" horiz-adv-x="1707" d="M815 -37q-159 0 -296 51t-239.5 147t-161 243.5t-58.5 330.5v2q0 177 58.5 322t163 243t250 151.5t317.5 53.5q299 0 496 -135.5t252 -387.5h-500q-56 130 -228 130q-135 0 -214.5 -94t-79.5 -283v-2q0 -202 79 -297.5t216 -95.5q111 0 177 49t66 130v1h-309v343h789 v-865h-335l-8 136q-61 -77 -173 -125t-262 -48z" />
<glyph unicode="H" horiz-adv-x="1589" d="M110 0v1470h495v-520h379v520h495v-1470h-495v520h-379v-520h-495z" />
<glyph unicode="I" horiz-adv-x="715" d="M110 0v1470h495v-1470h-495z" />
<glyph unicode="J" horiz-adv-x="1360" d="M650 -37q-316 0 -468 154t-152 425h491q0 -101 33.5 -146.5t103.5 -45.5q68 0 94.5 43.5t26.5 148.5v928h491v-928q0 -271 -152 -425t-468 -154z" />
<glyph unicode="K" horiz-adv-x="1592" d="M110 0v1470h495v-549l373 549h577l-505 -712l542 -758h-606l-381 540v-540h-495z" />
<glyph unicode="L" horiz-adv-x="1207" d="M110 0v1470h495v-1077h562v-393h-1057z" />
<glyph unicode="M" horiz-adv-x="2060" d="M110 0v1470h710l209 -921h2l209 921h710v-1470h-457v686l10 271h-2l-235 -957h-472l-235 957h-2l10 -271v-686h-457z" />
<glyph unicode="N" horiz-adv-x="1589" d="M110 0v1470h618l306 -854h2l-15 421v433h458v-1470h-624l-300 854h-2l15 -421v-433h-458z" />
<glyph unicode="O" horiz-adv-x="1744" d="M872 -37q-236 0 -419.5 92t-288 268t-104.5 411v2q0 235 104.5 411t288 268t419.5 92t419.5 -92t288 -268t104.5 -411v-2q0 -235 -104.5 -411t-288 -268t-419.5 -92zM872 356q129 0 213 95.5t84 282.5v2q0 187 -84 282.5t-213 95.5t-213 -95.5t-84 -282.5v-2 q0 -187 84 -282.5t213 -95.5z" />
<glyph unicode="P" horiz-adv-x="1458" d="M110 0v1470h634q123 0 221.5 -14t187 -49.5t147.5 -92t93.5 -146.5t34.5 -208v-2q0 -118 -34.5 -208t-93.5 -147t-147.5 -92.5t-187 -49.5t-221.5 -14h-139v-447h-495zM605 831h130q92 0 135 30t43 97v2q0 67 -43 96.5t-135 29.5h-130v-255z" />
<glyph unicode="Q" horiz-adv-x="1744" d="M872 -37q-236 0 -419.5 92t-288 268t-104.5 411v2q0 235 104.5 411t288 268t419.5 92t419.5 -92t288 -268t104.5 -411v-2q0 -176 -59.5 -319.5t-168.5 -245.5l317 -362h-482l-164 187q-122 -31 -255 -31zM872 356q129 0 213 95.5t84 282.5v2q0 187 -84 282.5t-213 95.5 t-213 -95.5t-84 -282.5v-2q0 -187 84 -282.5t213 -95.5z" />
<glyph unicode="R" horiz-adv-x="1534" d="M110 0v1470h664q124 0 222 -13t186.5 -46.5t147.5 -87.5t93.5 -141t34.5 -202v-2q0 -315 -287 -429l323 -549h-538l-278 487h-73v-487h-495zM605 871h178q81 0 120.5 24t39.5 83v2q0 58 -39.5 82t-120.5 24h-178v-215z" />
<glyph unicode="S" horiz-adv-x="1498" d="M768 -37q-167 0 -297.5 37.5t-214.5 105.5t-132.5 155.5t-63.5 194.5h500q16 -69 70.5 -106.5t144.5 -37.5q82 0 129 27t47 71v1q0 42 -40 70t-135 45l-231 42q-226 41 -350 161t-124 309v2q0 207 183.5 337t475.5 130q299 0 464 -126.5t200 -350.5h-500 q-15 59 -62.5 91.5t-119.5 32.5q-71 0 -112.5 -23.5t-41.5 -66.5v-1q0 -78 134 -103l231 -42q262 -48 388.5 -161.5t126.5 -299.5v-2q0 -229 -182 -360.5t-488 -131.5z" />
<glyph unicode="T" horiz-adv-x="1421" d="M463 0v1077h-453v393h1401v-393h-453v-1077h-495z" />
<glyph unicode="U" horiz-adv-x="1552" d="M776 -37q-356 0 -516 148.5t-160 478.5v880h495v-877q0 -58 7 -97t25.5 -73t55.5 -50.5t93 -16.5t93 16.5t55.5 50.5t25.5 73t7 97v877h495v-880q0 -330 -160 -478.5t-516 -148.5z" />
<glyph unicode="V" horiz-adv-x="1666" d="M509 0l-479 1470h519l316 -998l279 998h492l-477 -1470h-650z" />
<glyph unicode="W" horiz-adv-x="2114" d="M305 0l-265 1470h501l106 -985h6l151 985h506l143 -985h7l111 985h503l-267 -1470h-591l-157 1042h-6l-157 -1042h-591z" />
<glyph unicode="X" horiz-adv-x="1705" d="M65 0l510 731l-500 739h590l205 -329l212 329h536l-494 -707l516 -763h-590l-221 353l-228 -353h-536z" />
<glyph unicode="Y" horiz-adv-x="1757" d="M633 0v552l-603 918h530l320 -516h1l314 516h532l-599 -918v-552h-495z" />
<glyph unicode="Z" horiz-adv-x="1406" d="M80 0v375l609 702h-584v393h1202v-375l-610 -702h629v-393h-1246z" />
<glyph unicode="[" horiz-adv-x="930" d="M100 -359v1944h730v-350h-330v-1244h330v-350h-730z" />
<glyph unicode="\" horiz-adv-x="1326" d="M595 1470l611 -1676h-475l-611 1676h475z" />
<glyph unicode="]" horiz-adv-x="930" d="M830 1585v-1944h-730v350h330v1244h-330v350h730z" />
<glyph unicode="_" horiz-adv-x="1230" d="M50 -437v400h1130v-400h-1130z" />
<glyph unicode="`" horiz-adv-x="893" d="M358 1212l-308 258h535l258 -258h-485z" />
<glyph unicode="a" horiz-adv-x="1291" d="M453 -37q-171 0 -290.5 89t-119.5 233v2q0 79 31.5 140.5t88 103.5t144 71t191.5 45t239 23v22q0 122 -99 122q-85 0 -93 -102h-457q11 84 46.5 152t99.5 122.5t168 84t240 29.5q129 0 228 -24.5t178 -79.5t121 -153.5t41 -237.5l-2 -322q-2 -178 35 -283h-439 q-6 40 -6 115q-102 -152 -345 -152zM752 427q-122 -11 -174 -35.5t-52 -78.5v-2q0 -37 25.5 -62t71.5 -25q129 0 129 173v30z" />
<glyph unicode="b" horiz-adv-x="1361" d="M859 -37q-107 0 -183.5 37.5t-118.5 98.5v-99h-477v1470h477v-527q42 61 118.5 98.5t183.5 37.5q87 0 166.5 -36t142.5 -103.5t100.5 -176t37.5 -241.5v-2q0 -133 -37.5 -241.5t-100.5 -176t-142.5 -103.5t-166.5 -36zM676 286q132 0 132 234v2q0 234 -132 234t-132 -234 v-2q0 -234 132 -234z" />
<glyph unicode="c" horiz-adv-x="1288" d="M647 -37q-276 0 -434 153.5t-158 410.5v2q0 257 158 410.5t434 153.5q257 0 406 -123t180 -322h-465q-7 68 -34.5 98t-76.5 30q-115 0 -115 -247v-2q0 -247 115 -247q49 0 76.5 30t34.5 98h465q-31 -199 -180 -322t-406 -123z" />
<glyph unicode="d" horiz-adv-x="1361" d="M502 -37q-87 0 -166.5 36t-142.5 103.5t-100.5 176t-37.5 241.5v2q0 133 37.5 241.5t100.5 176t142.5 103.5t166.5 36q107 0 183.5 -37.5t118.5 -98.5v527h477v-1470h-477v99q-42 -61 -118.5 -98.5t-183.5 -37.5zM685 286q132 0 132 234v2q0 234 -132 234t-132 -234v-2 q0 -234 132 -234z" />
<glyph unicode="e" horiz-adv-x="1333" d="M668 -37q-283 0 -448 148.5t-165 413.5v2q0 173 80 303t216.5 196.5t308.5 66.5q166 0 290 -51t197 -143t105 -213.5t24 -269.5v-1h-744q11 -73 50 -108t95 -35q101 0 129 64h457q-41 -162 -196.5 -267.5t-398.5 -105.5zM529 658h273v1q-3 62 -37 102.5t-98 40.5 q-118 0 -138 -144z" />
<glyph unicode="f" horiz-adv-x="872" d="M162 0v690h-132v352h132v27q0 210 116.5 305.5t378.5 95.5h165v-329h-71q-62 0 -87 -19t-25 -63v-17h183v-352h-183v-690h-477z" />
<glyph unicode="g" horiz-adv-x="1367" d="M521 21q-91 0 -173.5 33.5t-148.5 97.5t-105 166.5t-39 230.5v2q0 128 39 230.5t105 166.5t148.5 97.5t173.5 33.5q100 0 174 -34.5t115 -90.5v88h477v-925q0 -141 -42.5 -243.5t-125 -164t-194 -90.5t-258.5 -29q-243 0 -392.5 100.5t-183.5 275.5h451 q12 -42 46.5 -63.5t82.5 -21.5q139 0 139 165v100q-41 -56 -115 -90.5t-174 -34.5zM687 344q69 0 102.5 55t33.5 150v2q0 95 -33.5 150t-102.5 55q-68 0 -102 -55t-34 -150v-2q0 -95 34 -150t102 -55z" />
<glyph unicode="h" d="M80 0v1470h477v-537q111 146 317 146q191 0 278.5 -105t87.5 -303v-671h-477v582q0 80 -25 116t-78 36t-78 -36t-25 -116v-582h-477z" />
<glyph unicode="i" horiz-adv-x="637" d="M80 1131v339h477v-339h-477zM80 0v1042h477v-1042h-477z" />
<glyph unicode="j" horiz-adv-x="638" d="M81 1131v339h477v-339h-477zM-51 -385v344h37q51 0 73 18t22 85v980h477v-1013q0 -233 -108 -323.5t-389 -90.5h-112z" />
<glyph unicode="k" horiz-adv-x="1399" d="M80 0v1470h477v-791l259 363h527l-367 -504l403 -538h-579l-243 328v-328h-477z" />
<glyph unicode="l" horiz-adv-x="637" d="M80 0v1470h477v-1470h-477z" />
<glyph unicode="m" horiz-adv-x="1988" d="M80 0v1042h477v-109q111 146 317 146q245 0 325 -179q57 91 153.5 135t204.5 44q191 0 278.5 -105t87.5 -303v-671h-477v582q0 80 -25 116t-78 36t-78 -36t-25 -116v-582h-477v582q0 80 -25 116t-78 36t-78 -36t-25 -116v-582h-477z" />
<glyph unicode="n" d="M80 0v1042h477v-109q111 146 317 146q191 0 278.5 -105t87.5 -303v-671h-477v582q0 80 -25 116t-78 36t-78 -36t-25 -116v-582h-477z" />
<glyph unicode="o" horiz-adv-x="1336" d="M668 -37q-284 0 -448.5 152.5t-164.5 411.5v2q0 259 164.5 411.5t448.5 152.5t448.5 -152.5t164.5 -411.5v-2q0 -259 -164.5 -411.5t-448.5 -152.5zM668 280q125 0 125 247v2q0 247 -125 247t-125 -247v-2q0 -247 125 -247z" />
<glyph unicode="p" horiz-adv-x="1361" d="M859 -37q-107 0 -183.5 37.5t-118.5 98.5v-484h-477v1427h477v-99q42 61 118.5 98.5t183.5 37.5q87 0 166.5 -36t142.5 -103.5t100.5 -176t37.5 -241.5v-2q0 -133 -37.5 -241.5t-100.5 -176t-142.5 -103.5t-166.5 -36zM676 286q132 0 132 234v2q0 234 -132 234t-132 -234 v-2q0 -234 132 -234z" />
<glyph unicode="q" horiz-adv-x="1361" d="M502 -37q-87 0 -166.5 36t-142.5 103.5t-100.5 176t-37.5 241.5v2q0 133 37.5 241.5t100.5 176t142.5 103.5t166.5 36q107 0 183.5 -37.5t118.5 -98.5v99h477v-1427h-477v484q-42 -61 -118.5 -98.5t-183.5 -37.5zM685 286q132 0 132 234v2q0 234 -132 234t-132 -234v-2 q0 -234 132 -234z" />
<glyph unicode="r" horiz-adv-x="900" d="M80 0v1042h465v-223q32 105 116 174.5t189 69.5h20v-450h-97q-51 0 -86.5 -7t-67 -25.5t-47 -57t-15.5 -96.5v-427h-477z" />
<glyph unicode="s" horiz-adv-x="1256" d="M645 -37q-270 0 -422.5 96t-166.5 268h460q15 -98 125 -98q40 0 65.5 15.5t25.5 41.5v1q0 28 -28 46t-101 31l-191 34q-182 33 -269.5 122.5t-87.5 210.5v2q0 159 148.5 259.5t385.5 100.5q516 0 568 -348h-457q-14 83 -97 83q-35 0 -57 -16t-22 -39v-2q0 -29 27 -44.5 t91 -27.5l182 -32q198 -35 287.5 -119.5t89.5 -220.5v-2q0 -161 -149 -261.5t-407 -100.5z" />
<glyph unicode="t" horiz-adv-x="900" d="M637 0q-143 0 -236.5 24t-144.5 75t-70.5 117t-19.5 164v310h-136v352h136v298h477v-298h187v-352h-187v-214q0 -74 24 -99t81 -25h82v-352h-193z" />
<glyph unicode="u" d="M431 -35q-191 0 -278.5 105t-87.5 303v669h477v-580q0 -80 25 -116t78 -36t78 36t25 116v580h477v-1042h-477v127q-48 -76 -130.5 -119t-186.5 -43z" />
<glyph unicode="v" horiz-adv-x="1312" d="M388 0l-378 1042h497l163 -575l163 575h469l-378 -1042h-536z" />
<glyph unicode="w" horiz-adv-x="1889" d="M304 0l-284 1042h461l132 -595l130 595h403l131 -595l132 595h460l-282 -1042h-501l-141 623l-140 -623h-501z" />
<glyph unicode="x" horiz-adv-x="1406" d="M30 0l427 525l-413 517h519l146 -207l148 207h511l-416 -511l424 -531h-519l-157 221l-159 -221h-511z" />
<glyph unicode="y" horiz-adv-x="1351" d="M208 -385l173 381l-371 1046h479l176 -582h2l230 582h444l-654 -1427h-479z" />
<glyph unicode="z" horiz-adv-x="1186" d="M60 0v343l506 347h-504v352h1037v-342l-512 -348h539v-352h-1066z" />
<glyph unicode="{" horiz-adv-x="923" d="M100 523v180q82 27 106.5 68.5t24.5 155.5v185q0 134 29.5 226t92 147t150.5 78.5t213 22.5l107 -1v-350h-40q-93 0 -122.5 -35.5t-29.5 -147.5v-140q0 -96 -25 -154t-66.5 -86.5t-121.5 -57.5v-2q80 -29 121.5 -57.5t66.5 -86.5t25 -154v-140q0 -112 29.5 -147.5 t122.5 -35.5h40v-350l-107 -1q-125 -1 -213 22.5t-150.5 78.5t-92 147t-29.5 226v185q0 114 -24.5 155.5t-106.5 68.5z" />
<glyph unicode="|" horiz-adv-x="640" d="M120 -206v1852h400v-1852h-400z" />
<glyph unicode="}" horiz-adv-x="923" d="M823 703v-180q-82 -27 -106.5 -68.5t-24.5 -155.5v-185q0 -134 -29.5 -226t-92 -147t-150.5 -78.5t-213 -22.5l-107 1v350h40q93 0 122.5 35.5t29.5 147.5v140q0 96 25 154t66.5 86.5t121.5 57.5v2q-80 29 -121.5 57.5t-66.5 86.5t-25 154v140q0 112 -29.5 147.5 t-122.5 35.5h-40v350l107 1q125 1 213 -22.5t150.5 -78.5t92 -147t29.5 -226v-185q0 -114 24.5 -155.5t106.5 -68.5z" />
<glyph unicode="&#xa2;" horiz-adv-x="1288" d="M447 201v205q-186 50 -289 192t-103 347v2q0 205 103 347t289 192v201h425v-206q156 -47 247 -156.5t114 -258.5h-465q-7 68 -34.5 98t-76.5 30q-115 0 -115 -247v-2q0 -247 115 -247q49 0 76.5 30t34.5 98h465q-23 -149 -114 -258.5t-247 -156.5v-210h-425z" />
<glyph unicode="&#xa3;" horiz-adv-x="1513" d="M90 556v341h142q-20 69 -20 155v3q0 215 162 334t440 119q91 0 171.5 -15.5t154.5 -51.5t130.5 -91.5t97 -139.5t55.5 -190h-491q-9 71 -42 103.5t-80 32.5q-53 0 -83.5 -31.5t-30.5 -90.5v-3q0 -68 24 -134h460v-341h-360q-18 -87 -133 -163h713v-393h-1270v383 q152 81 184 173h-224z" />
<glyph unicode="&#xa8;" horiz-adv-x="939" d="M370 1212h-319v258h319v-258zM889 1212h-319v258h319v-258z" />
<glyph unicode="&#xab;" horiz-adv-x="1496" d="M296 192l-236 373l236 372h491l-229 -372l229 -373h-491zM905 192l-236 373l236 372h491l-229 -372l229 -373h-491z" />
<glyph unicode="&#xad;" horiz-adv-x="910" d="M100 321v400h710v-400h-710z" />
<glyph unicode="&#xb4;" horiz-adv-x="893" d="M843 1470l-308 -258h-485l258 258h535z" />
<glyph unicode="&#xb8;" horiz-adv-x="585" d="M535 -96l-122 -242h-363l185 242h300z" />
<glyph unicode="&#xbb;" horiz-adv-x="1496" d="M1436 565l-236 -373h-491l229 373l-229 372h491zM827 565l-236 -373h-491l229 373l-229 372h491z" />
<glyph unicode="&#xc2;" horiz-adv-x="1666" d="M335 1630l318 268h360l318 -268h-370l-128 99l-128 -99h-370zM30 0l477 1470h650l479 -1470h-519l-77 294h-414l-77 -294h-519zM726 677h214l-106 404h-2z" />
<glyph unicode="&#xce;" horiz-adv-x="715" d="M-140 1630l318 268h360l318 -268h-370l-128 99l-128 -99h-370zM110 0v1470h495v-1470h-495z" />
<glyph unicode="&#xe2;" horiz-adv-x="1291" d="M178 1212l295 258h340l295 -258h-360l-105 99l-105 -99h-360zM453 -37q-171 0 -290.5 89t-119.5 233v2q0 79 31.5 140.5t88 103.5t144 71t191.5 45t239 23v22q0 122 -99 122q-85 0 -93 -102h-457q11 84 46.5 152t99.5 122.5t168 84t240 29.5q129 0 228 -24.5t178 -79.5 t121 -153.5t41 -237.5l-2 -322q-2 -178 35 -283h-439q-6 40 -6 115q-102 -152 -345 -152zM752 427q-122 -11 -174 -35.5t-52 -78.5v-2q0 -37 25.5 -62t71.5 -25q129 0 129 173v30z" />
<glyph unicode="&#xee;" horiz-adv-x="637" d="M-146 1212l295 258h340l295 -258h-360l-105 99l-105 -99h-360zM80 0v1042h477v-1042h-477z" />
<glyph unicode="&#x100;" horiz-adv-x="1666" d="M458 1648v250h750v-250h-750zM30 0l477 1470h650l479 -1470h-519l-77 294h-414l-77 -294h-519zM726 677h214l-106 404h-2z" />
<glyph unicode="&#x101;" horiz-adv-x="1291" d="M268 1220v250h750v-250h-750zM453 -37q-171 0 -290.5 89t-119.5 233v2q0 79 31.5 140.5t88 103.5t144 71t191.5 45t239 23v22q0 122 -99 122q-85 0 -93 -102h-457q11 84 46.5 152t99.5 122.5t168 84t240 29.5q129 0 228 -24.5t178 -79.5t121 -153.5t41 -237.5l-2 -322 q-2 -178 35 -283h-439q-6 40 -6 115q-102 -152 -345 -152zM752 427q-122 -11 -174 -35.5t-52 -78.5v-2q0 -37 25.5 -62t71.5 -25q129 0 129 173v30z" />
<glyph unicode="&#x102;" horiz-adv-x="1666" d="M409 1898h285q10 -26 50 -45.5t89 -19.5t89 19.5t50 45.5h285q-12 -129 -129.5 -207t-294.5 -78t-294.5 78t-129.5 207zM30 0l477 1470h650l479 -1470h-519l-77 294h-414l-77 -294h-519zM726 677h214l-106 404h-2z" />
<glyph unicode="&#x103;" horiz-adv-x="1291" d="M219 1470h285q10 -26 50 -45.5t89 -19.5t89 19.5t50 45.5h285q-12 -129 -129.5 -207t-294.5 -78t-294.5 78t-129.5 207zM453 -37q-171 0 -290.5 89t-119.5 233v2q0 79 31.5 140.5t88 103.5t144 71t191.5 45t239 23v22q0 122 -99 122q-85 0 -93 -102h-457q11 84 46.5 152 t99.5 122.5t168 84t240 29.5q129 0 228 -24.5t178 -79.5t121 -153.5t41 -237.5l-2 -322q-2 -178 35 -283h-439q-6 40 -6 115q-102 -152 -345 -152zM752 427q-122 -11 -174 -35.5t-52 -78.5v-2q0 -37 25.5 -62t71.5 -25q129 0 129 173v30z" />
<glyph unicode="&#x104;" horiz-adv-x="1666" d="M30 0l477 1470h650l479 -1470q-33 -20 -53.5 -51t-20.5 -62q0 -28 17.5 -44.5t46.5 -16.5q23 0 53 11l92 -162q-92 -64 -242 -64q-139 0 -227 56.5t-88 146.5q0 98 102 186h-199l-77 294h-414l-77 -294h-519zM726 677h214l-106 404h-2z" />
<glyph unicode="&#x105;" horiz-adv-x="1291" d="M453 -37q-171 0 -290.5 89t-119.5 233v2q0 79 31.5 140.5t88 103.5t144 71t191.5 45t239 23v22q0 122 -99 122q-85 0 -93 -102h-457q11 84 46.5 152t99.5 122.5t168 84t240 29.5q129 0 228 -24.5t178 -79.5t121 -153.5t41 -237.5l-2 -322q-2 -178 35 -283 q-33 -20 -53.5 -51t-20.5 -62q0 -28 17.5 -44.5t46.5 -16.5q23 0 53 11l92 -162q-92 -64 -242 -64q-139 0 -227 56.5t-88 146.5q0 98 102 186h-119q-6 40 -6 115q-102 -152 -345 -152zM752 427q-122 -11 -174 -35.5t-52 -78.5v-2q0 -37 25.5 -62t71.5 -25q129 0 129 173v30z " />
<glyph unicode="&#x106;" horiz-adv-x="1647" d="M1101 1670h-480l229 228h535zM849 -37q-230 0 -408.5 92t-279.5 268t-101 411v2q0 235 101 411t279.5 268t408.5 92q302 0 499.5 -150t248.5 -431h-500q-31 101 -93 144.5t-158 43.5q-120 0 -195.5 -95.5t-75.5 -282.5v-2q0 -187 75.5 -282.5t195.5 -95.5q96 0 158 43.5 t93 144.5h500q-51 -281 -248.5 -431t-499.5 -150z" />
<glyph unicode="&#x107;" horiz-adv-x="1288" d="M1198 1470l-308 -258h-485l258 258h535zM647 -37q-276 0 -434 153.5t-158 410.5v2q0 257 158 410.5t434 153.5q257 0 406 -123t180 -322h-465q-7 68 -34.5 98t-76.5 30q-115 0 -115 -247v-2q0 -247 115 -247q49 0 76.5 30t34.5 98h465q-31 -199 -180 -322t-406 -123z" />
<glyph unicode="&#x108;" horiz-adv-x="1647" d="M331 1630l318 268h360l318 -268h-370l-128 99l-128 -99h-370zM849 -37q-230 0 -408.5 92t-279.5 268t-101 411v2q0 235 101 411t279.5 268t408.5 92q302 0 499.5 -150t248.5 -431h-500q-31 101 -93 144.5t-158 43.5q-120 0 -195.5 -95.5t-75.5 -282.5v-2 q0 -187 75.5 -282.5t195.5 -95.5q96 0 158 43.5t93 144.5h500q-51 -281 -248.5 -431t-499.5 -150z" />
<glyph unicode="&#x109;" horiz-adv-x="1288" d="M179 1212l295 258h340l295 -258h-360l-105 99l-105 -99h-360zM647 -37q-276 0 -434 153.5t-158 410.5v2q0 257 158 410.5t434 153.5q257 0 406 -123t180 -322h-465q-7 68 -34.5 98t-76.5 30q-115 0 -115 -247v-2q0 -247 115 -247q49 0 76.5 30t34.5 98h465 q-31 -199 -180 -322t-406 -123z" />
<glyph unicode="&#x10a;" horiz-adv-x="1647" d="M998 1645h-339v253h339v-253zM849 -37q-230 0 -408.5 92t-279.5 268t-101 411v2q0 235 101 411t279.5 268t408.5 92q302 0 499.5 -150t248.5 -431h-500q-31 101 -93 144.5t-158 43.5q-120 0 -195.5 -95.5t-75.5 -282.5v-2q0 -187 75.5 -282.5t195.5 -95.5q96 0 158 43.5 t93 144.5h500q-51 -281 -248.5 -431t-499.5 -150z" />
<glyph unicode="&#x10b;" horiz-adv-x="1288" d="M803 1212h-319v258h319v-258zM647 -37q-276 0 -434 153.5t-158 410.5v2q0 257 158 410.5t434 153.5q257 0 406 -123t180 -322h-465q-7 68 -34.5 98t-76.5 30q-115 0 -115 -247v-2q0 -247 115 -247q49 0 76.5 30t34.5 98h465q-31 -199 -180 -322t-406 -123z" />
<glyph unicode="&#x10c;" horiz-adv-x="1647" d="M331 1898h370l128 -99l128 99h370l-318 -268h-360zM849 -37q-230 0 -408.5 92t-279.5 268t-101 411v2q0 235 101 411t279.5 268t408.5 92q302 0 499.5 -150t248.5 -431h-500q-31 101 -93 144.5t-158 43.5q-120 0 -195.5 -95.5t-75.5 -282.5v-2q0 -187 75.5 -282.5 t195.5 -95.5q96 0 158 43.5t93 144.5h500q-51 -281 -248.5 -431t-499.5 -150z" />
<glyph unicode="&#x10d;" horiz-adv-x="1288" d="M474 1212l-295 258h360l105 -99l105 99h360l-295 -258h-340zM647 -37q-276 0 -434 153.5t-158 410.5v2q0 257 158 410.5t434 153.5q257 0 406 -123t180 -322h-465q-7 68 -34.5 98t-76.5 30q-115 0 -115 -247v-2q0 -247 115 -247q49 0 76.5 30t34.5 98h465 q-31 -199 -180 -322t-406 -123z" />
<glyph unicode="&#x10e;" horiz-adv-x="1623" d="M91 1898h370l128 -99l128 99h370l-318 -268h-360zM110 0v1470h623q131 0 247 -22.5t224.5 -76t186.5 -135.5t125 -210t47 -290v-2q0 -156 -46.5 -282t-125.5 -209t-186.5 -139t-225 -80t-246.5 -24h-623zM605 384h112q164 0 247.5 78t83.5 272v2q0 194 -83.5 272 t-247.5 78h-112v-702z" />
<glyph unicode="&#x10f;" horiz-adv-x="1831" d="M502 -37q-87 0 -166.5 36t-142.5 103.5t-100.5 176t-37.5 241.5v2q0 133 37.5 241.5t100.5 176t142.5 103.5t166.5 36q107 0 183.5 -37.5t118.5 -98.5v527h477v-1470h-477v99q-42 -61 -118.5 -98.5t-183.5 -37.5zM1431 1470h400v-328h-400v328zM685 286q132 0 132 234v2 q0 234 -132 234t-132 -234v-2q0 -234 132 -234z" />
<glyph unicode="&#x110;" horiz-adv-x="1623" d="M110 0v595h-80v280h80v595h623q131 0 247 -22.5t224.5 -76t186.5 -135.5t125 -210t47 -290v-2q0 -156 -46.5 -282t-125.5 -209t-186.5 -139t-225 -80t-246.5 -24h-623zM605 384h112q164 0 247.5 78t83.5 272v2q0 194 -83.5 272t-247.5 78h-112v-211h220v-280h-220v-211z " />
<glyph unicode="&#x111;" horiz-adv-x="1361" d="M502 -37q-87 0 -166.5 36t-142.5 103.5t-100.5 176t-37.5 241.5v2q0 133 37.5 241.5t100.5 176t142.5 103.5t166.5 36q107 0 183.5 -37.5t118.5 -98.5v229h-320v220h320v78h477v-78h100v-220h-100v-1172h-477v99q-42 -61 -118.5 -98.5t-183.5 -37.5zM685 286 q132 0 132 234v2q0 234 -132 234t-132 -234v-2q0 -234 132 -234z" />
<glyph unicode="&#x112;" horiz-adv-x="1367" d="M314 1648v250h750v-250h-750zM110 0v1470h1147v-393h-652v-146h594v-393h-594v-145h662v-393h-1157z" />
<glyph unicode="&#x113;" horiz-adv-x="1333" d="M291 1220v250h750v-250h-750zM668 -37q-283 0 -448 148.5t-165 413.5v2q0 173 80 303t216.5 196.5t308.5 66.5q166 0 290 -51t197 -143t105 -213.5t24 -269.5v-1h-744q11 -73 50 -108t95 -35q101 0 129 64h457q-41 -162 -196.5 -267.5t-398.5 -105.5zM529 658h273v1 q-3 62 -37 102.5t-98 40.5q-118 0 -138 -144z" />
<glyph unicode="&#x114;" horiz-adv-x="1367" d="M265 1898h285q10 -26 50 -45.5t89 -19.5t89 19.5t50 45.5h285q-12 -129 -129.5 -207t-294.5 -78t-294.5 78t-129.5 207zM110 0v1470h1147v-393h-652v-146h594v-393h-594v-145h662v-393h-1157z" />
<glyph unicode="&#x115;" horiz-adv-x="1333" d="M242 1470h285q10 -26 50 -45.5t89 -19.5t89 19.5t50 45.5h285q-12 -129 -129.5 -207t-294.5 -78t-294.5 78t-129.5 207zM668 -37q-283 0 -448 148.5t-165 413.5v2q0 173 80 303t216.5 196.5t308.5 66.5q166 0 290 -51t197 -143t105 -213.5t24 -269.5v-1h-744 q11 -73 50 -108t95 -35q101 0 129 64h457q-41 -162 -196.5 -267.5t-398.5 -105.5zM529 658h273v1q-3 62 -37 102.5t-98 40.5q-118 0 -138 -144z" />
<glyph unicode="&#x116;" horiz-adv-x="1367" d="M858 1645h-339v253h339v-253zM110 0v1470h1147v-393h-652v-146h594v-393h-594v-145h662v-393h-1157z" />
<glyph unicode="&#x117;" horiz-adv-x="1333" d="M825 1212h-319v258h319v-258zM668 -37q-283 0 -448 148.5t-165 413.5v2q0 173 80 303t216.5 196.5t308.5 66.5q166 0 290 -51t197 -143t105 -213.5t24 -269.5v-1h-744q11 -73 50 -108t95 -35q101 0 129 64h457q-41 -162 -196.5 -267.5t-398.5 -105.5zM529 658h273v1 q-3 62 -37 102.5t-98 40.5q-118 0 -138 -144z" />
<glyph unicode="&#x118;" horiz-adv-x="1367" d="M110 0v1470h1147v-393h-652v-146h594v-393h-594v-145h662v-393h-240q-33 -20 -53.5 -51t-20.5 -62q0 -28 17.5 -44.5t46.5 -16.5q23 0 53 11l92 -162q-92 -64 -242 -64q-139 0 -227 56.5t-88 146.5q0 98 102 186h-597z" />
<glyph unicode="&#x119;" horiz-adv-x="1333" d="M955 -163l92 -162q-92 -64 -242 -64q-139 0 -227 56.5t-88 146.5q0 79 70 155q-236 28 -370.5 173t-134.5 383v2q0 173 80 303t216.5 196.5t308.5 66.5q166 0 290 -51t197 -143t105 -213.5t24 -269.5v-1h-744q11 -73 50 -108t95 -35q101 0 129 64h457 q-30 -117 -122.5 -208t-236.5 -133q-30 -20 -48 -49.5t-18 -58.5q0 -28 17.5 -44.5t46.5 -16.5q23 0 53 11zM529 658h273v1q-3 62 -37 102.5t-98 40.5q-118 0 -138 -144z" />
<glyph unicode="&#x11a;" horiz-adv-x="1367" d="M191 1898h370l128 -99l128 99h370l-318 -268h-360zM110 0v1470h1147v-393h-652v-146h594v-393h-594v-145h662v-393h-1157z" />
<glyph unicode="&#x11b;" horiz-adv-x="1333" d="M496 1212l-295 258h360l105 -99l105 99h360l-295 -258h-340zM668 -37q-283 0 -448 148.5t-165 413.5v2q0 173 80 303t216.5 196.5t308.5 66.5q166 0 290 -51t197 -143t105 -213.5t24 -269.5v-1h-744q11 -73 50 -108t95 -35q101 0 129 64h457q-41 -162 -196.5 -267.5 t-398.5 -105.5zM529 658h273v1q-3 62 -37 102.5t-98 40.5q-118 0 -138 -144z" />
<glyph unicode="&#x11c;" horiz-adv-x="1707" d="M331 1630l318 268h360l318 -268h-370l-128 99l-128 -99h-370zM815 -37q-159 0 -296 51t-239.5 147t-161 243.5t-58.5 330.5v2q0 177 58.5 322t163 243t250 151.5t317.5 53.5q299 0 496 -135.5t252 -387.5h-500q-56 130 -228 130q-135 0 -214.5 -94t-79.5 -283v-2 q0 -202 79 -297.5t216 -95.5q111 0 177 49t66 130v1h-309v343h789v-865h-335l-8 136q-61 -77 -173 -125t-262 -48z" />
<glyph unicode="&#x11d;" horiz-adv-x="1367" d="M206 1212l295 258h340l295 -258h-360l-105 99l-105 -99h-360zM521 21q-91 0 -173.5 33.5t-148.5 97.5t-105 166.5t-39 230.5v2q0 128 39 230.5t105 166.5t148.5 97.5t173.5 33.5q100 0 174 -34.5t115 -90.5v88h477v-925q0 -141 -42.5 -243.5t-125 -164t-194 -90.5 t-258.5 -29q-243 0 -392.5 100.5t-183.5 275.5h451q12 -42 46.5 -63.5t82.5 -21.5q139 0 139 165v100q-41 -56 -115 -90.5t-174 -34.5zM687 344q69 0 102.5 55t33.5 150v2q0 95 -33.5 150t-102.5 55q-68 0 -102 -55t-34 -150v-2q0 -95 34 -150t102 -55z" />
<glyph unicode="&#x11e;" horiz-adv-x="1707" d="M405 1898h285q10 -26 50 -45.5t89 -19.5t89 19.5t50 45.5h285q-12 -129 -129.5 -207t-294.5 -78t-294.5 78t-129.5 207zM815 -37q-159 0 -296 51t-239.5 147t-161 243.5t-58.5 330.5v2q0 177 58.5 322t163 243t250 151.5t317.5 53.5q299 0 496 -135.5t252 -387.5h-500 q-56 130 -228 130q-135 0 -214.5 -94t-79.5 -283v-2q0 -202 79 -297.5t216 -95.5q111 0 177 49t66 130v1h-309v343h789v-865h-335l-8 136q-61 -77 -173 -125t-262 -48z" />
<glyph unicode="&#x11f;" horiz-adv-x="1367" d="M247 1470h285q10 -26 50 -45.5t89 -19.5t89 19.5t50 45.5h285q-12 -129 -129.5 -207t-294.5 -78t-294.5 78t-129.5 207zM521 21q-91 0 -173.5 33.5t-148.5 97.5t-105 166.5t-39 230.5v2q0 128 39 230.5t105 166.5t148.5 97.5t173.5 33.5q100 0 174 -34.5t115 -90.5v88 h477v-925q0 -141 -42.5 -243.5t-125 -164t-194 -90.5t-258.5 -29q-243 0 -392.5 100.5t-183.5 275.5h451q12 -42 46.5 -63.5t82.5 -21.5q139 0 139 165v100q-41 -56 -115 -90.5t-174 -34.5zM687 344q69 0 102.5 55t33.5 150v2q0 95 -33.5 150t-102.5 55q-68 0 -102 -55 t-34 -150v-2q0 -95 34 -150t102 -55z" />
<glyph unicode="&#x120;" horiz-adv-x="1707" d="M998 1645h-339v253h339v-253zM815 -37q-159 0 -296 51t-239.5 147t-161 243.5t-58.5 330.5v2q0 177 58.5 322t163 243t250 151.5t317.5 53.5q299 0 496 -135.5t252 -387.5h-500q-56 130 -228 130q-135 0 -214.5 -94t-79.5 -283v-2q0 -202 79 -297.5t216 -95.5 q111 0 177 49t66 130v1h-309v343h789v-865h-335l-8 136q-61 -77 -173 -125t-262 -48z" />
<glyph unicode="&#x121;" horiz-adv-x="1367" d="M830 1212h-319v258h319v-258zM521 21q-91 0 -173.5 33.5t-148.5 97.5t-105 166.5t-39 230.5v2q0 128 39 230.5t105 166.5t148.5 97.5t173.5 33.5q100 0 174 -34.5t115 -90.5v88h477v-925q0 -141 -42.5 -243.5t-125 -164t-194 -90.5t-258.5 -29q-243 0 -392.5 100.5 t-183.5 275.5h451q12 -42 46.5 -63.5t82.5 -21.5q139 0 139 165v100q-41 -56 -115 -90.5t-174 -34.5zM687 344q69 0 102.5 55t33.5 150v2q0 95 -33.5 150t-102.5 55q-68 0 -102 -55t-34 -150v-2q0 -95 34 -150t102 -55z" />
<glyph unicode="&#x122;" horiz-adv-x="1707" d="M815 -37q-159 0 -296 51t-239.5 147t-161 243.5t-58.5 330.5v2q0 177 58.5 322t163 243t250 151.5t317.5 53.5q299 0 496 -135.5t252 -387.5h-500q-56 130 -228 130q-135 0 -214.5 -94t-79.5 -283v-2q0 -202 79 -297.5t216 -95.5q111 0 177 49t66 130v1h-309v343h789 v-865h-335l-8 136q-61 -77 -173 -125t-262 -48zM1014 -96l-185 -242h-300l122 242h363z" />
<glyph unicode="&#x123;" horiz-adv-x="1367" d="M1033 1470l-122 -242h-363l185 242h300zM521 21q-91 0 -173.5 33.5t-148.5 97.5t-105 166.5t-39 230.5v2q0 128 39 230.5t105 166.5t148.5 97.5t173.5 33.5q100 0 174 -34.5t115 -90.5v88h477v-925q0 -141 -42.5 -243.5t-125 -164t-194 -90.5t-258.5 -29 q-243 0 -392.5 100.5t-183.5 275.5h451q12 -42 46.5 -63.5t82.5 -21.5q139 0 139 165v100q-41 -56 -115 -90.5t-174 -34.5zM687 344q69 0 102.5 55t33.5 150v2q0 95 -33.5 150t-102.5 55q-68 0 -102 -55t-34 -150v-2q0 -95 34 -150t102 -55z" />
<glyph unicode="&#x124;" horiz-adv-x="1589" d="M297 1630l318 268h360l318 -268h-370l-128 99l-128 -99h-370zM110 0v1470h495v-520h379v520h495v-1470h-495v520h-379v-520h-495z" />
<glyph unicode="&#x125;" d="M-147 1640l295 258h340l295 -258h-360l-105 99l-105 -99h-360zM80 0v1470h477v-537q111 146 317 146q191 0 278.5 -105t87.5 -303v-671h-477v582q0 80 -25 116t-78 36t-78 -36t-25 -116v-582h-477z" />
<glyph unicode="&#x126;" horiz-adv-x="1589" d="M110 0v1070h-150v280h150v120h495v-120h379v120h495v-120h150v-280h-150v-1070h-495v520h-379v-520h-495zM605 950h379v120h-379v-120z" />
<glyph unicode="&#x127;" d="M80 0v1160h-120v220h120v90h477v-90h300v-220h-300v-227q111 146 317 146q191 0 278.5 -105t87.5 -303v-671h-477v582q0 80 -25 116t-78 36t-78 -36t-25 -116v-582h-477z" />
<glyph unicode="&#x128;" horiz-adv-x="715" d="M498 1922h250q0 -129 -66 -212.5t-169 -83.5q-47 0 -97.5 18.5t-89.5 37t-59 18.5q-49 0 -50 -60h-250q0 129 66 212t169 83q49 0 97.5 -18.5t86.5 -37t62 -18.5q49 0 50 61zM110 0v1470h495v-1470h-495z" />
<glyph unicode="&#x129;" horiz-adv-x="637" d="M459 1494h250q0 -129 -66 -212.5t-169 -83.5q-47 0 -97.5 18.5t-89.5 37t-59 18.5q-49 0 -50 -60h-250q0 129 66 212t169 83q49 0 97.5 -18.5t86.5 -37t62 -18.5q49 0 50 61zM80 0v1042h477v-1042h-477z" />
<glyph unicode="&#x12a;" horiz-adv-x="715" d="M-17 1648v250h750v-250h-750zM110 0v1470h495v-1470h-495z" />
<glyph unicode="&#x12b;" horiz-adv-x="637" d="M-56 1220v250h750v-250h-750zM80 0v1042h477v-1042h-477z" />
<glyph unicode="&#x12e;" horiz-adv-x="715" d="M110 0v1470h495v-1470h-87q-33 -20 -53.5 -51t-20.5 -62q0 -28 17.5 -44.5t46.5 -16.5q23 0 53 11l92 -162q-92 -64 -242 -64q-139 0 -227 56.5t-88 146.5q0 98 102 186h-88z" />
<glyph unicode="&#x12f;" horiz-adv-x="637" d="M80 1131v339h477v-339h-477zM80 0v1042h477v-1042h-78q-33 -20 -53.5 -51t-20.5 -62q0 -28 17.5 -44.5t46.5 -16.5q23 0 53 11l92 -162q-92 -64 -242 -64q-139 0 -227 56.5t-88 146.5q0 98 102 186h-79z" />
<glyph unicode="&#x130;" horiz-adv-x="715" d="M527 1645h-339v253h339v-253zM110 0v1470h495v-1470h-495z" />
<glyph unicode="&#x131;" horiz-adv-x="637" d="M80 0v1042h477v-1042h-477z" />
<glyph unicode="&#x132;" horiz-adv-x="2075" d="M110 0v1470h495v-1470h-495zM1365 -37q-316 0 -468 154t-152 425h491q0 -101 33.5 -146.5t103.5 -45.5q68 0 94.5 43.5t26.5 148.5v928h491v-928q0 -271 -152 -425t-468 -154z" />
<glyph unicode="&#x133;" horiz-adv-x="1275" d="M80 1131v339h477v-339h-477zM718 1131v339h477v-339h-477zM80 0v1042h477v-1042h-477zM586 -385v344h37q51 0 73 18t22 85v980h477v-1013q0 -233 -108 -323.5t-389 -90.5h-112z" />
<glyph unicode="&#x134;" horiz-adv-x="1360" d="M527 1630l318 268h360l318 -268h-370l-128 99l-128 -99h-370zM650 -37q-316 0 -468 154t-152 425h491q0 -101 33.5 -146.5t103.5 -45.5q68 0 94.5 43.5t26.5 148.5v928h491v-928q0 -271 -152 -425t-468 -154z" />
<glyph unicode="&#x135;" horiz-adv-x="638" d="M-146 1212l295 258h340l295 -258h-360l-105 99l-105 -99h-360zM-51 -385v344h37q51 0 73 18t22 85v980h477v-1013q0 -233 -108 -323.5t-389 -90.5h-112z" />
<glyph unicode="&#x136;" horiz-adv-x="1592" d="M110 0v1470h495v-549l373 549h577l-505 -712l542 -758h-606l-381 540v-540h-495zM1036 -96l-185 -242h-300l122 242h363z" />
<glyph unicode="&#x137;" horiz-adv-x="1399" d="M80 0v1470h477v-791l259 363h527l-367 -504l403 -538h-579l-243 328v-328h-477zM915 -96l-185 -242h-300l122 242h363z" />
<glyph unicode="&#x139;" horiz-adv-x="1207" d="M630 1670h-480l229 228h535zM110 0v1470h495v-1077h562v-393h-1057z" />
<glyph unicode="&#x13a;" horiz-adv-x="637" d="M873 1898l-308 -258h-485l258 258h535zM80 0v1470h477v-1470h-477z" />
<glyph unicode="&#x13b;" horiz-adv-x="1207" d="M110 0v1470h495v-1077h562v-393h-1057zM824 -96l-185 -242h-300l122 242h363z" />
<glyph unicode="&#x13c;" horiz-adv-x="637" d="M80 0v1470h477v-1470h-477zM504 -96l-185 -242h-300l122 242h363z" />
<glyph unicode="&#x13d;" horiz-adv-x="1207" d="M714 1670h400v-328h-400v328zM110 0v1470h495v-1077h562v-393h-1057z" />
<glyph unicode="&#x13e;" horiz-adv-x="1107" d="M80 0v1470h477v-1470h-477zM707 1470h400v-328h-400v328z" />
<glyph unicode="&#x13f;" horiz-adv-x="1247" d="M110 0v1470h495v-1077h562v-393h-1057zM1207 714h-482v433h482v-433z" />
<glyph unicode="&#x140;" horiz-adv-x="1245" d="M80 0v1470h477v-1470h-477zM1189 519h-482v433h482v-433z" />
<glyph unicode="&#x143;" horiz-adv-x="1589" d="M1067 1670h-480l229 228h535zM110 0v1470h618l306 -854h2l-15 421v433h458v-1470h-624l-300 854h-2l15 -421v-433h-458z" />
<glyph unicode="&#x144;" d="M1214 1470l-308 -258h-485l258 258h535zM80 0v1042h477v-109q111 146 317 146q191 0 278.5 -105t87.5 -303v-671h-477v582q0 80 -25 116t-78 36t-78 -36t-25 -116v-582h-477z" />
<glyph unicode="&#x145;" horiz-adv-x="1589" d="M110 0v1470h618l306 -854h2l-15 421v433h458v-1470h-624l-300 854h-2l15 -421v-433h-458zM980 -96l-185 -242h-300l122 242h363z" />
<glyph unicode="&#x146;" d="M80 0v1042h477v-109q111 146 317 146q191 0 278.5 -105t87.5 -303v-671h-477v582q0 80 -25 116t-78 36t-78 -36t-25 -116v-582h-477zM845 -96l-185 -242h-300l122 242h363z" />
<glyph unicode="&#x147;" horiz-adv-x="1589" d="M297 1898h370l128 -99l128 99h370l-318 -268h-360zM110 0v1470h618l306 -854h2l-15 421v433h458v-1470h-624l-300 854h-2l15 -421v-433h-458z" />
<glyph unicode="&#x148;" d="M490 1212l-295 258h360l105 -99l105 99h360l-295 -258h-340zM80 0v1042h477v-109q111 146 317 146q191 0 278.5 -105t87.5 -303v-671h-477v582q0 80 -25 116t-78 36t-78 -36t-25 -116v-582h-477z" />
<glyph unicode="&#x149;" d="M480 1470l-107 -328h-459l137 328h429zM80 0v1042h477v-109q111 146 317 146q191 0 278.5 -105t87.5 -303v-671h-477v582q0 80 -25 116t-78 36t-78 -36t-25 -116v-582h-477z" />
<glyph unicode="&#x14c;" horiz-adv-x="1744" d="M497 1648v250h750v-250h-750zM872 -37q-236 0 -419.5 92t-288 268t-104.5 411v2q0 235 104.5 411t288 268t419.5 92t419.5 -92t288 -268t104.5 -411v-2q0 -235 -104.5 -411t-288 -268t-419.5 -92zM872 356q129 0 213 95.5t84 282.5v2q0 187 -84 282.5t-213 95.5 t-213 -95.5t-84 -282.5v-2q0 -187 84 -282.5t213 -95.5z" />
<glyph unicode="&#x14d;" horiz-adv-x="1336" d="M293 1220v250h750v-250h-750zM668 -37q-284 0 -448.5 152.5t-164.5 411.5v2q0 259 164.5 411.5t448.5 152.5t448.5 -152.5t164.5 -411.5v-2q0 -259 -164.5 -411.5t-448.5 -152.5zM668 280q125 0 125 247v2q0 247 -125 247t-125 -247v-2q0 -247 125 -247z" />
<glyph unicode="&#x14e;" horiz-adv-x="1744" d="M448 1898h285q10 -26 50 -45.5t89 -19.5t89 19.5t50 45.5h285q-12 -129 -129.5 -207t-294.5 -78t-294.5 78t-129.5 207zM872 -37q-236 0 -419.5 92t-288 268t-104.5 411v2q0 235 104.5 411t288 268t419.5 92t419.5 -92t288 -268t104.5 -411v-2q0 -235 -104.5 -411 t-288 -268t-419.5 -92zM872 356q129 0 213 95.5t84 282.5v2q0 187 -84 282.5t-213 95.5t-213 -95.5t-84 -282.5v-2q0 -187 84 -282.5t213 -95.5z" />
<glyph unicode="&#x14f;" horiz-adv-x="1336" d="M244 1470h285q10 -26 50 -45.5t89 -19.5t89 19.5t50 45.5h285q-12 -129 -129.5 -207t-294.5 -78t-294.5 78t-129.5 207zM668 -37q-284 0 -448.5 152.5t-164.5 411.5v2q0 259 164.5 411.5t448.5 152.5t448.5 -152.5t164.5 -411.5v-2q0 -259 -164.5 -411.5t-448.5 -152.5z M668 280q125 0 125 247v2q0 247 -125 247t-125 -247v-2q0 -247 125 -247z" />
<glyph unicode="&#x150;" horiz-adv-x="1744" d="M822 1670h-480l229 228h535zM1422 1670h-480l229 228h535zM872 -37q-236 0 -419.5 92t-288 268t-104.5 411v2q0 235 104.5 411t288 268t419.5 92t419.5 -92t288 -268t104.5 -411v-2q0 -235 -104.5 -411t-288 -268t-419.5 -92zM872 356q129 0 213 95.5t84 282.5v2 q0 187 -84 282.5t-213 95.5t-213 -95.5t-84 -282.5v-2q0 -187 84 -282.5t213 -95.5z" />
<glyph unicode="&#x151;" horiz-adv-x="1336" d="M857 1470l-248 -258h-415l238 258h425zM1362 1470l-248 -258h-415l238 258h425zM668 -37q-284 0 -448.5 152.5t-164.5 411.5v2q0 259 164.5 411.5t448.5 152.5t448.5 -152.5t164.5 -411.5v-2q0 -259 -164.5 -411.5t-448.5 -152.5zM668 280q125 0 125 247v2 q0 247 -125 247t-125 -247v-2q0 -247 125 -247z" />
<glyph unicode="&#x152;" horiz-adv-x="2426" d="M872 -37q-236 0 -419.5 92t-288 268t-104.5 411v2q0 235 104.5 411t288 268t419.5 92q157 0 297 -43v6h1147v-393h-652v-146h594v-393h-594v-145h662v-393h-1157v6q-140 -43 -297 -43zM872 356q129 0 213 95.5t84 282.5v2q0 187 -84 282.5t-213 95.5t-213 -95.5 t-84 -282.5v-2q0 -187 84 -282.5t213 -95.5z" />
<glyph unicode="&#x153;" horiz-adv-x="2073" d="M668 -37q-284 0 -448.5 152.5t-164.5 411.5v2q0 259 164.5 411.5t448.5 152.5q220 0 374 -95q152 95 358 95q166 0 290 -51t197 -143t105 -213.5t24 -269.5v-1h-744v-1q24 -142 145 -142q101 0 129 64h457q-41 -162 -196.5 -267.5t-398.5 -105.5q-220 0 -372 92 q-153 -92 -368 -92zM1269 658h273v1q-3 62 -37 102.5t-98 40.5q-118 0 -138 -144zM668 280q125 0 125 247v2q0 247 -125 247t-125 -247v-2q0 -247 125 -247z" />
<glyph unicode="&#x154;" horiz-adv-x="1534" d="M984 1670h-480l229 228h535zM110 0v1470h664q124 0 222 -13t186.5 -46.5t147.5 -87.5t93.5 -141t34.5 -202v-2q0 -315 -287 -429l323 -549h-538l-278 487h-73v-487h-495zM605 871h178q81 0 120.5 24t39.5 83v2q0 58 -39.5 82t-120.5 24h-178v-215z" />
<glyph unicode="&#x155;" horiz-adv-x="900" d="M1029 1470l-308 -258h-485l258 258h535zM80 0v1042h465v-223q32 105 116 174.5t189 69.5h20v-450h-97q-51 0 -86.5 -7t-67 -25.5t-47 -57t-15.5 -96.5v-427h-477z" />
<glyph unicode="&#x156;" horiz-adv-x="1534" d="M110 0v1470h664q124 0 222 -13t186.5 -46.5t147.5 -87.5t93.5 -141t34.5 -202v-2q0 -315 -287 -429l323 -549h-538l-278 487h-73v-487h-495zM605 871h178q81 0 120.5 24t39.5 83v2q0 58 -39.5 82t-120.5 24h-178v-215zM987 -96l-185 -242h-300l122 242h363z" />
<glyph unicode="&#x157;" horiz-adv-x="900" d="M80 0v1042h465v-223q32 105 116 174.5t189 69.5h20v-450h-97q-51 0 -86.5 -7t-67 -25.5t-47 -57t-15.5 -96.5v-427h-477zM503 -96l-185 -242h-300l122 242h363z" />
<glyph unicode="&#x158;" horiz-adv-x="1534" d="M214 1898h370l128 -99l128 99h370l-318 -268h-360zM110 0v1470h664q124 0 222 -13t186.5 -46.5t147.5 -87.5t93.5 -141t34.5 -202v-2q0 -315 -287 -429l323 -549h-538l-278 487h-73v-487h-495zM605 871h178q81 0 120.5 24t39.5 83v2q0 58 -39.5 82t-120.5 24h-178v-215z " />
<glyph unicode="&#x159;" horiz-adv-x="900" d="M305 1212l-295 258h360l105 -99l105 99h360l-295 -258h-340zM80 0v1042h465v-223q32 105 116 174.5t189 69.5h20v-450h-97q-51 0 -86.5 -7t-67 -25.5t-47 -57t-15.5 -96.5v-427h-477z" />
<glyph unicode="&#x15a;" horiz-adv-x="1498" d="M1021 1670h-480l229 228h535zM768 -37q-167 0 -297.5 37.5t-214.5 105.5t-132.5 155.5t-63.5 194.5h500q16 -69 70.5 -106.5t144.5 -37.5q82 0 129 27t47 71v1q0 42 -40 70t-135 45l-231 42q-226 41 -350 161t-124 309v2q0 207 183.5 337t475.5 130q299 0 464 -126.5 t200 -350.5h-500q-15 59 -62.5 91.5t-119.5 32.5q-71 0 -112.5 -23.5t-41.5 -66.5v-1q0 -78 134 -103l231 -42q262 -48 388.5 -161.5t126.5 -299.5v-2q0 -229 -182 -360.5t-488 -131.5z" />
<glyph unicode="&#x15b;" horiz-adv-x="1256" d="M1182 1470l-308 -258h-485l258 258h535zM645 -37q-270 0 -422.5 96t-166.5 268h460q15 -98 125 -98q40 0 65.5 15.5t25.5 41.5v1q0 28 -28 46t-101 31l-191 34q-182 33 -269.5 122.5t-87.5 210.5v2q0 159 148.5 259.5t385.5 100.5q516 0 568 -348h-457q-14 83 -97 83 q-35 0 -57 -16t-22 -39v-2q0 -29 27 -44.5t91 -27.5l182 -32q198 -35 287.5 -119.5t89.5 -220.5v-2q0 -161 -149 -261.5t-407 -100.5z" />
<glyph unicode="&#x15c;" horiz-adv-x="1498" d="M251 1630l318 268h360l318 -268h-370l-128 99l-128 -99h-370zM768 -37q-167 0 -297.5 37.5t-214.5 105.5t-132.5 155.5t-63.5 194.5h500q16 -69 70.5 -106.5t144.5 -37.5q82 0 129 27t47 71v1q0 42 -40 70t-135 45l-231 42q-226 41 -350 161t-124 309v2q0 207 183.5 337 t475.5 130q299 0 464 -126.5t200 -350.5h-500q-15 59 -62.5 91.5t-119.5 32.5q-71 0 -112.5 -23.5t-41.5 -66.5v-1q0 -78 134 -103l231 -42q262 -48 388.5 -161.5t126.5 -299.5v-2q0 -229 -182 -360.5t-488 -131.5z" />
<glyph unicode="&#x15d;" horiz-adv-x="1256" d="M163 1212l295 258h340l295 -258h-360l-105 99l-105 -99h-360zM645 -37q-270 0 -422.5 96t-166.5 268h460q15 -98 125 -98q40 0 65.5 15.5t25.5 41.5v1q0 28 -28 46t-101 31l-191 34q-182 33 -269.5 122.5t-87.5 210.5v2q0 159 148.5 259.5t385.5 100.5q516 0 568 -348 h-457q-14 83 -97 83q-35 0 -57 -16t-22 -39v-2q0 -29 27 -44.5t91 -27.5l182 -32q198 -35 287.5 -119.5t89.5 -220.5v-2q0 -161 -149 -261.5t-407 -100.5z" />
<glyph unicode="&#x15e;" horiz-adv-x="1498" d="M768 -37q-167 0 -297.5 37.5t-214.5 105.5t-132.5 155.5t-63.5 194.5h500q16 -69 70.5 -106.5t144.5 -37.5q82 0 129 27t47 71v1q0 42 -40 70t-135 45l-231 42q-226 41 -350 161t-124 309v2q0 207 183.5 337t475.5 130q299 0 464 -126.5t200 -350.5h-500 q-15 59 -62.5 91.5t-119.5 32.5q-71 0 -112.5 -23.5t-41.5 -66.5v-1q0 -78 134 -103l231 -42q262 -48 388.5 -161.5t126.5 -299.5v-2q0 -229 -182 -360.5t-488 -131.5zM888 -96l-122 -242h-363l185 242h300z" />
<glyph unicode="&#x15f;" horiz-adv-x="1256" d="M645 -37q-270 0 -422.5 96t-166.5 268h460q15 -98 125 -98q40 0 65.5 15.5t25.5 41.5v1q0 28 -28 46t-101 31l-191 34q-182 33 -269.5 122.5t-87.5 210.5v2q0 159 148.5 259.5t385.5 100.5q516 0 568 -348h-457q-14 83 -97 83q-35 0 -57 -16t-22 -39v-2q0 -29 27 -44.5 t91 -27.5l182 -32q198 -35 287.5 -119.5t89.5 -220.5v-2q0 -161 -149 -261.5t-407 -100.5zM767 -96l-122 -242h-363l185 242h300z" />
<glyph unicode="&#x160;" horiz-adv-x="1498" d="M251 1898h370l128 -99l128 99h370l-318 -268h-360zM768 -37q-167 0 -297.5 37.5t-214.5 105.5t-132.5 155.5t-63.5 194.5h500q16 -69 70.5 -106.5t144.5 -37.5q82 0 129 27t47 71v1q0 42 -40 70t-135 45l-231 42q-226 41 -350 161t-124 309v2q0 207 183.5 337t475.5 130 q299 0 464 -126.5t200 -350.5h-500q-15 59 -62.5 91.5t-119.5 32.5q-71 0 -112.5 -23.5t-41.5 -66.5v-1q0 -78 134 -103l231 -42q262 -48 388.5 -161.5t126.5 -299.5v-2q0 -229 -182 -360.5t-488 -131.5z" />
<glyph unicode="&#x161;" horiz-adv-x="1256" d="M458 1212l-295 258h360l105 -99l105 99h360l-295 -258h-340zM645 -37q-270 0 -422.5 96t-166.5 268h460q15 -98 125 -98q40 0 65.5 15.5t25.5 41.5v1q0 28 -28 46t-101 31l-191 34q-182 33 -269.5 122.5t-87.5 210.5v2q0 159 148.5 259.5t385.5 100.5q516 0 568 -348 h-457q-14 83 -97 83q-35 0 -57 -16t-22 -39v-2q0 -29 27 -44.5t91 -27.5l182 -32q198 -35 287.5 -119.5t89.5 -220.5v-2q0 -161 -149 -261.5t-407 -100.5z" />
<glyph unicode="&#x162;" horiz-adv-x="1421" d="M463 0v1077h-453v393h1401v-393h-453v-1077h-495zM850 -96l-122 -242h-363l185 242h300z" />
<glyph unicode="&#x163;" horiz-adv-x="900" d="M637 0q-143 0 -236.5 24t-144.5 75t-70.5 117t-19.5 164v310h-136v352h136v298h477v-298h187v-352h-187v-214q0 -74 24 -99t81 -25h82v-352h-193zM615 -96l-185 -242h-300l122 242h363z" />
<glyph unicode="&#x164;" horiz-adv-x="1421" d="M213 1898h370l128 -99l128 99h370l-318 -268h-360zM463 0v1077h-453v393h1401v-393h-453v-1077h-495z" />
<glyph unicode="&#x165;" horiz-adv-x="1185" d="M783 1670h400v-328h-400v328zM637 0q-143 0 -236.5 24t-144.5 75t-70.5 117t-19.5 164v310h-136v352h136v298h477v-298h187v-352h-187v-214q0 -74 24 -99t81 -25h82v-352h-193z" />
<glyph unicode="&#x166;" horiz-adv-x="1421" d="M463 0v642h-234v280h234v155h-453v393h1401v-393h-453v-155h234v-280h-234v-642h-495z" />
<glyph unicode="&#x167;" horiz-adv-x="900" d="M637 0q-143 0 -236.5 24t-144.5 75t-70.5 117t-19.5 164v41h-136v200h136v69h-136v352h136v298h477v-298h187v-352h-187v-69h187v-200h-183q9 -40 32.5 -54.5t68.5 -14.5h82v-352h-193z" />
<glyph unicode="&#x168;" horiz-adv-x="1552" d="M916 1922h250q0 -129 -66 -212.5t-169 -83.5q-47 0 -97.5 18.5t-89.5 37t-59 18.5q-49 0 -50 -60h-250q0 129 66 212t169 83q49 0 97.5 -18.5t86.5 -37t62 -18.5q49 0 50 61zM776 -37q-356 0 -516 148.5t-160 478.5v880h495v-877q0 -58 7 -97t25.5 -73t55.5 -50.5 t93 -16.5t93 16.5t55.5 50.5t25.5 73t7 97v877h495v-880q0 -330 -160 -478.5t-516 -148.5z" />
<glyph unicode="&#x169;" d="M785 1494h250q0 -129 -66 -212.5t-169 -83.5q-47 0 -97.5 18.5t-89.5 37t-59 18.5q-49 0 -50 -60h-250q0 129 66 212t169 83q49 0 97.5 -18.5t86.5 -37t62 -18.5q49 0 50 61zM431 -35q-191 0 -278.5 105t-87.5 303v669h477v-580q0 -80 25 -116t78 -36t78 36t25 116v580 h477v-1042h-477v127q-48 -76 -130.5 -119t-186.5 -43z" />
<glyph unicode="&#x16a;" horiz-adv-x="1552" d="M401 1648v250h750v-250h-750zM776 -37q-356 0 -516 148.5t-160 478.5v880h495v-877q0 -58 7 -97t25.5 -73t55.5 -50.5t93 -16.5t93 16.5t55.5 50.5t25.5 73t7 97v877h495v-880q0 -330 -160 -478.5t-516 -148.5z" />
<glyph unicode="&#x16b;" d="M270 1220v250h750v-250h-750zM431 -35q-191 0 -278.5 105t-87.5 303v669h477v-580q0 -80 25 -116t78 -36t78 36t25 116v580h477v-1042h-477v127q-48 -76 -130.5 -119t-186.5 -43z" />
<glyph unicode="&#x16c;" horiz-adv-x="1552" d="M352 1898h285q10 -26 50 -45.5t89 -19.5t89 19.5t50 45.5h285q-12 -129 -129.5 -207t-294.5 -78t-294.5 78t-129.5 207zM776 -37q-356 0 -516 148.5t-160 478.5v880h495v-877q0 -58 7 -97t25.5 -73t55.5 -50.5t93 -16.5t93 16.5t55.5 50.5t25.5 73t7 97v877h495v-880 q0 -330 -160 -478.5t-516 -148.5z" />
<glyph unicode="&#x16d;" d="M221 1470h285q10 -26 50 -45.5t89 -19.5t89 19.5t50 45.5h285q-12 -129 -129.5 -207t-294.5 -78t-294.5 78t-129.5 207zM431 -35q-191 0 -278.5 105t-87.5 303v669h477v-580q0 -80 25 -116t78 -36t78 36t25 116v580h477v-1042h-477v127q-48 -76 -130.5 -119t-186.5 -43z " />
<glyph unicode="&#x16e;" horiz-adv-x="1552" d="M540 1847q0 93 71.5 163.5t164.5 70.5q95 0 165.5 -70t70.5 -164q0 -97 -69.5 -167.5t-166.5 -70.5q-96 0 -166 70.5t-70 167.5zM713 1846q0 -28 17.5 -45t44.5 -17t43.5 16.5t16.5 45.5q0 26 -16.5 43t-43.5 17t-44.5 -17.5t-17.5 -42.5zM776 -37q-356 0 -516 148.5 t-160 478.5v880h495v-877q0 -58 7 -97t25.5 -73t55.5 -50.5t93 -16.5t93 16.5t55.5 50.5t25.5 73t7 97v877h495v-880q0 -330 -160 -478.5t-516 -148.5z" />
<glyph unicode="&#x16f;" d="M409 1422q0 93 71.5 163.5t164.5 70.5q95 0 165.5 -70t70.5 -164q0 -97 -69.5 -167.5t-166.5 -70.5q-96 0 -166 70.5t-70 167.5zM582 1421q0 -28 17.5 -45t44.5 -17t43.5 16.5t16.5 45.5q0 26 -16.5 43t-43.5 17t-44.5 -17.5t-17.5 -42.5zM431 -35q-191 0 -278.5 105 t-87.5 303v669h477v-580q0 -80 25 -116t78 -36t78 36t25 116v580h477v-1042h-477v127q-48 -76 -130.5 -119t-186.5 -43z" />
<glyph unicode="&#x170;" horiz-adv-x="1552" d="M726 1670h-480l229 228h535zM1326 1670h-480l229 228h535zM776 -37q-356 0 -516 148.5t-160 478.5v880h495v-877q0 -58 7 -97t25.5 -73t55.5 -50.5t93 -16.5t93 16.5t55.5 50.5t25.5 73t7 97v877h495v-880q0 -330 -160 -478.5t-516 -148.5z" />
<glyph unicode="&#x171;" d="M834 1470l-248 -258h-415l238 258h425zM1339 1470l-248 -258h-415l238 258h425zM431 -35q-191 0 -278.5 105t-87.5 303v669h477v-580q0 -80 25 -116t78 -36t78 36t25 116v580h477v-1042h-477v127q-48 -76 -130.5 -119t-186.5 -43z" />
<glyph unicode="&#x172;" horiz-adv-x="1552" d="M979 -163l92 -162q-92 -64 -242 -64q-139 0 -227 56.5t-88 146.5q0 81 75 161q-255 35 -372 183t-117 432v880h495v-877q0 -58 7 -97t25.5 -73t55.5 -50.5t93 -16.5t93 16.5t55.5 50.5t25.5 73t7 97v877h495v-880q0 -301 -133 -450.5t-423 -171.5q-34 -39 -34 -81 q0 -28 17.5 -44.5t46.5 -16.5q23 0 53 11z" />
<glyph unicode="&#x173;" d="M431 -35q-191 0 -278.5 105t-87.5 303v669h477v-580q0 -80 25 -116t78 -36t78 36t25 116v580h477v-1042h-79q-33 -20 -53.5 -51t-20.5 -62q0 -28 17.5 -44.5t46.5 -16.5q23 0 53 11l92 -162q-92 -64 -242 -64q-139 0 -227 56.5t-88 146.5q0 98 102 186h-78v127 q-48 -76 -130.5 -119t-186.5 -43z" />
<glyph unicode="&#x174;" horiz-adv-x="2114" d="M559 1630l318 268h360l318 -268h-370l-128 99l-128 -99h-370zM305 0l-265 1470h501l106 -985h6l151 985h506l143 -985h7l111 985h503l-267 -1470h-591l-157 1042h-6l-157 -1042h-591z" />
<glyph unicode="&#x175;" horiz-adv-x="1889" d="M480 1212l295 258h340l295 -258h-360l-105 99l-105 -99h-360zM304 0l-284 1042h461l132 -595l130 595h403l131 -595l132 595h460l-282 -1042h-501l-141 623l-140 -623h-501z" />
<glyph unicode="&#x176;" horiz-adv-x="1757" d="M381 1630l318 268h360l318 -268h-370l-128 99l-128 -99h-370zM633 0v552l-603 918h530l320 -516h1l314 516h532l-599 -918v-552h-495z" />
<glyph unicode="&#x177;" horiz-adv-x="1351" d="M211 1212l295 258h340l295 -258h-360l-105 99l-105 -99h-360zM208 -385l173 381l-371 1046h479l176 -582h2l230 582h444l-654 -1427h-479z" />
<glyph unicode="&#x178;" horiz-adv-x="1757" d="M789 1645h-339v253h339v-253zM1308 1645h-339v253h339v-253zM633 0v552l-603 918h530l320 -516h1l314 516h532l-599 -918v-552h-495z" />
<glyph unicode="&#x179;" horiz-adv-x="1406" d="M1015 1670h-480l229 228h535zM80 0v375l609 702h-584v393h1202v-375l-610 -702h629v-393h-1246z" />
<glyph unicode="&#x17a;" horiz-adv-x="1186" d="M1167 1470l-308 -258h-485l258 258h535zM60 0v343l506 347h-504v352h1037v-342l-512 -348h539v-352h-1066z" />
<glyph unicode="&#x17b;" horiz-adv-x="1406" d="M912 1645h-339v253h339v-253zM80 0v375l609 702h-584v393h1202v-375l-610 -702h629v-393h-1246z" />
<glyph unicode="&#x17c;" horiz-adv-x="1186" d="M772 1212h-319v258h319v-258zM60 0v343l506 347h-504v352h1037v-342l-512 -348h539v-352h-1066z" />
<glyph unicode="&#x17d;" horiz-adv-x="1406" d="M245 1898h370l128 -99l128 99h370l-318 -268h-360zM80 0v375l609 702h-584v393h1202v-375l-610 -702h629v-393h-1246z" />
<glyph unicode="&#x17e;" horiz-adv-x="1186" d="M443 1212l-295 258h360l105 -99l105 99h360l-295 -258h-340zM60 0v343l506 347h-504v352h1037v-342l-512 -348h539v-352h-1066z" />
<glyph unicode="&#x218;" horiz-adv-x="1498" d="M768 -37q-167 0 -297.5 37.5t-214.5 105.5t-132.5 155.5t-63.5 194.5h500q16 -69 70.5 -106.5t144.5 -37.5q82 0 129 27t47 71v1q0 42 -40 70t-135 45l-231 42q-226 41 -350 161t-124 309v2q0 207 183.5 337t475.5 130q299 0 464 -126.5t200 -350.5h-500 q-15 59 -62.5 91.5t-119.5 32.5q-71 0 -112.5 -23.5t-41.5 -66.5v-1q0 -78 134 -103l231 -42q262 -48 388.5 -161.5t126.5 -299.5v-2q0 -229 -182 -360.5t-488 -131.5zM934 -96l-185 -242h-300l122 242h363z" />
<glyph unicode="&#x219;" horiz-adv-x="1256" d="M645 -37q-270 0 -422.5 96t-166.5 268h460q15 -98 125 -98q40 0 65.5 15.5t25.5 41.5v1q0 28 -28 46t-101 31l-191 34q-182 33 -269.5 122.5t-87.5 210.5v2q0 159 148.5 259.5t385.5 100.5q516 0 568 -348h-457q-14 83 -97 83q-35 0 -57 -16t-22 -39v-2q0 -29 27 -44.5 t91 -27.5l182 -32q198 -35 287.5 -119.5t89.5 -220.5v-2q0 -161 -149 -261.5t-407 -100.5zM813 -96l-185 -242h-300l122 242h363z" />
<glyph unicode="&#x21a;" horiz-adv-x="1421" d="M463 0v1077h-453v393h1401v-393h-453v-1077h-495zM896 -96l-185 -242h-300l122 242h363z" />
<glyph unicode="&#x21b;" horiz-adv-x="900" d="M637 0q-143 0 -236.5 24t-144.5 75t-70.5 117t-19.5 164v310h-136v352h136v298h477v-298h187v-352h-187v-214q0 -74 24 -99t81 -25h82v-352h-193zM615 -96l-185 -242h-300l122 242h363z" />
<glyph unicode="&#x2c6;" horiz-adv-x="1030" d="M50 1212l295 258h340l295 -258h-360l-105 99l-105 -99h-360z" />
<glyph unicode="&#x2da;" horiz-adv-x="572" d="M50 1422q0 93 71.5 163.5t164.5 70.5q95 0 165.5 -70t70.5 -164q0 -97 -69.5 -167.5t-166.5 -70.5q-96 0 -166 70.5t-70 167.5zM223 1421q0 -28 17.5 -45t44.5 -17t43.5 16.5t16.5 45.5q0 26 -16.5 43t-43.5 17t-44.5 -17.5t-17.5 -42.5z" />
<glyph unicode="&#x2dc;" horiz-adv-x="881" d="M581 1494h250q0 -129 -66 -212.5t-169 -83.5q-47 0 -97.5 18.5t-89.5 37t-59 18.5q-49 0 -50 -60h-250q0 129 66 212t169 83q49 0 97.5 -18.5t86.5 -37t62 -18.5q49 0 50 61z" />
<glyph unicode="&#x2000;" horiz-adv-x="1040" />
<glyph unicode="&#x2001;" horiz-adv-x="2081" />
<glyph unicode="&#x2002;" horiz-adv-x="1040" />
<glyph unicode="&#x2003;" horiz-adv-x="2081" />
<glyph unicode="&#x2004;" horiz-adv-x="693" />
<glyph unicode="&#x2005;" horiz-adv-x="520" />
<glyph unicode="&#x2006;" horiz-adv-x="346" />
<glyph unicode="&#x2007;" horiz-adv-x="346" />
<glyph unicode="&#x2008;" horiz-adv-x="260" />
<glyph unicode="&#x2009;" horiz-adv-x="416" />
<glyph unicode="&#x200a;" horiz-adv-x="115" />
<glyph unicode="&#x2010;" horiz-adv-x="910" d="M100 321v400h710v-400h-710z" />
<glyph unicode="&#x2011;" horiz-adv-x="910" d="M100 321v400h710v-400h-710z" />
<glyph unicode="&#x2012;" horiz-adv-x="910" d="M100 321v400h710v-400h-710z" />
<glyph unicode="&#x2013;" horiz-adv-x="1330" d="M100 321v400h1130v-400h-1130z" />
<glyph unicode="&#x2014;" horiz-adv-x="2130" d="M100 321v400h1930v-400h-1930z" />
<glyph unicode="&#x2018;" horiz-adv-x="750" d="M698 1470l-145 -647h-483l199 647h429z" />
<glyph unicode="&#x2019;" horiz-adv-x="750" d="M52 823l145 647h483l-199 -647h-429z" />
<glyph unicode="&#x201a;" horiz-adv-x="750" d="M52 -214l145 647h483l-199 -647h-429z" />
<glyph unicode="&#x201c;" horiz-adv-x="1312" d="M698 1470l-145 -647h-483l199 647h429zM1260 1470l-145 -647h-483l199 647h429z" />
<glyph unicode="&#x201d;" horiz-adv-x="1312" d="M614 823l145 647h483l-199 -647h-429zM52 823l145 647h483l-199 -647h-429z" />
<glyph unicode="&#x201e;" horiz-adv-x="1312" d="M52 -214l145 647h483l-199 -647h-429zM614 -214l145 647h483l-199 -647h-429z" />
<glyph unicode="&#x2026;" horiz-adv-x="2047" d="M1265 0h-482v433h482v-433zM1947 0h-482v433h482v-433zM582 0h-482v433h482v-433z" />
<glyph unicode="&#x202f;" horiz-adv-x="416" />
<glyph unicode="&#x2039;" horiz-adv-x="887" d="M296 192l-236 373l236 372h491l-229 -372l229 -373h-491z" />
<glyph unicode="&#x203a;" horiz-adv-x="887" d="M827 565l-236 -373h-491l229 373l-229 372h491z" />
<glyph unicode="&#x205f;" horiz-adv-x="520" />
<glyph unicode="&#x20ac;" horiz-adv-x="1877" d="M1059 -37q-283 0 -484.5 138.5t-271.5 384.5h-297l98 205h167q-1 14 -1 43v2v32h-264l98 205h196q68 251 270.5 392.5t488.5 141.5q302 0 499.5 -150t248.5 -431h-500q-31 101 -93 144.5t-158 43.5q-152 0 -224 -141h348l-98 -205h-296q-1 -10 -1 -32v-2q0 -29 1 -43h394 l-98 -205h-244q72 -130 218 -130q96 0 158 43.5t93 144.5h500q-51 -281 -248.5 -431t-499.5 -150z" />
<glyph unicode="&#x25fc;" horiz-adv-x="1040" d="M0 1040h1040v-1040h-1040v1040z" />
</font>
</defs>
</svg>
