<?xml version="1.0" standalone="no"?>
<!DOCTYPE svg PUBLIC "-//W3C//DTD SVG 1.1//EN" "http://www.w3.org/Graphics/SVG/1.1/DTD/svg11.dtd" >
<svg xmlns="http://www.w3.org/2000/svg" xmlns:xlink="http://www.w3.org/1999/xlink" version="1.1">
<metadata></metadata>
<defs>
<font id="antarctica_betaextra_bold" horiz-adv-x="1276" >
<font-face units-per-em="2000" ascent="1600" descent="-400" />
<missing-glyph horiz-adv-x="419" />
<glyph horiz-adv-x="1000" />
<glyph horiz-adv-x="1000" />
<glyph unicode="&#xd;" horiz-adv-x="0" />
<glyph unicode=" "  horiz-adv-x="419" />
<glyph unicode="&#x09;" horiz-adv-x="419" />
<glyph unicode="&#xa0;" horiz-adv-x="419" />
<glyph unicode="!" horiz-adv-x="705" d="M191 535l-49 568v367h422v-367l-50 -568h-323zM558 0h-410v383h410v-383z" />
<glyph unicode="&#x22;" horiz-adv-x="1171" d="M653 1470h418v-109l-25 -406h-368l-25 406v109zM100 1470h418v-109l-25 -406h-368l-25 406v109z" />
<glyph unicode="#" horiz-adv-x="1519" d="M171 854l37 283l202 -1l43 334h288l-44 -333l229 -1l43 334h288l-44 -333h201l-39 -283h-199l-29 -227h200l-38 -282h-199l-45 -345h-287l45 345l-229 -1l-45 -344h-287l45 345h-202l37 282h202l29 227h-202zM631 627h228l30 227h-228z" />
<glyph unicode="$" horiz-adv-x="1454" d="M565 -246v225q-223 37 -346.5 163t-149.5 310h425q40 -185 258 -185q101 0 160 35.5t59 98.5v1q0 61 -50 95.5t-160 57.5l-221 43q-216 43 -335 157.5t-119 299.5v2q0 171 130.5 288.5t348.5 149.5v221h297v-222q209 -31 328 -148t148 -303h-424q-40 157 -222 157 q-87 0 -140 -32.5t-53 -91.5v-1q0 -105 162 -138l220 -44q249 -49 376 -157t127 -293v-3q0 -198 -140 -321t-382 -148v-217h-297z" />
<glyph unicode="%" horiz-adv-x="2175" d="M487 673q-183 0 -294 110t-111 305v2q0 195 111 305t294 110q182 0 293.5 -110.5t111.5 -304.5v-2q0 -194 -111.5 -304.5t-293.5 -110.5zM585 0l633 1470h373l-633 -1470h-373zM487 875q131 0 131 213v2q0 212 -131 212t-131 -212v-2q0 -213 131 -213zM1689 -35 q-183 0 -294 110.5t-111 305.5v2q0 195 111 305t294 110q182 0 293.5 -110.5t111.5 -304.5v-2q0 -195 -111.5 -305.5t-293.5 -110.5zM1689 168q131 0 131 213v2q0 212 -131 212q-69 0 -100 -54t-31 -158v-2q0 -105 30.5 -159t100.5 -54z" />
<glyph unicode="&#x26;" horiz-adv-x="1769" d="M1244 0l-133 132q-104 -87 -217.5 -127t-267.5 -40q-256 0 -401 118.5t-145 316.5v5q0 273 330 423q-142 169 -142 314v3q0 153 126 256.5t341 103.5q223 0 344 -96t121 -254v-3q0 -109 -74.5 -199t-201.5 -156l183 -181q29 46 112 198h400q-95 -212 -273 -435l383 -379 h-485zM726 995q99 59 99 153v1q0 48 -24.5 74t-65.5 26q-40 0 -64 -25t-24 -74v-2q0 -66 79 -153zM892 349l-275 274q-133 -86 -133 -210v-5q0 -75 51 -120.5t133 -45.5q111 0 224 107z" />
<glyph unicode="'" horiz-adv-x="618" d="M100 1470h418v-109l-25 -406h-368l-25 406v109z" />
<glyph unicode="(" horiz-adv-x="758" d="M708 1571q-127 -203 -197 -455t-70 -503t70 -503t197 -455h-336q-121 174 -196.5 440t-75.5 518t75.5 518t196.5 440h336z" />
<glyph unicode=")" horiz-adv-x="758" d="M50 1571h336q121 -174 196.5 -440t75.5 -518t-75.5 -518t-196.5 -440h-336q127 203 197 454.5t70 503.5t-70 503.5t-197 454.5z" />
<glyph unicode="*" horiz-adv-x="933" d="M348 774l-176 128l117 161l-189 62l68 208l189 -62v199h219v-199l189 62l68 -208l-190 -62l118 -161l-176 -128l-119 160z" />
<glyph unicode="+" horiz-adv-x="1273" d="M465 905v366h340v-366h368v-340h-368v-366h-340v366h-365v340h365z" />
<glyph unicode="," horiz-adv-x="693" d="M60 -217l144 600h411l-194 -600h-361z" />
<glyph unicode="-" horiz-adv-x="879" d="M100 351v340h680v-340h-680z" />
<glyph unicode="." horiz-adv-x="647" d="M529 0h-411v383h411v-383z" />
<glyph unicode="/" horiz-adv-x="1252" d="M120 -206l611 1676h401l-611 -1676h-401z" />
<glyph unicode="0" horiz-adv-x="1569" d="M785 -35q-331 0 -517 203.5t-186 565.5v2q0 362 186 565.5t517 203.5t516.5 -203.5t185.5 -565.5v-2q0 -362 -185.5 -565.5t-516.5 -203.5zM785 286q131 0 204.5 108.5t73.5 339.5v2q0 231 -73.5 339.5t-204.5 108.5q-132 0 -205.5 -108.5t-73.5 -339.5v-2 q0 -231 73.5 -339.5t205.5 -108.5z" />
<glyph unicode="1" horiz-adv-x="1020" d="M374 0v951h-320v336h46q162 0 239.5 36t120.5 147h332v-1470h-418z" />
<glyph unicode="2" horiz-adv-x="1401" d="M72 0v60q0 141 24.5 246.5t83 195.5t155.5 159.5t242 129.5l100 42q116 50 163 98t47 119v2q0 70 -46.5 108.5t-127.5 38.5q-183 0 -194 -206h-423q21 251 186 381.5t443 130.5q174 0 307.5 -47.5t212 -146t78.5 -235.5v-2q0 -177 -98 -292.5t-307 -201.5l-99 -42 q-130 -55 -180 -98.5t-58 -103.5h724v-336h-1233z" />
<glyph unicode="3" horiz-adv-x="1461" d="M755 -35q-188 0 -336 56.5t-241.5 172t-110.5 276.5h424q42 -199 255 -199q96 0 156 41t60 118v2q0 165 -263 165h-118v303h118q109 0 164.5 42.5t55.5 112.5v2q0 67 -49.5 104.5t-134.5 37.5q-182 0 -206 -180h-424q30 234 200 360t450 126q169 0 298 -43t206.5 -134.5 t77.5 -220.5v-1q0 -109 -50 -196t-137 -127v-2q112 -44 174 -130t62 -216v-2q0 -144 -81.5 -251t-224 -162t-325.5 -55z" />
<glyph unicode="4" horiz-adv-x="1474" d="M783 0v285h-746v338l746 847h418v-849h236v-336h-236v-285h-418zM419 621h364v426h-2l-94 -109z" />
<glyph unicode="5" horiz-adv-x="1436" d="M725 -35q-261 0 -440 124.5t-211 333.5h424q49 -152 221 -152q97 0 158 53.5t61 143.5v2q0 92 -61 148.5t-156 56.5q-158 0 -217 -125l-397 52l96 868h1053v-336h-708l-31 -269q121 115 335 115q233 0 371.5 -136.5t138.5 -363.5v-2q0 -234 -175 -373.5t-462 -139.5z" />
<glyph unicode="6" horiz-adv-x="1439" d="M741 -35q-161 0 -287 52t-207 146.5t-123 225.5t-42 292v2q0 179 42 327t124 259.5t213.5 173.5t301.5 62q238 0 383.5 -121.5t176.5 -310.5h-393q-39 126 -183 126q-114 0 -179.5 -91t-72.5 -273q127 136 355 136q72 0 143 -18.5t137 -58.5t116.5 -97t80.5 -140t30 -181 v-2q0 -119 -47.5 -216t-131 -160.5t-195.5 -98t-242 -34.5zM726 271q97 0 159.5 52.5t62.5 143.5v2q0 92 -62.5 145.5t-159.5 53.5t-159.5 -53.5t-62.5 -145.5v-2q0 -91 62.5 -143.5t159.5 -52.5z" />
<glyph unicode="7" horiz-adv-x="1290" d="M248 0q0 178 33.5 335t88 274t134.5 219t162.5 173t181.5 133h-803v336h1201v-336q-295 -197 -438 -470t-141 -664h-419z" />
<glyph unicode="8" horiz-adv-x="1431" d="M716 -35q-157 0 -280 36.5t-199 100t-115.5 146t-39.5 178.5v2q0 120 65.5 211.5t164.5 137.5v1q-86 48 -133.5 131.5t-47.5 192.5v2q0 181 151 291t434 110t434 -110t151 -291v-2q0 -109 -48 -192.5t-134 -131.5v-1q99 -46 165 -137.5t66 -211.5v-2q0 -96 -39.5 -178.5 t-116 -146t-199.5 -100t-279 -36.5zM716 908q76 0 121.5 39t45.5 105v2q0 66 -46 105.5t-121 39.5q-76 0 -122 -39.5t-46 -105.5v-2q0 -66 46 -105t122 -39zM716 271q97 0 153.5 46.5t56.5 121.5v2q0 75 -56.5 121.5t-153.5 46.5q-98 0 -154 -46.5t-56 -121.5v-2 q0 -75 56 -121.5t154 -46.5z" />
<glyph unicode="9" horiz-adv-x="1439" d="M698 1505q161 0 287 -52t207 -146.5t123 -225.5t42 -292v-2q0 -179 -42 -327t-124 -259.5t-213.5 -173.5t-301.5 -62q-121 0 -221 34t-169 93t-112 136.5t-58 168.5h393q39 -126 183 -126q114 0 179.5 91t72.5 273q-128 -136 -355 -136q-72 0 -143 18.5t-137 58.5 t-116.5 97t-80.5 140.5t-30 181.5v2q0 157 82.5 274t221 175.5t312.5 58.5zM713 1199q-97 0 -159.5 -52.5t-62.5 -143.5v-2q0 -92 62.5 -145.5t159.5 -53.5t159 53.5t62 145.5v2q0 91 -62 143.5t-159 52.5z" />
<glyph unicode=":" horiz-adv-x="647" d="M529 659h-411v383h411v-383zM529 0h-411v383h411v-383z" />
<glyph unicode=";" horiz-adv-x="719" d="M601 659h-411v383h411v-383zM60 -217l144 600h411l-194 -600h-361z" />
<glyph unicode="&#x3c;" horiz-adv-x="1085" d="M100 877l885 472v-386l-458 -234v-1l458 -234v-386l-885 472v297z" />
<glyph unicode="=" horiz-adv-x="1273" d="M100 801v340h1073v-340h-1073zM100 329v340h1073v-340h-1073z" />
<glyph unicode="&#x3e;" horiz-adv-x="1085" d="M100 1349l885 -472v-297l-885 -472v386l458 234v1l-458 234v386z" />
<glyph unicode="?" horiz-adv-x="1250" d="M619 1201q-135 0 -135 -178h-426q8 220 161 351t406 131q256 0 406 -106t150 -279v-1q0 -110 -53.5 -196.5t-149.5 -142.5l-36 -25q-83 -50 -117.5 -98t-34.5 -122h-384q0 124 38.5 194t132.5 131l40 29q69 44 100.5 84.5t31.5 97.5v1q0 60 -33 94.5t-97 34.5zM802 0 h-410v383h410v-383z" />
<glyph unicode="@" horiz-adv-x="1810" d="M779 237q-132 0 -223 95t-91 278v2q0 90 30 176t83.5 154t135 109.5t176.5 41.5q82 0 143 -38.5t90 -99.5l13 101h167l-60 -451q-27 -209 77 -209q79 0 131 94.5t52 254.5v2q0 244 -151.5 378t-404.5 134q-137 0 -255 -49t-200 -134t-129 -204.5t-47 -257.5v-2 q0 -256 152 -406.5t416 -150.5q189 0 372 88l66 -155q-194 -100 -438 -100q-343 0 -548.5 199.5t-205.5 534.5v2q0 167 63.5 314.5t172.5 251.5t260.5 164t322.5 60q151 0 281 -40t231.5 -118.5t160 -206t58.5 -291.5v-2q0 -122 -32.5 -224t-86 -166.5t-121 -100 t-138.5 -35.5q-81 0 -137 46t-68 134q-46 -83 -130 -128t-188 -45zM835 407q118 0 186.5 93t68.5 227v2q0 88 -48 139t-133 51q-109 0 -178 -91t-69 -216v-2q0 -101 45 -152t128 -51z" />
<glyph unicode="A" horiz-adv-x="1613" d="M30 0l507 1470h538l508 -1470h-439l-98 327h-483l-98 -327h-435zM661 656h286l-142 473h-2z" />
<glyph unicode="B" horiz-adv-x="1446" d="M129 0v1470h671q249 0 376.5 -100t127.5 -272v-1q0 -107 -53 -192t-131 -125v-1q124 -50 196 -132.5t72 -217.5v-2q0 -205 -148 -316t-423 -111h-688zM547 903h192q160 0 160 123v2q0 123 -160 123h-192v-248zM547 319h225q183 0 183 135v2q0 136 -183 136h-225v-273z " />
<glyph unicode="C" horiz-adv-x="1627" d="M841 -35q-170 0 -313 54.5t-245 153.5t-159 243.5t-57 317.5v2q0 173 57 317.5t159 243.5t245 153.5t313 54.5q291 0 482.5 -144.5t244.5 -411.5h-424q-67 219 -305 219q-151 0 -243.5 -112.5t-92.5 -319.5v-2q0 -207 92.5 -319.5t243.5 -112.5q238 0 305 219h424 q-53 -267 -244.5 -411.5t-482.5 -144.5z" />
<glyph unicode="D" horiz-adv-x="1591" d="M129 0v1470h581q132 0 249.5 -25t222 -81.5t179.5 -140.5t119 -208.5t44 -279.5v-2q0 -150 -43.5 -273t-119.5 -207.5t-180 -142t-222 -84t-249 -26.5h-581zM547 329h150q191 0 291 96.5t100 307.5v2q0 212 -100 309t-291 97h-150v-812z" />
<glyph unicode="E" horiz-adv-x="1339" d="M129 0v1470h1093v-336h-675v-229h612v-336h-612v-233h683v-336h-1101z" />
<glyph unicode="F" horiz-adv-x="1281" d="M129 0v1470h1098v-336h-680v-229h617v-336h-617v-569h-418z" />
<glyph unicode="G" horiz-adv-x="1700" d="M815 -35q-214 0 -382.5 90.5t-267 267t-98.5 412.5v2q0 231 98 406t273.5 268.5t402.5 93.5q288 0 479.5 -132t247.5 -375h-424q-33 85 -107.5 127.5t-179.5 42.5q-163 0 -258.5 -111.5t-95.5 -319.5v-2q0 -218 95 -331t259 -113q137 0 222 67t85 180v4h-364v298h768 v-840h-291l-7 160q-62 -86 -180 -140.5t-275 -54.5z" />
<glyph unicode="H" horiz-adv-x="1568" d="M129 0v1470h418v-551h474v551h418v-1470h-418v554h-474v-554h-418z" />
<glyph unicode="I" horiz-adv-x="675" d="M129 0v1470h418v-1470h-418z" />
<glyph unicode="J" horiz-adv-x="1287" d="M603 -35q-283 0 -428 143.5t-145 397.5h417q0 -210 162 -210q78 0 115 50t37 160v964h415v-964q0 -254 -145.5 -397.5t-427.5 -143.5z" />
<glyph unicode="K" horiz-adv-x="1531" d="M129 0v1470h418v-578l452 578h494l-570 -714l601 -756h-520l-457 574v-574h-418z" />
<glyph unicode="L" horiz-adv-x="1188" d="M129 0v1470h418v-1134h596v-336h-1014z" />
<glyph unicode="M" horiz-adv-x="1996" d="M129 0v1470h608l260 -1011h2l260 1011h608v-1470h-388v658l8 383h-2l-282 -1041h-409l-283 1041h-2l8 -383v-658h-388z" />
<glyph unicode="N" horiz-adv-x="1568" d="M129 0v1470h525l405 -949h2l-11 392v557h389v-1470h-530l-401 949h-2l12 -392v-557h-389z" />
<glyph unicode="O" horiz-adv-x="1720" d="M860 -35q-173 0 -320 54.5t-251.5 153.5t-163 243.5t-58.5 317.5v2q0 231 101 406.5t280.5 269t411.5 93.5t411.5 -93.5t280.5 -269t101 -406.5v-2q0 -173 -58.5 -317.5t-163 -243.5t-251.5 -153.5t-320 -54.5zM860 302q158 0 257.5 113.5t99.5 318.5v2q0 206 -99 319 t-258 113t-258 -113t-99 -319v-2q0 -206 99 -319t258 -113z" />
<glyph unicode="P" horiz-adv-x="1414" d="M129 0v1470h601q149 0 263.5 -26t202 -82t133.5 -153t46 -231v-2q0 -134 -46 -231t-133.5 -153t-202 -82t-263.5 -26h-183v-484h-418zM547 813h174q112 0 165.5 39.5t53.5 123.5v2q0 84 -53.5 123.5t-165.5 39.5h-174v-328z" />
<glyph unicode="Q" horiz-adv-x="1719" d="M860 -35q-173 0 -320 54.5t-251.5 153.5t-163 243.5t-58.5 317.5v2q0 231 101 406.5t280.5 269t411.5 93.5t411.5 -93.5t280.5 -269t101 -406.5v-2q0 -181 -63 -329t-180 -250l333 -356h-425l-189 204q-126 -38 -269 -38zM860 302q158 0 257.5 113.5t99.5 318.5v2 q0 206 -99 319t-258 113t-258 -113t-99 -319v-2q0 -206 99 -319t258 -113z" />
<glyph unicode="R" horiz-adv-x="1490" d="M129 0v1470h620q119 0 215.5 -15t178 -49t136.5 -88.5t85.5 -135.5t30.5 -187v-2q0 -318 -305 -426l352 -567h-459l-314 517h-122v-517h-418zM547 846h208q103 0 153.5 35t50.5 112v2q0 76 -50.5 111t-153.5 35h-208v-295z" />
<glyph unicode="S" horiz-adv-x="1454" d="M745 -35q-157 0 -281 37t-204.5 104t-128 153.5t-62.5 192.5h425q40 -185 258 -185q101 0 160 35.5t59 98.5v1q0 61 -50 95.5t-160 57.5l-221 43q-216 43 -335 157.5t-119 299.5v2q0 199 173.5 323.5t449.5 124.5q280 0 437.5 -122t191.5 -340h-424q-40 157 -222 157 q-87 0 -140 -32.5t-53 -91.5v-1q0 -105 162 -138l220 -44q249 -49 376 -157t127 -293v-3q0 -222 -174.5 -348.5t-464.5 -126.5z" />
<glyph unicode="T" horiz-adv-x="1384" d="M483 0v1134h-464v336h1346v-336h-464v-1134h-418z" />
<glyph unicode="U" horiz-adv-x="1535" d="M767 -35q-333 0 -490.5 146t-157.5 470v889h418v-886q0 -143 52.5 -212.5t177.5 -69.5t178 69.5t53 212.5v886h418v-889q0 -324 -158 -470t-491 -146z" />
<glyph unicode="V" horiz-adv-x="1629" d="M546 0l-511 1470h439l366 -1072l338 1072h417l-510 -1470h-539z" />
<glyph unicode="W" horiz-adv-x="2091" d="M344 0l-299 1470h424l165 -1056h2l189 1056h441l185 -1056h2l168 1056h426l-299 -1470h-504l-198 1108h-2l-197 -1108h-503z" />
<glyph unicode="X" horiz-adv-x="1647" d="M68 0l521 735l-505 735h499l255 -390l261 390h455l-501 -709l527 -761h-500l-275 416l-283 -416h-454z" />
<glyph unicode="Y" horiz-adv-x="1667" d="M626 0v562l-591 908h451l246 -400l103 -165h1l344 565h452l-588 -908v-562h-418z" />
<glyph unicode="Z" horiz-adv-x="1371" d="M85 0v322l663 812h-635v336h1155v-321l-665 -813h683v-336h-1201z" />
<glyph unicode="[" horiz-adv-x="864" d="M100 -345v1916h664v-298h-323v-1320h323v-298h-664z" />
<glyph unicode="\" horiz-adv-x="1252" d="M521 1470l611 -1676h-401l-611 1676h401z" />
<glyph unicode="]" horiz-adv-x="864" d="M764 1571v-1916h-664v298h323v1320h-323v298h664z" />
<glyph unicode="_" horiz-adv-x="1183" d="M50 -396v340h1083v-340h-1083z" />
<glyph unicode="`" horiz-adv-x="824" d="M360 1212l-310 258h463l261 -258h-414z" />
<glyph unicode="a" horiz-adv-x="1250" d="M454 -35q-168 0 -284 87t-116 230v2q0 79 32 139.5t90 102t147 70t193 43.5t239 23v22q0 158 -135 158q-121 0 -130 -128h-389q9 83 44 150t97.5 119t159.5 80.5t222 28.5q122 0 216 -25t166.5 -79t110.5 -148.5t37 -226.5l-2 -313q-2 -188 34 -300h-372q-7 44 -9 124 q-106 -159 -351 -159zM767 446q-162 -13 -232.5 -43.5t-70.5 -97.5v-2q0 -47 34 -76.5t93 -29.5q83 0 129.5 53t46.5 156v40z" />
<glyph unicode="b" horiz-adv-x="1339" d="M820 -35q-111 0 -192 40t-124 107v-112h-403v1470h403v-540q43 67 124 107t192 40q88 0 168.5 -36.5t144 -104.5t101 -175.5t37.5 -238.5v-2q0 -131 -37.5 -238.5t-101 -175.5t-144 -104.5t-168.5 -36.5zM671 246q86 0 132.5 72.5t46.5 201.5v2q0 129 -46.5 201.5 t-132.5 72.5q-85 0 -131.5 -72.5t-46.5 -201.5v-2q0 -129 46.5 -201.5t131.5 -72.5z" />
<glyph unicode="c" horiz-adv-x="1266" d="M639 -35q-264 0 -417.5 153.5t-153.5 406.5v2q0 254 153.5 407t417.5 153q241 0 385 -116.5t176 -307.5h-395q-25 149 -158 149q-79 0 -122.5 -76t-43.5 -209v-2q0 -132 43.5 -208t122.5 -76q133 0 158 149h395q-32 -191 -176 -308t-385 -117z" />
<glyph unicode="d" horiz-adv-x="1339" d="M520 -35q-88 0 -168.5 36.5t-144 104.5t-101.5 175.5t-38 238.5v2q0 131 38 238.5t101.5 175.5t144 104.5t168.5 36.5q111 0 191.5 -40t123.5 -107v540h403v-1470h-403v112q-43 -67 -123.5 -107t-191.5 -40zM668 246q86 0 132.5 72.5t46.5 201.5v2q0 129 -46.5 201.5 t-132.5 72.5t-132.5 -72.5t-46.5 -201.5v-2q0 -129 46.5 -201.5t132.5 -72.5z" />
<glyph unicode="e" horiz-adv-x="1308" d="M658 -35q-272 0 -431 151t-159 409v2q0 170 77 298.5t208.5 195t297.5 66.5q154 0 271.5 -49.5t188 -138.5t103 -208t25.5 -262v-1h-765q13 -95 64 -144t128 -49q132 0 170 91h389q-42 -159 -189.5 -260t-377.5 -101zM474 650h361v1q-5 78 -51.5 129.5t-128.5 51.5 q-156 0 -181 -182z" />
<glyph unicode="f" horiz-adv-x="830" d="M176 0v739h-139v303h139v43q0 198 112.5 291.5t352.5 93.5h137v-286h-63q-73 0 -104.5 -25.5t-31.5 -82.5v-34h199v-303h-199v-739h-403z" />
<glyph unicode="g" horiz-adv-x="1344" d="M534 23q-91 0 -174 34t-148.5 98t-104.5 166t-39 228v2q0 125 39 227t104.5 166.5t148.5 98.5t174 34q106 0 185 -37.5t121 -99.5v102h403v-930q0 -521 -588 -521q-231 0 -375 99t-177 272h384q13 -55 59 -86t113 -31q87 0 134 53t47 156v105q-41 -62 -120.5 -99 t-185.5 -37zM669 303q86 0 134 66t48 180v2q0 114 -48 179.5t-134 65.5q-85 0 -133 -66t-48 -179v-2q0 -114 48 -180t133 -66z" />
<glyph unicode="h" d="M101 0v1470h403v-541q112 148 317 148q370 0 370 -419v-658h-403v581q0 101 -35 149.5t-107 48.5t-107 -48.5t-35 -149.5v-581h-403z" />
<glyph unicode="i" horiz-adv-x="605" d="M101 1161v309h403v-309h-403zM101 0v1042h403v-1042h-403z" />
<glyph unicode="j" horiz-adv-x="606" d="M102 1161v309h403v-309h-403zM-45 -385v297h36q62 0 86.5 22t24.5 98v1010h403v-1036q0 -218 -101 -304.5t-354 -86.5h-95z" />
<glyph unicode="k" horiz-adv-x="1335" d="M101 0v1470h403v-815l323 387h453l-417 -502l453 -540h-499l-313 366v-366h-403z" />
<glyph unicode="l" horiz-adv-x="605" d="M101 0v1470h403v-1470h-403z" />
<glyph unicode="m" horiz-adv-x="1962" d="M101 0v1042h403v-113q112 148 317 148q244 0 326 -183q61 94 155.5 138.5t205.5 44.5q370 0 370 -419v-658h-403v581q0 101 -35 149.5t-107 48.5t-107 -48.5t-35 -149.5v-581h-403v581q0 101 -35 149.5t-107 48.5t-107 -48.5t-35 -149.5v-581h-403z" />
<glyph unicode="n" d="M101 0v1042h403v-113q112 148 317 148q370 0 370 -419v-658h-403v581q0 101 -35 149.5t-107 48.5t-107 -48.5t-35 -149.5v-581h-403z" />
<glyph unicode="o" horiz-adv-x="1315" d="M657 -35q-272 0 -430.5 153t-158.5 407v2q0 254 158.5 407t430.5 153t431 -153t159 -407v-2q0 -253 -159 -406.5t-431 -153.5zM657 241q88 0 132 73.5t44 210.5v2q0 285 -176 285q-88 0 -131.5 -73.5t-43.5 -211.5v-2q0 -137 43.5 -210.5t131.5 -73.5z" />
<glyph unicode="p" horiz-adv-x="1339" d="M820 -35q-111 0 -192 40t-124 107v-497h-403v1427h403v-112q43 67 124 107t192 40q88 0 168.5 -36.5t144 -104.5t101 -175.5t37.5 -238.5v-2q0 -131 -37.5 -238.5t-101 -175.5t-144 -104.5t-168.5 -36.5zM671 246q86 0 132.5 72.5t46.5 201.5v2q0 129 -46.5 201.5 t-132.5 72.5q-85 0 -131.5 -72.5t-46.5 -201.5v-2q0 -129 46.5 -201.5t131.5 -72.5z" />
<glyph unicode="q" horiz-adv-x="1339" d="M520 -35q-88 0 -168.5 36.5t-144 104.5t-101.5 175.5t-38 238.5v2q0 131 38 238.5t101.5 175.5t144 104.5t168.5 36.5q111 0 191.5 -40t123.5 -107v112h403v-1427h-403v497q-43 -67 -123.5 -107t-191.5 -40zM668 246q86 0 132.5 72.5t46.5 201.5v2q0 129 -46.5 201.5 t-132.5 72.5t-132.5 -72.5t-46.5 -201.5v-2q0 -129 46.5 -201.5t132.5 -72.5z" />
<glyph unicode="r" horiz-adv-x="863" d="M101 0v1042h394v-213q36 102 120 166.5t194 64.5h19v-381h-85q-117 0 -178 -47.5t-61 -172.5v-459h-403z" />
<glyph unicode="s" horiz-adv-x="1208" d="M621 -35q-250 0 -394 96.5t-161 263.5h391q22 -124 162 -124q57 0 92 21.5t35 58.5v1q0 40 -34.5 62.5t-117.5 37.5l-181 34q-170 32 -256 117.5t-86 207.5v2q0 152 140 248t361 96q233 0 368.5 -85t161.5 -252h-388q-22 103 -134 103q-49 0 -81 -22t-32 -56v-2 q0 -36 31 -57t99 -34l174 -32q189 -36 280.5 -116t91.5 -215v-2q0 -158 -141.5 -255t-380.5 -97z" />
<glyph unicode="t" horiz-adv-x="866" d="M616 0q-129 0 -214.5 22t-134 69.5t-68 112.5t-19.5 161v374h-143v303h143v290h402v-290h203v-303h-203v-298q0 -82 29 -109.5t97 -27.5h74v-304h-166z" />
<glyph unicode="u" d="M455 -33q-370 0 -370 419v656h403v-580q0 -198 142 -198t142 198v580h402v-1042h-402v127q-106 -160 -317 -160z" />
<glyph unicode="v" horiz-adv-x="1268" d="M408 0l-389 1042h422l205 -648l206 648h396l-388 -1042h-452z" />
<glyph unicode="w" horiz-adv-x="1849" d="M326 0l-294 1042h393l161 -659l163 659h352l166 -660l163 660h388l-293 -1042h-427l-175 679l-170 -679h-427z" />
<glyph unicode="x" horiz-adv-x="1339" d="M38 0l422 526l-406 516h440l181 -250l183 250h431l-409 -508l421 -534h-441l-195 268l-198 -268h-429z" />
<glyph unicode="y" horiz-adv-x="1305" d="M236 -385l172 383l-389 1044h409l216 -642h2l260 642h380l-646 -1427h-404z" />
<glyph unicode="z" horiz-adv-x="1147" d="M68 0v295l536 444h-526v303h978v-294l-545 -444h568v-304h-1011z" />
<glyph unicode="{" horiz-adv-x="857" d="M93 535v156q84 27 111 70t27 154v225q0 236 105 335t329 97l92 -1v-298h-33q-92 0 -122 -35.5t-30 -143.5v-182q0 -136 -44.5 -196.5t-156.5 -101.5v-2q112 -40 156.5 -101t44.5 -197v-182q0 -109 30 -144t122 -35h33v-298l-92 -1q-224 -2 -329 97t-105 335v225 q0 77 -12.5 118.5t-40 64t-85.5 41.5z" />
<glyph unicode="|" horiz-adv-x="581" d="M120 -206v1852h341v-1852h-341z" />
<glyph unicode="}" horiz-adv-x="857" d="M764 691v-156q-84 -28 -111 -70t-27 -154v-225q0 -236 -104.5 -335t-328.5 -97l-93 1v298h33q92 0 122 35t30 144v182q0 136 44.5 197t156.5 101v2q-112 41 -156.5 101.5t-44.5 196.5v182q0 108 -30 143.5t-122 35.5h-33v298l93 1q224 2 328.5 -97t104.5 -335v-225 q0 -77 12.5 -118.5t40.5 -64t85 -41.5z" />
<glyph unicode="&#xa2;" horiz-adv-x="1268" d="M468 206v199q-189 46 -294.5 189.5t-105.5 351.5v2q0 207 105.5 350.5t294.5 189.5v197h364v-201q156 -42 249.5 -147.5t118.5 -253.5h-395q-25 149 -158 149q-79 0 -122.5 -75.5t-43.5 -208.5v-2q0 -133 43.5 -208.5t122.5 -75.5q133 0 158 148h395 q-25 -147 -118.5 -253t-249.5 -148v-203h-364z" />
<glyph unicode="&#xa3;" horiz-adv-x="1448" d="M93 576v295h154q-34 91 -34 193v2q0 207 153.5 323t412.5 116q110 0 203 -25t172 -77.5t131.5 -144.5t70.5 -217h-417q-22 160 -164 160q-70 0 -109.5 -39t-39.5 -112v-3q0 -87 37 -176h437v-295h-335v-4v-6q0 -136 -139 -230h710v-336h-1203v326q203 87 206 250h-246z " />
<glyph unicode="&#xa8;" horiz-adv-x="894" d="M337 1224h-285v246h285v-246zM842 1224h-285v246h285v-246z" />
<glyph unicode="&#xab;" horiz-adv-x="1390" d="M305 192l-236 373l236 372h416l-229 -372l229 -373h-416zM865 192l-236 373l236 372h416l-229 -372l229 -373h-416z" />
<glyph unicode="&#xad;" horiz-adv-x="879" d="M100 351v340h680v-340h-680z" />
<glyph unicode="&#xb4;" horiz-adv-x="823" d="M774 1470l-311 -258h-413l260 258h464z" />
<glyph unicode="&#xb8;" horiz-adv-x="543" d="M493 -96l-122 -242h-321l176 242h267z" />
<glyph unicode="&#xbb;" horiz-adv-x="1390" d="M1321 565l-236 -373h-416l229 373l-229 372h416zM761 565l-236 -373h-415l229 373l-229 372h415z" />
<glyph unicode="&#xc2;" horiz-adv-x="1613" d="M344 1630l306 268h312l307 -268h-325l-138 114l-137 -114h-325zM30 0l507 1470h538l508 -1470h-439l-98 327h-483l-98 -327h-435zM661 656h286l-142 473h-2z" />
<glyph unicode="&#xce;" horiz-adv-x="675" d="M-124 1630l306 268h312l307 -268h-325l-138 114l-137 -114h-325zM129 0v1470h418v-1470h-418z" />
<glyph unicode="&#xe2;" horiz-adv-x="1250" d="M192 1212l279 258h298l278 -258h-315l-112 114l-112 -114h-316zM454 -35q-168 0 -284 87t-116 230v2q0 79 32 139.5t90 102t147 70t193 43.5t239 23v22q0 158 -135 158q-121 0 -130 -128h-389q9 83 44 150t97.5 119t159.5 80.5t222 28.5q122 0 216 -25t166.5 -79 t110.5 -148.5t37 -226.5l-2 -313q-2 -188 34 -300h-372q-7 44 -9 124q-106 -159 -351 -159zM767 446q-162 -13 -232.5 -43.5t-70.5 -97.5v-2q0 -47 34 -76.5t93 -29.5q83 0 129.5 53t46.5 156v40z" />
<glyph unicode="&#xee;" horiz-adv-x="605" d="M-124 1212l278 258h298l278 -258h-315l-112 114l-112 -114h-315zM101 0v1042h403v-1042h-403z" />
<glyph unicode="&#x100;" horiz-adv-x="1613" d="M452 1678v220h709v-220h-709zM30 0l507 1470h538l508 -1470h-439l-98 327h-483l-98 -327h-435zM661 656h286l-142 473h-2z" />
<glyph unicode="&#x101;" horiz-adv-x="1250" d="M265 1250v220h709v-220h-709zM454 -35q-168 0 -284 87t-116 230v2q0 79 32 139.5t90 102t147 70t193 43.5t239 23v22q0 158 -135 158q-121 0 -130 -128h-389q9 83 44 150t97.5 119t159.5 80.5t222 28.5q122 0 216 -25t166.5 -79t110.5 -148.5t37 -226.5l-2 -313 q-2 -188 34 -300h-372q-7 44 -9 124q-106 -159 -351 -159zM767 446q-162 -13 -232.5 -43.5t-70.5 -97.5v-2q0 -47 34 -76.5t93 -29.5q83 0 129.5 53t46.5 156v40z" />
<glyph unicode="&#x102;" horiz-adv-x="1613" d="M416 1898h250q11 -33 50 -55t90 -22t90.5 22t50.5 55h249q-13 -125 -119.5 -198.5t-270.5 -73.5q-163 0 -269.5 73.5t-120.5 198.5zM30 0l507 1470h538l508 -1470h-439l-98 327h-483l-98 -327h-435zM661 656h286l-142 473h-2z" />
<glyph unicode="&#x103;" horiz-adv-x="1250" d="M230 1470h249q11 -33 50.5 -55t90.5 -22t90 22t50 55h250q-13 -125 -120 -198.5t-270 -73.5q-164 0 -270.5 73.5t-119.5 198.5zM454 -35q-168 0 -284 87t-116 230v2q0 79 32 139.5t90 102t147 70t193 43.5t239 23v22q0 158 -135 158q-121 0 -130 -128h-389q9 83 44 150 t97.5 119t159.5 80.5t222 28.5q122 0 216 -25t166.5 -79t110.5 -148.5t37 -226.5l-2 -313q-2 -188 34 -300h-372q-7 44 -9 124q-106 -159 -351 -159zM767 446q-162 -13 -232.5 -43.5t-70.5 -97.5v-2q0 -47 34 -76.5t93 -29.5q83 0 129.5 53t46.5 156v40z" />
<glyph unicode="&#x104;" horiz-adv-x="1613" d="M30 0l507 1470h538l508 -1470q-35 -21 -56.5 -54t-21.5 -66q0 -31 18.5 -48.5t50.5 -17.5q26 0 56 12l88 -155q-88 -60 -226 -60q-130 0 -211 56t-81 147q0 97 97 186h-153l-98 328l-483 -1l-98 -327h-435zM661 656h286l-142 473h-2z" />
<glyph unicode="&#x105;" horiz-adv-x="1250" d="M454 -35q-168 0 -284 87t-116 230v2q0 79 32 139.5t90 102t147 70t193 43.5t239 23v22q0 158 -135 158q-121 0 -130 -128h-389q9 83 44 150t97.5 119t159.5 80.5t222 28.5q122 0 216 -25t166.5 -79t110.5 -148.5t37 -226.5l-2 -313q-2 -188 34 -300q-35 -21 -56 -54 t-21 -66q0 -31 18 -48.5t50 -17.5q26 0 56 12l88 -155q-88 -60 -226 -60q-130 0 -210.5 56t-80.5 147q0 96 96 186h-86q-7 44 -9 124q-106 -159 -351 -159zM767 446q-162 -13 -232.5 -43.5t-70.5 -97.5v-2q0 -47 34 -76.5t93 -29.5q83 0 129.5 53t46.5 156v40z" />
<glyph unicode="&#x106;" horiz-adv-x="1627" d="M1056 1670h-411l229 228h465zM841 -35q-170 0 -313 54.5t-245 153.5t-159 243.5t-57 317.5v2q0 173 57 317.5t159 243.5t245 153.5t313 54.5q291 0 482.5 -144.5t244.5 -411.5h-424q-67 219 -305 219q-151 0 -243.5 -112.5t-92.5 -319.5v-2q0 -207 92.5 -319.5 t243.5 -112.5q238 0 305 219h424q-53 -267 -244.5 -411.5t-482.5 -144.5z" />
<glyph unicode="&#x107;" horiz-adv-x="1266" d="M1151 1470l-310 -258h-413l260 258h463zM639 -35q-264 0 -417.5 153.5t-153.5 406.5v2q0 254 153.5 407t417.5 153q241 0 385 -116.5t176 -307.5h-395q-25 149 -158 149q-79 0 -122.5 -76t-43.5 -209v-2q0 -132 43.5 -208t122.5 -76q133 0 158 149h395 q-32 -191 -176 -308t-385 -117z" />
<glyph unicode="&#x108;" horiz-adv-x="1627" d="M356 1630l306 268h312l306 -268h-325l-137 114l-137 -114h-325zM841 -35q-170 0 -313 54.5t-245 153.5t-159 243.5t-57 317.5v2q0 173 57 317.5t159 243.5t245 153.5t313 54.5q291 0 482.5 -144.5t244.5 -411.5h-424q-67 219 -305 219q-151 0 -243.5 -112.5t-92.5 -319.5 v-2q0 -207 92.5 -319.5t243.5 -112.5q238 0 305 219h424q-53 -267 -244.5 -411.5t-482.5 -144.5z" />
<glyph unicode="&#x109;" horiz-adv-x="1266" d="M206 1212l278 258h298l279 -258h-316l-112 114l-112 -114h-315zM639 -35q-264 0 -417.5 153.5t-153.5 406.5v2q0 254 153.5 407t417.5 153q241 0 385 -116.5t176 -307.5h-395q-25 149 -158 149q-79 0 -122.5 -76t-43.5 -209v-2q0 -132 43.5 -208t122.5 -76q133 0 158 149 h395q-32 -191 -176 -308t-385 -117z" />
<glyph unicode="&#x10a;" horiz-adv-x="1627" d="M969 1658h-303v240h303v-240zM841 -35q-170 0 -313 54.5t-245 153.5t-159 243.5t-57 317.5v2q0 173 57 317.5t159 243.5t245 153.5t313 54.5q291 0 482.5 -144.5t244.5 -411.5h-424q-67 219 -305 219q-151 0 -243.5 -112.5t-92.5 -319.5v-2q0 -207 92.5 -319.5 t243.5 -112.5q238 0 305 219h424q-53 -267 -244.5 -411.5t-482.5 -144.5z" />
<glyph unicode="&#x10b;" horiz-adv-x="1266" d="M776 1224h-286v246h286v-246zM639 -35q-264 0 -417.5 153.5t-153.5 406.5v2q0 254 153.5 407t417.5 153q241 0 385 -116.5t176 -307.5h-395q-25 149 -158 149q-79 0 -122.5 -76t-43.5 -209v-2q0 -132 43.5 -208t122.5 -76q133 0 158 149h395q-32 -191 -176 -308 t-385 -117z" />
<glyph unicode="&#x10c;" horiz-adv-x="1627" d="M356 1898h325l137 -114l137 114h325l-306 -268h-312zM841 -35q-170 0 -313 54.5t-245 153.5t-159 243.5t-57 317.5v2q0 173 57 317.5t159 243.5t245 153.5t313 54.5q291 0 482.5 -144.5t244.5 -411.5h-424q-67 219 -305 219q-151 0 -243.5 -112.5t-92.5 -319.5v-2 q0 -207 92.5 -319.5t243.5 -112.5q238 0 305 219h424q-53 -267 -244.5 -411.5t-482.5 -144.5z" />
<glyph unicode="&#x10d;" horiz-adv-x="1266" d="M484 1212l-278 258h315l112 -114l112 114h316l-279 -258h-298zM639 -35q-264 0 -417.5 153.5t-153.5 406.5v2q0 254 153.5 407t417.5 153q241 0 385 -116.5t176 -307.5h-395q-25 149 -158 149q-79 0 -122.5 -76t-43.5 -209v-2q0 -132 43.5 -208t122.5 -76q133 0 158 149 h395q-32 -191 -176 -308t-385 -117z" />
<glyph unicode="&#x10e;" horiz-adv-x="1591" d="M115 1898h325l137 -114l138 114h325l-307 -268h-312zM129 0v1470h581q132 0 249.5 -25t222 -81.5t179.5 -140.5t119 -208.5t44 -279.5v-2q0 -150 -43.5 -273t-119.5 -207.5t-180 -142t-222 -84t-249 -26.5h-581zM547 329h150q191 0 291 96.5t100 307.5v2q0 212 -100 309 t-291 97h-150v-812z" />
<glyph unicode="&#x10f;" horiz-adv-x="1726" d="M520 -35q-88 0 -168.5 36.5t-144 104.5t-101.5 175.5t-38 238.5v2q0 131 38 238.5t101.5 175.5t144 104.5t168.5 36.5q111 0 191.5 -40t123.5 -107v540h403v-1470h-403v112q-43 -67 -123.5 -107t-191.5 -40zM1388 1470h337v-328h-337v328zM668 246q86 0 132.5 72.5 t46.5 201.5v2q0 129 -46.5 201.5t-132.5 72.5t-132.5 -72.5t-46.5 -201.5v-2q0 -129 46.5 -201.5t132.5 -72.5z" />
<glyph unicode="&#x110;" horiz-adv-x="1591" d="M129 0v611h-113v248h113v611h581q132 0 249.5 -25t222 -81.5t179.5 -140.5t119 -208.5t44 -279.5v-2q0 -150 -43.5 -273t-119.5 -207.5t-180 -142t-222 -84t-249 -26.5h-581zM547 329h150q191 0 291 96.5t100 307.5v2q0 212 -100 309t-291 97h-150v-282h269v-248h-269 v-282z" />
<glyph unicode="&#x111;" horiz-adv-x="1339" d="M520 -35q-88 0 -168.5 36.5t-144 104.5t-101.5 175.5t-38 238.5v2q0 131 38 238.5t101.5 175.5t144 104.5t168.5 36.5q111 0 191.5 -40t123.5 -107v252h-328v192h328v96h403v-96h105v-192h-105v-1182h-403v112q-43 -67 -123.5 -107t-191.5 -40zM668 246q86 0 132.5 72.5 t46.5 201.5v2q0 129 -46.5 201.5t-132.5 72.5t-132.5 -72.5t-46.5 -201.5v-2q0 -129 46.5 -201.5t132.5 -72.5z" />
<glyph unicode="&#x112;" horiz-adv-x="1339" d="M325 1678v220h709v-220h-709zM129 0v1470h1093v-336h-675v-229h612v-336h-612v-233h683v-336h-1101z" />
<glyph unicode="&#x113;" horiz-adv-x="1308" d="M298 1250v220h709v-220h-709zM658 -35q-272 0 -431 151t-159 409v2q0 170 77 298.5t208.5 195t297.5 66.5q154 0 271.5 -49.5t188 -138.5t103 -208t25.5 -262v-1h-765q13 -95 64 -144t128 -49q132 0 170 91h389q-42 -159 -189.5 -260t-377.5 -101zM474 650h361v1 q-5 78 -51.5 129.5t-128.5 51.5q-156 0 -181 -182z" />
<glyph unicode="&#x114;" horiz-adv-x="1339" d="M289 1898h250q11 -33 50 -55t91 -22q51 0 90 22t50 55h250q-14 -125 -120.5 -198.5t-269.5 -73.5t-270 73.5t-121 198.5zM129 0v1470h1093v-336h-675v-229h612v-336h-612v-233h683v-336h-1101z" />
<glyph unicode="&#x115;" horiz-adv-x="1308" d="M262 1470h250q11 -33 50 -55t91 -22q51 0 90 22t50 55h250q-14 -125 -120.5 -198.5t-269.5 -73.5t-270 73.5t-121 198.5zM658 -35q-272 0 -431 151t-159 409v2q0 170 77 298.5t208.5 195t297.5 66.5q154 0 271.5 -49.5t188 -138.5t103 -208t25.5 -262v-1h-765 q13 -95 64 -144t128 -49q132 0 170 91h389q-42 -159 -189.5 -260t-377.5 -101zM474 650h361v1q-5 78 -51.5 129.5t-128.5 51.5q-156 0 -181 -182z" />
<glyph unicode="&#x116;" horiz-adv-x="1339" d="M831 1658h-303v240h303v-240zM129 0v1470h1093v-336h-675v-229h612v-336h-612v-233h683v-336h-1101z" />
<glyph unicode="&#x117;" horiz-adv-x="1308" d="M795 1224h-285v246h285v-246zM658 -35q-272 0 -431 151t-159 409v2q0 170 77 298.5t208.5 195t297.5 66.5q154 0 271.5 -49.5t188 -138.5t103 -208t25.5 -262v-1h-765q13 -95 64 -144t128 -49q132 0 170 91h389q-42 -159 -189.5 -260t-377.5 -101zM474 650h361v1 q-5 78 -51.5 129.5t-128.5 51.5q-156 0 -181 -182z" />
<glyph unicode="&#x118;" horiz-adv-x="1339" d="M129 0v1470h1093v-336h-675v-229h612v-336h-612v-233h683v-336h-230q-35 -21 -56.5 -54t-21.5 -66q0 -31 18.5 -48.5t50.5 -17.5q26 0 56 12l88 -155q-88 -60 -226 -60q-130 0 -211 56t-81 147q0 97 97 186h-585z" />
<glyph unicode="&#x119;" horiz-adv-x="1308" d="M937 -174l87 -155q-88 -60 -225 -60q-130 0 -211 56t-81 147q0 80 67 156q-236 23 -371 170.5t-135 384.5v2q0 170 77 298.5t208.5 195t297.5 66.5q154 0 271.5 -49.5t188 -138.5t103 -208t25.5 -262v-1h-765q13 -95 64 -144t128 -49q132 0 170 91h389 q-30 -115 -118 -202t-224 -128q-32 -21 -51.5 -52.5t-19.5 -63.5q0 -31 18.5 -48.5t49.5 -17.5q26 0 57 12zM474 650h361v1q-5 78 -51.5 129.5t-128.5 51.5q-156 0 -181 -182z" />
<glyph unicode="&#x11a;" horiz-adv-x="1339" d="M217 1898h325l138 -114l137 114h325l-306 -268h-313zM129 0v1470h1093v-336h-675v-229h612v-336h-612v-233h683v-336h-1101z" />
<glyph unicode="&#x11b;" horiz-adv-x="1308" d="M504 1212l-279 258h316l112 -114l112 114h315l-279 -258h-297zM658 -35q-272 0 -431 151t-159 409v2q0 170 77 298.5t208.5 195t297.5 66.5q154 0 271.5 -49.5t188 -138.5t103 -208t25.5 -262v-1h-765q13 -95 64 -144t128 -49q132 0 170 91h389q-42 -159 -189.5 -260 t-377.5 -101zM474 650h361v1q-5 78 -51.5 129.5t-128.5 51.5q-156 0 -181 -182z" />
<glyph unicode="&#x11c;" horiz-adv-x="1700" d="M357 1630l306 268h313l306 -268h-325l-137 114l-138 -114h-325zM815 -35q-214 0 -382.5 90.5t-267 267t-98.5 412.5v2q0 231 98 406t273.5 268.5t402.5 93.5q288 0 479.5 -132t247.5 -375h-424q-33 85 -107.5 127.5t-179.5 42.5q-163 0 -258.5 -111.5t-95.5 -319.5v-2 q0 -218 95 -331t259 -113q137 0 222 67t85 180v4h-364v298h768v-840h-291l-7 160q-62 -86 -180 -140.5t-275 -54.5z" />
<glyph unicode="&#x11d;" horiz-adv-x="1344" d="M228 1212l279 258h297l279 -258h-315l-112 114l-113 -114h-315zM534 23q-91 0 -174 34t-148.5 98t-104.5 166t-39 228v2q0 125 39 227t104.5 166.5t148.5 98.5t174 34q106 0 185 -37.5t121 -99.5v102h403v-930q0 -521 -588 -521q-231 0 -375 99t-177 272h384 q13 -55 59 -86t113 -31q87 0 134 53t47 156v105q-41 -62 -120.5 -99t-185.5 -37zM669 303q86 0 134 66t48 180v2q0 114 -48 179.5t-134 65.5q-85 0 -133 -66t-48 -179v-2q0 -114 48 -180t133 -66z" />
<glyph unicode="&#x11e;" horiz-adv-x="1700" d="M429 1898h250q11 -33 50 -55t91 -22q51 0 90 22t50 55h250q-14 -125 -120.5 -198.5t-269.5 -73.5t-270 73.5t-121 198.5zM815 -35q-214 0 -382.5 90.5t-267 267t-98.5 412.5v2q0 231 98 406t273.5 268.5t402.5 93.5q288 0 479.5 -132t247.5 -375h-424 q-33 85 -107.5 127.5t-179.5 42.5q-163 0 -258.5 -111.5t-95.5 -319.5v-2q0 -218 95 -331t259 -113q137 0 222 67t85 180v4h-364v298h768v-840h-291l-7 160q-62 -86 -180 -140.5t-275 -54.5z" />
<glyph unicode="&#x11f;" horiz-adv-x="1344" d="M265 1470h250q11 -33 50 -55t91 -22q51 0 90 22t50 55h250q-14 -125 -120.5 -198.5t-269.5 -73.5t-270 73.5t-121 198.5zM534 23q-91 0 -174 34t-148.5 98t-104.5 166t-39 228v2q0 125 39 227t104.5 166.5t148.5 98.5t174 34q106 0 185 -37.5t121 -99.5v102h403v-930 q0 -521 -588 -521q-231 0 -375 99t-177 272h384q13 -55 59 -86t113 -31q87 0 134 53t47 156v105q-41 -62 -120.5 -99t-185.5 -37zM669 303q86 0 134 66t48 180v2q0 114 -48 179.5t-134 65.5q-85 0 -133 -66t-48 -179v-2q0 -114 48 -180t133 -66z" />
<glyph unicode="&#x120;" horiz-adv-x="1700" d="M971 1658h-303v240h303v-240zM815 -35q-214 0 -382.5 90.5t-267 267t-98.5 412.5v2q0 231 98 406t273.5 268.5t402.5 93.5q288 0 479.5 -132t247.5 -375h-424q-33 85 -107.5 127.5t-179.5 42.5q-163 0 -258.5 -111.5t-95.5 -319.5v-2q0 -218 95 -331t259 -113 q137 0 222 67t85 180v4h-364v298h768v-840h-291l-7 160q-62 -86 -180 -140.5t-275 -54.5z" />
<glyph unicode="&#x121;" horiz-adv-x="1344" d="M798 1224h-286v246h286v-246zM534 23q-91 0 -174 34t-148.5 98t-104.5 166t-39 228v2q0 125 39 227t104.5 166.5t148.5 98.5t174 34q106 0 185 -37.5t121 -99.5v102h403v-930q0 -521 -588 -521q-231 0 -375 99t-177 272h384q13 -55 59 -86t113 -31q87 0 134 53t47 156 v105q-41 -62 -120.5 -99t-185.5 -37zM669 303q86 0 134 66t48 180v2q0 114 -48 179.5t-134 65.5q-85 0 -133 -66t-48 -179v-2q0 -114 48 -180t133 -66z" />
<glyph unicode="&#x122;" horiz-adv-x="1700" d="M815 -35q-214 0 -382.5 90.5t-267 267t-98.5 412.5v2q0 231 98 406t273.5 268.5t402.5 93.5q288 0 479.5 -132t247.5 -375h-424q-33 85 -107.5 127.5t-179.5 42.5q-163 0 -258.5 -111.5t-95.5 -319.5v-2q0 -218 95 -331t259 -113q137 0 222 67t85 180v4h-364v298h768 v-840h-291l-7 160q-62 -86 -180 -140.5t-275 -54.5zM982 -96l-175 -242h-267l122 242h320z" />
<glyph unicode="&#x123;" horiz-adv-x="1344" d="M994 1470l-122 -242h-321l176 242h267zM534 23q-91 0 -174 34t-148.5 98t-104.5 166t-39 228v2q0 125 39 227t104.5 166.5t148.5 98.5t174 34q106 0 185 -37.5t121 -99.5v102h403v-930q0 -521 -588 -521q-231 0 -375 99t-177 272h384q13 -55 59 -86t113 -31q87 0 134 53 t47 156v105q-41 -62 -120.5 -99t-185.5 -37zM669 303q86 0 134 66t48 180v2q0 114 -48 179.5t-134 65.5q-85 0 -133 -66t-48 -179v-2q0 -114 48 -180t133 -66z" />
<glyph unicode="&#x124;" horiz-adv-x="1568" d="M322 1630l306 268h312l307 -268h-325l-138 114l-137 -114h-325zM129 0v1470h418v-551h474v551h418v-1470h-418v554h-474v-554h-418z" />
<glyph unicode="&#x125;" d="M-125 1640l278 258h298l279 -258h-316l-112 114l-112 -114h-315zM101 0v1470h403v-541q112 148 317 148q370 0 370 -419v-658h-403v581q0 101 -35 149.5t-107 48.5t-107 -48.5t-35 -149.5v-581h-403z" />
<glyph unicode="&#x126;" horiz-adv-x="1568" d="M129 0v1071h-150v247h150v152h418v-152h474v152h418v-152h150v-247h-150v-1071h-418v554h-474v-554h-418zM547 919h474v152h-474v-152z" />
<glyph unicode="&#x127;" d="M101 0v1174h-120v192h120v104h403v-104h314v-192h-314v-245q112 148 317 148q370 0 370 -419v-658h-403v581q0 101 -35 149.5t-107 48.5t-107 -48.5t-35 -149.5v-581h-403z" />
<glyph unicode="&#x128;" horiz-adv-x="675" d="M492 1916h218q0 -122 -62 -200t-159 -78q-46 0 -97 19t-91.5 38.5t-62.5 19.5q-54 0 -54 -68h-219q0 121 62 199t159 78q38 0 77.5 -12t66.5 -26.5t57 -26.5t50 -12q53 0 55 69zM129 0v1470h418v-1470h-418z" />
<glyph unicode="&#x129;" horiz-adv-x="605" d="M457 1488h218q0 -121 -62 -199t-159 -78q-60 0 -144.5 38t-106.5 38q-54 0 -54 -67h-219q0 121 62 198.5t159 77.5q48 0 97.5 -19t89.5 -38t64 -19q53 0 55 68zM101 0v1042h403v-1042h-403z" />
<glyph unicode="&#x12a;" horiz-adv-x="675" d="M-16 1678v220h709v-220h-709zM129 0v1470h418v-1470h-418z" />
<glyph unicode="&#x12b;" horiz-adv-x="605" d="M-52 1250v220h710v-220h-710zM101 0v1042h403v-1042h-403z" />
<glyph unicode="&#x12e;" horiz-adv-x="675" d="M129 0v1470h418v-1470h-66q-35 -21 -56.5 -54t-21.5 -66q0 -31 18.5 -48.5t50.5 -17.5q26 0 56 12l88 -155q-88 -60 -226 -60q-130 0 -210.5 56t-80.5 147q0 98 96 186h-66z" />
<glyph unicode="&#x12f;" horiz-adv-x="605" d="M101 1161v309h403v-309h-403zM101 0v1042h403v-1042h-58q-35 -21 -56.5 -54t-21.5 -66q0 -31 18.5 -48.5t50.5 -17.5q26 0 56 12l88 -155q-88 -60 -226 -60q-130 0 -211 56t-81 147q0 97 97 186h-59z" />
<glyph unicode="&#x130;" horiz-adv-x="675" d="M490 1658h-303v240h303v-240zM129 0v1470h418v-1470h-418z" />
<glyph unicode="&#x131;" horiz-adv-x="605" d="M101 0v1042h403v-1042h-403z" />
<glyph unicode="&#x132;" horiz-adv-x="1963" d="M129 0v1470h418v-1470h-418zM1278 -35q-282 0 -427 143.5t-145 397.5h417q0 -210 161 -210q78 0 115.5 50t37.5 160v964h414v-964q0 -254 -145 -397.5t-428 -143.5z" />
<glyph unicode="&#x133;" horiz-adv-x="1211" d="M101 1161v309h403v-309h-403zM707 1161v309h403v-309h-403zM101 0v1042h403v-1042h-403zM560 -385v297h36q62 0 86.5 22t24.5 98v1010h403v-1036q0 -218 -101 -304.5t-354 -86.5h-95z" />
<glyph unicode="&#x134;" horiz-adv-x="1287" d="M507 1630l306 268h312l306 -268h-325l-137 114l-137 -114h-325zM603 -35q-283 0 -428 143.5t-145 397.5h417q0 -210 162 -210q78 0 115 50t37 160v964h415v-964q0 -254 -145.5 -397.5t-427.5 -143.5z" />
<glyph unicode="&#x135;" horiz-adv-x="606" d="M-124 1212l278 258h298l278 -258h-315l-112 114l-112 -114h-315zM-45 -385v297h36q62 0 86.5 22t24.5 98v1010h403v-1036q0 -218 -101 -304.5t-354 -86.5h-95z" />
<glyph unicode="&#x136;" horiz-adv-x="1531" d="M129 0v1470h418v-578l452 578h494l-570 -714l601 -756h-520l-457 574v-574h-418zM989 -96l-175 -242h-267l122 242h320z" />
<glyph unicode="&#x137;" horiz-adv-x="1335" d="M101 0v1470h403v-815l323 387h453l-417 -502l453 -540h-499l-313 366v-366h-403zM872 -96l-176 -242h-267l122 242h321z" />
<glyph unicode="&#x139;" horiz-adv-x="1188" d="M576 1670h-411l229 228h465zM129 0v1470h418v-1134h596v-336h-1014z" />
<glyph unicode="&#x13a;" horiz-adv-x="605" d="M821 1898l-310 -258h-413l260 258h463zM101 0v1470h403v-1470h-403z" />
<glyph unicode="&#x13b;" horiz-adv-x="1188" d="M129 0v1470h418v-1134h596v-336h-1014zM800 -96l-176 -242h-267l122 242h321z" />
<glyph unicode="&#x13c;" horiz-adv-x="605" d="M101 0v1470h403v-1470h-403zM466 -96l-176 -242h-267l122 242h321z" />
<glyph unicode="&#x13d;" horiz-adv-x="1188" d="M698 1670h337v-328h-337v328zM129 0v1470h418v-1134h596v-336h-1014z" />
<glyph unicode="&#x13e;" horiz-adv-x="992" d="M101 0v1470h403v-1470h-403zM654 1470h337v-328h-337v328z" />
<glyph unicode="&#x13f;" horiz-adv-x="1217" d="M129 0v1470h418v-1134h596v-336h-1014zM1108 711h-410v383h410v-383z" />
<glyph unicode="&#x140;" horiz-adv-x="1105" d="M101 0v1470h403v-1470h-403zM1064 544h-410v383h410v-383z" />
<glyph unicode="&#x143;" horiz-adv-x="1568" d="M1022 1670h-411l229 228h465zM129 0v1470h525l405 -949h2l-11 392v557h389v-1470h-530l-401 949h-2l12 -392v-557h-389z" />
<glyph unicode="&#x144;" d="M1164 1470l-310 -258h-413l260 258h463zM101 0v1042h403v-113q112 148 317 148q370 0 370 -419v-658h-403v581q0 101 -35 149.5t-107 48.5t-107 -48.5t-35 -149.5v-581h-403z" />
<glyph unicode="&#x145;" horiz-adv-x="1568" d="M129 0v1470h525l405 -949h2l-11 392v557h389v-1470h-530l-401 949h-2l12 -392v-557h-389zM947 -96l-175 -242h-267l122 242h320z" />
<glyph unicode="&#x146;" d="M101 0v1042h403v-113q112 148 317 148q370 0 370 -419v-658h-403v581q0 101 -35 149.5t-107 48.5t-107 -48.5t-35 -149.5v-581h-403zM809 -96l-176 -242h-267l122 242h321z" />
<glyph unicode="&#x147;" horiz-adv-x="1568" d="M322 1898h325l137 -114l138 114h325l-307 -268h-312zM129 0v1470h525l405 -949h2l-11 392v557h389v-1470h-530l-401 949h-2l12 -392v-557h-389z" />
<glyph unicode="&#x148;" d="M497 1212l-278 258h315l112 -114l112 114h315l-278 -258h-298zM101 0v1042h403v-113q112 148 317 148q370 0 370 -419v-658h-403v581q0 101 -35 149.5t-107 48.5t-107 -48.5t-35 -149.5v-581h-403z" />
<glyph unicode="&#x149;" d="M455 1470l-106 -328h-393l135 328h364zM101 0v1042h403v-113q112 148 317 148q370 0 370 -419v-658h-403v581q0 101 -35 149.5t-107 48.5t-107 -48.5t-35 -149.5v-581h-403z" />
<glyph unicode="&#x14c;" horiz-adv-x="1720" d="M505 1678v220h709v-220h-709zM860 -35q-173 0 -320 54.5t-251.5 153.5t-163 243.5t-58.5 317.5v2q0 231 101 406.5t280.5 269t411.5 93.5t411.5 -93.5t280.5 -269t101 -406.5v-2q0 -173 -58.5 -317.5t-163 -243.5t-251.5 -153.5t-320 -54.5zM860 302q158 0 257.5 113.5 t99.5 318.5v2q0 206 -99 319t-258 113t-258 -113t-99 -319v-2q0 -206 99 -319t258 -113z" />
<glyph unicode="&#x14d;" horiz-adv-x="1315" d="M303 1250v220h709v-220h-709zM657 -35q-272 0 -430.5 153t-158.5 407v2q0 254 158.5 407t430.5 153t431 -153t159 -407v-2q0 -253 -159 -406.5t-431 -153.5zM657 241q88 0 132 73.5t44 210.5v2q0 285 -176 285q-88 0 -131.5 -73.5t-43.5 -211.5v-2q0 -137 43.5 -210.5 t131.5 -73.5z" />
<glyph unicode="&#x14e;" horiz-adv-x="1720" d="M470 1898h249q11 -33 50.5 -55t90.5 -22t90 22t50 55h250q-13 -125 -120 -198.5t-270 -73.5q-164 0 -270.5 73.5t-119.5 198.5zM860 -35q-173 0 -320 54.5t-251.5 153.5t-163 243.5t-58.5 317.5v2q0 231 101 406.5t280.5 269t411.5 93.5t411.5 -93.5t280.5 -269 t101 -406.5v-2q0 -173 -58.5 -317.5t-163 -243.5t-251.5 -153.5t-320 -54.5zM860 302q158 0 257.5 113.5t99.5 318.5v2q0 206 -99 319t-258 113t-258 -113t-99 -319v-2q0 -206 99 -319t258 -113z" />
<glyph unicode="&#x14f;" horiz-adv-x="1315" d="M267 1470h250q11 -33 50 -55t90 -22q52 0 91 22t50 55h250q-14 -125 -121 -198.5t-270 -73.5t-269.5 73.5t-120.5 198.5zM657 -35q-272 0 -430.5 153t-158.5 407v2q0 254 158.5 407t430.5 153t431 -153t159 -407v-2q0 -253 -159 -406.5t-431 -153.5zM657 241 q88 0 132 73.5t44 210.5v2q0 285 -176 285q-88 0 -131.5 -73.5t-43.5 -211.5v-2q0 -137 43.5 -210.5t131.5 -73.5z" />
<glyph unicode="&#x150;" horiz-adv-x="1720" d="M781 1670h-410l228 228h466zM1347 1670h-410l228 228h466zM860 -35q-173 0 -320 54.5t-251.5 153.5t-163 243.5t-58.5 317.5v2q0 231 101 406.5t280.5 269t411.5 93.5t411.5 -93.5t280.5 -269t101 -406.5v-2q0 -173 -58.5 -317.5t-163 -243.5t-251.5 -153.5t-320 -54.5z M860 302q158 0 257.5 113.5t99.5 318.5v2q0 206 -99 319t-258 113t-258 -113t-99 -319v-2q0 -206 99 -319t258 -113z" />
<glyph unicode="&#x151;" horiz-adv-x="1315" d="M839 1470l-267 -258h-362l246 258h383zM1335 1470l-267 -258h-362l246 258h383zM657 -35q-272 0 -430.5 153t-158.5 407v2q0 254 158.5 407t430.5 153t431 -153t159 -407v-2q0 -253 -159 -406.5t-431 -153.5zM657 241q88 0 132 73.5t44 210.5v2q0 285 -176 285 q-88 0 -131.5 -73.5t-43.5 -211.5v-2q0 -137 43.5 -210.5t131.5 -73.5z" />
<glyph unicode="&#x152;" horiz-adv-x="2429" d="M860 -35q-173 0 -320 54.5t-251.5 153.5t-163 243.5t-58.5 317.5v2q0 231 101 406.5t280.5 269t411.5 93.5q194 0 359 -70v35h1093v-336h-675v-229h612v-336h-611q0 -1 -0.5 -3t-0.5 -3v-227h683v-336h-1101v35q-165 -70 -359 -70zM860 302q158 0 257.5 113.5t99.5 318.5 v2q0 206 -99 319t-258 113t-258 -113t-99 -319v-2q0 -206 99 -319t258 -113z" />
<glyph unicode="&#x153;" horiz-adv-x="2073" d="M657 -35q-272 0 -430.5 153t-158.5 407v2q0 254 158.5 407t430.5 153q235 0 387 -115q155 115 374 115q154 0 271.5 -49.5t188.5 -138.5t103.5 -208t24.5 -262v-1h-765q13 -94 64.5 -143.5t128.5 -49.5q61 0 106 23t64 68h389q-42 -159 -190 -260t-378 -101 q-233 0 -385 113q-154 -113 -383 -113zM1241 650h362v1q-5 78 -51.5 129.5t-128.5 51.5q-157 0 -182 -182zM657 241q88 0 132 73.5t44 210.5v2q0 285 -176 285q-88 0 -131.5 -73.5t-43.5 -211.5v-2q0 -137 43.5 -210.5t131.5 -73.5z" />
<glyph unicode="&#x154;" horiz-adv-x="1490" d="M930 1670h-410l229 228h465zM129 0v1470h620q119 0 215.5 -15t178 -49t136.5 -88.5t85.5 -135.5t30.5 -187v-2q0 -318 -305 -426l352 -567h-459l-314 517h-122v-517h-418zM547 846h208q103 0 153.5 35t50.5 112v2q0 76 -50.5 111t-153.5 35h-208v-295z" />
<glyph unicode="&#x155;" horiz-adv-x="863" d="M983 1470l-310 -258h-413l260 258h463zM101 0v1042h394v-213q36 102 120 166.5t194 64.5h19v-381h-85q-117 0 -178 -47.5t-61 -172.5v-459h-403z" />
<glyph unicode="&#x156;" horiz-adv-x="1490" d="M129 0v1470h620q119 0 215.5 -15t178 -49t136.5 -88.5t85.5 -135.5t30.5 -187v-2q0 -318 -305 -426l352 -567h-459l-314 517h-122v-517h-418zM547 846h208q103 0 153.5 35t50.5 112v2q0 76 -50.5 111t-153.5 35h-208v-295zM949 -96l-176 -242h-267l122 242h321z" />
<glyph unicode="&#x157;" horiz-adv-x="863" d="M101 0v1042h394v-213q36 102 120 166.5t194 64.5h19v-381h-85q-117 0 -178 -47.5t-61 -172.5v-459h-403zM465 -96l-176 -242h-267l122 242h321z" />
<glyph unicode="&#x158;" horiz-adv-x="1490" d="M231 1898h325l137 -114l137 114h325l-306 -268h-312zM129 0v1470h620q119 0 215.5 -15t178 -49t136.5 -88.5t85.5 -135.5t30.5 -187v-2q0 -318 -305 -426l352 -567h-459l-314 517h-122v-517h-418zM547 846h208q103 0 153.5 35t50.5 112v2q0 76 -50.5 111t-153.5 35h-208 v-295z" />
<glyph unicode="&#x159;" horiz-adv-x="863" d="M316 1212l-278 258h315l112 -114l112 114h315l-278 -258h-298zM101 0v1042h394v-213q36 102 120 166.5t194 64.5h19v-381h-85q-117 0 -178 -47.5t-61 -172.5v-459h-403z" />
<glyph unicode="&#x15a;" horiz-adv-x="1454" d="M964 1670h-410l229 228h465zM745 -35q-157 0 -281 37t-204.5 104t-128 153.5t-62.5 192.5h425q40 -185 258 -185q101 0 160 35.5t59 98.5v1q0 61 -50 95.5t-160 57.5l-221 43q-216 43 -335 157.5t-119 299.5v2q0 199 173.5 323.5t449.5 124.5q280 0 437.5 -122 t191.5 -340h-424q-40 157 -222 157q-87 0 -140 -32.5t-53 -91.5v-1q0 -105 162 -138l220 -44q249 -49 376 -157t127 -293v-3q0 -222 -174.5 -348.5t-464.5 -126.5z" />
<glyph unicode="&#x15b;" horiz-adv-x="1208" d="M1122 1470l-310 -258h-413l260 258h463zM621 -35q-250 0 -394 96.5t-161 263.5h391q22 -124 162 -124q57 0 92 21.5t35 58.5v1q0 40 -34.5 62.5t-117.5 37.5l-181 34q-170 32 -256 117.5t-86 207.5v2q0 152 140 248t361 96q233 0 368.5 -85t161.5 -252h-388 q-22 103 -134 103q-49 0 -81 -22t-32 -56v-2q0 -36 31 -57t99 -34l174 -32q189 -36 280.5 -116t91.5 -215v-2q0 -158 -141.5 -255t-380.5 -97z" />
<glyph unicode="&#x15c;" horiz-adv-x="1454" d="M265 1630l306 268h312l306 -268h-325l-137 114l-137 -114h-325zM745 -35q-157 0 -281 37t-204.5 104t-128 153.5t-62.5 192.5h425q40 -185 258 -185q101 0 160 35.5t59 98.5v1q0 61 -50 95.5t-160 57.5l-221 43q-216 43 -335 157.5t-119 299.5v2q0 199 173.5 323.5 t449.5 124.5q280 0 437.5 -122t191.5 -340h-424q-40 157 -222 157q-87 0 -140 -32.5t-53 -91.5v-1q0 -105 162 -138l220 -44q249 -49 376 -157t127 -293v-3q0 -222 -174.5 -348.5t-464.5 -126.5z" />
<glyph unicode="&#x15d;" horiz-adv-x="1208" d="M177 1212l278 258h298l278 -258h-315l-112 114l-112 -114h-315zM621 -35q-250 0 -394 96.5t-161 263.5h391q22 -124 162 -124q57 0 92 21.5t35 58.5v1q0 40 -34.5 62.5t-117.5 37.5l-181 34q-170 32 -256 117.5t-86 207.5v2q0 152 140 248t361 96q233 0 368.5 -85 t161.5 -252h-388q-22 103 -134 103q-49 0 -81 -22t-32 -56v-2q0 -36 31 -57t99 -34l174 -32q189 -36 280.5 -116t91.5 -215v-2q0 -158 -141.5 -255t-380.5 -97z" />
<glyph unicode="&#x15e;" horiz-adv-x="1454" d="M745 -35q-157 0 -281 37t-204.5 104t-128 153.5t-62.5 192.5h425q40 -185 258 -185q101 0 160 35.5t59 98.5v1q0 61 -50 95.5t-160 57.5l-221 43q-216 43 -335 157.5t-119 299.5v2q0 199 173.5 323.5t449.5 124.5q280 0 437.5 -122t191.5 -340h-424q-40 157 -222 157 q-87 0 -140 -32.5t-53 -91.5v-1q0 -105 162 -138l220 -44q249 -49 376 -157t127 -293v-3q0 -222 -174.5 -348.5t-464.5 -126.5zM855 -96l-122 -242h-321l176 242h267z" />
<glyph unicode="&#x15f;" horiz-adv-x="1208" d="M621 -35q-250 0 -394 96.5t-161 263.5h391q22 -124 162 -124q57 0 92 21.5t35 58.5v1q0 40 -34.5 62.5t-117.5 37.5l-181 34q-170 32 -256 117.5t-86 207.5v2q0 152 140 248t361 96q233 0 368.5 -85t161.5 -252h-388q-22 103 -134 103q-49 0 -81 -22t-32 -56v-2 q0 -36 31 -57t99 -34l174 -32q189 -36 280.5 -116t91.5 -215v-2q0 -158 -141.5 -255t-380.5 -97zM732 -96l-122 -242h-321l176 242h267z" />
<glyph unicode="&#x160;" horiz-adv-x="1454" d="M265 1898h325l137 -114l137 114h325l-306 -268h-312zM745 -35q-157 0 -281 37t-204.5 104t-128 153.5t-62.5 192.5h425q40 -185 258 -185q101 0 160 35.5t59 98.5v1q0 61 -50 95.5t-160 57.5l-221 43q-216 43 -335 157.5t-119 299.5v2q0 199 173.5 323.5t449.5 124.5 q280 0 437.5 -122t191.5 -340h-424q-40 157 -222 157q-87 0 -140 -32.5t-53 -91.5v-1q0 -105 162 -138l220 -44q249 -49 376 -157t127 -293v-3q0 -222 -174.5 -348.5t-464.5 -126.5z" />
<glyph unicode="&#x161;" horiz-adv-x="1208" d="M455 1212l-278 258h315l112 -114l112 114h315l-278 -258h-298zM621 -35q-250 0 -394 96.5t-161 263.5h391q22 -124 162 -124q57 0 92 21.5t35 58.5v1q0 40 -34.5 62.5t-117.5 37.5l-181 34q-170 32 -256 117.5t-86 207.5v2q0 152 140 248t361 96q233 0 368.5 -85 t161.5 -252h-388q-22 103 -134 103q-49 0 -81 -22t-32 -56v-2q0 -36 31 -57t99 -34l174 -32q189 -36 280.5 -116t91.5 -215v-2q0 -158 -141.5 -255t-380.5 -97z" />
<glyph unicode="&#x162;" horiz-adv-x="1384" d="M483 0v1134h-464v336h1346v-336h-464v-1134h-418zM820 -96l-122 -242h-321l176 242h267z" />
<glyph unicode="&#x163;" horiz-adv-x="866" d="M616 0q-129 0 -214.5 22t-134 69.5t-68 112.5t-19.5 161v374h-143v303h143v290h402v-290h203v-303h-203v-298q0 -82 29 -109.5t97 -27.5h74v-304h-166zM574 -96l-176 -242h-267l122 242h321z" />
<glyph unicode="&#x164;" horiz-adv-x="1384" d="M230 1898h325l138 -114l137 114h325l-306 -268h-313zM483 0v1134h-464v336h1346v-336h-464v-1134h-418z" />
<glyph unicode="&#x165;" horiz-adv-x="1073" d="M717 1670h337v-328h-337v328zM616 0q-129 0 -214.5 22t-134 69.5t-68 112.5t-19.5 161v374h-143v303h143v290h402v-290h203v-303h-203v-298q0 -82 29 -109.5t97 -27.5h74v-304h-166z" />
<glyph unicode="&#x166;" horiz-adv-x="1384" d="M483 0v675h-251v247h251v212h-464v336h1346v-336h-464v-212h252v-247h-252v-675h-418z" />
<glyph unicode="&#x167;" horiz-adv-x="866" d="M616 0q-129 0 -214.5 22t-134 69.5t-68 112.5t-19.5 161v67h-143v179h143v128h-143v303h143v290h402v-290h203v-303h-203v-128h203v-179h-203q1 -76 30.5 -102t95.5 -26h74v-304h-166z" />
<glyph unicode="&#x168;" horiz-adv-x="1535" d="M921 1916h218q0 -122 -61.5 -200t-158.5 -78q-47 0 -98 19t-91.5 38.5t-62.5 19.5q-54 0 -54 -68h-219q0 121 62 199t159 78q38 0 77.5 -12t66.5 -26.5t57 -26.5t50 -12q54 0 55 69zM767 -35q-333 0 -490.5 146t-157.5 470v889h418v-886q0 -143 52.5 -212.5t177.5 -69.5 t178 69.5t53 212.5v886h418v-889q0 -324 -158 -470t-491 -146z" />
<glyph unicode="&#x169;" d="M784 1488h218q0 -121 -62 -199t-159 -78q-46 0 -97 19t-92 38t-63 19q-53 0 -54 -67h-218q0 121 61.5 198.5t158.5 77.5q48 0 98 -19t90 -38t64 -19q53 0 55 68zM455 -33q-370 0 -370 419v656h403v-580q0 -198 142 -198t142 198v580h402v-1042h-402v127 q-106 -160 -317 -160z" />
<glyph unicode="&#x16a;" horiz-adv-x="1535" d="M413 1678v220h709v-220h-709zM767 -35q-333 0 -490.5 146t-157.5 470v889h418v-886q0 -143 52.5 -212.5t177.5 -69.5t178 69.5t53 212.5v886h418v-889q0 -324 -158 -470t-491 -146z" />
<glyph unicode="&#x16b;" d="M275 1250v220h709v-220h-709zM455 -33q-370 0 -370 419v656h403v-580q0 -198 142 -198t142 198v580h402v-1042h-402v127q-106 -160 -317 -160z" />
<glyph unicode="&#x16c;" horiz-adv-x="1535" d="M377 1898h250q11 -33 50 -55t90 -22q52 0 91 22t50 55h250q-14 -125 -121 -198.5t-270 -73.5t-269.5 73.5t-120.5 198.5zM767 -35q-333 0 -490.5 146t-157.5 470v889h418v-886q0 -143 52.5 -212.5t177.5 -69.5t178 69.5t53 212.5v886h418v-889q0 -324 -158 -470 t-491 -146z" />
<glyph unicode="&#x16d;" d="M240 1470h249q11 -33 50.5 -55t90.5 -22t90 22t50 55h250q-13 -125 -120 -198.5t-270 -73.5q-164 0 -270.5 73.5t-119.5 198.5zM455 -33q-370 0 -370 419v656h403v-580q0 -198 142 -198t142 198v580h402v-1042h-402v127q-106 -160 -317 -160z" />
<glyph unicode="&#x16e;" horiz-adv-x="1535" d="M535 1847q0 91 70 161t162 70q94 0 163.5 -69.5t69.5 -161.5q0 -96 -68.5 -165t-164.5 -69q-94 0 -163 69.5t-69 164.5zM687 1847q0 -36 22.5 -58.5t57.5 -22.5t56 21.5t21 59.5q0 33 -21.5 55t-55.5 22q-35 0 -57.5 -22.5t-22.5 -54.5zM767 -35q-333 0 -490.5 146 t-157.5 470v889h418v-886q0 -143 52.5 -212.5t177.5 -69.5t178 69.5t53 212.5v886h418v-889q0 -324 -158 -470t-491 -146z" />
<glyph unicode="&#x16f;" d="M397 1422q0 91 70.5 161t162.5 70q94 0 163 -69.5t69 -161.5q0 -96 -68 -165t-164 -69q-95 0 -164 69.5t-69 164.5zM549 1422q0 -36 22.5 -58.5t57.5 -22.5q36 0 56.5 21.5t20.5 59.5q0 34 -21 55.5t-56 21.5q-34 0 -57 -22.5t-23 -54.5zM455 -33q-370 0 -370 419v656 h403v-580q0 -198 142 -198t142 198v580h402v-1042h-402v127q-106 -160 -317 -160z" />
<glyph unicode="&#x170;" horiz-adv-x="1535" d="M689 1670h-411l229 228h465zM1255 1670h-411l229 228h465zM767 -35q-333 0 -490.5 146t-157.5 470v889h418v-886q0 -143 52.5 -212.5t177.5 -69.5t178 69.5t53 212.5v886h418v-889q0 -324 -158 -470t-491 -146z" />
<glyph unicode="&#x171;" d="M811 1470l-266 -258h-363l246 258h383zM1307 1470l-266 -258h-363l246 258h383zM455 -33q-370 0 -370 419v656h403v-580q0 -198 142 -198t142 198v580h402v-1042h-402v127q-106 -160 -317 -160z" />
<glyph unicode="&#x172;" horiz-adv-x="1535" d="M958 -174l87 -155q-88 -60 -225 -60q-130 0 -211 56t-81 147q0 82 72 162q-246 33 -363.5 178.5t-117.5 426.5v889h418v-886q0 -143 52.5 -212.5t177.5 -69.5t178 69.5t53 212.5v886h418v-889q0 -297 -132.5 -444t-411.5 -168q-39 -41 -39 -89q0 -31 18.5 -48.5 t49.5 -17.5q25 0 57 12z" />
<glyph unicode="&#x173;" d="M455 -33q-370 0 -370 419v656h403v-580q0 -198 142 -198t142 198v580h402v-1042h-58q-35 -21 -56.5 -54t-21.5 -66q0 -31 18.5 -48.5t50.5 -17.5q26 0 56 12l88 -155q-88 -60 -226 -60q-130 0 -211 56t-81 147q0 97 97 186h-58v127q-106 -160 -317 -160z" />
<glyph unicode="&#x174;" horiz-adv-x="2091" d="M584 1630l306 268h312l306 -268h-325l-137 114l-137 -114h-325zM344 0l-299 1470h424l165 -1056h2l189 1056h441l185 -1056h2l168 1056h426l-299 -1470h-504l-198 1108h-2l-197 -1108h-503z" />
<glyph unicode="&#x175;" horiz-adv-x="1849" d="M498 1212l278 258h298l279 -258h-316l-112 114l-112 -114h-315zM326 0l-294 1042h393l161 -659l163 659h352l166 -660l163 660h388l-293 -1042h-427l-175 679l-170 -679h-427z" />
<glyph unicode="&#x176;" horiz-adv-x="1667" d="M372 1630l306 268h312l306 -268h-325l-137 114l-137 -114h-325zM626 0v562l-591 908h451l246 -400l103 -165h1l344 565h452l-588 -908v-562h-418z" />
<glyph unicode="&#x177;" horiz-adv-x="1305" d="M226 1212l278 258h298l278 -258h-315l-112 114l-112 -114h-315zM236 -385l172 383l-389 1044h409l216 -642h2l260 642h380l-646 -1427h-404z" />
<glyph unicode="&#x178;" horiz-adv-x="1667" d="M734 1659h-303v240h303v-240zM1236 1659h-303v240h303v-240zM626 0v562l-591 908h451l246 -400l103 -165h1l344 565h452l-588 -908v-562h-418z" />
<glyph unicode="&#x179;" horiz-adv-x="1371" d="M969 1670h-411l229 228h465zM85 0v322l663 812h-635v336h1155v-321l-665 -813h683v-336h-1201z" />
<glyph unicode="&#x17a;" horiz-adv-x="1147" d="M1115 1470l-310 -258h-414l260 258h464zM68 0v295l536 444h-526v303h978v-294l-545 -444h568v-304h-1011z" />
<glyph unicode="&#x17b;" horiz-adv-x="1371" d="M883 1658h-303v240h303v-240zM85 0v322l663 812h-635v336h1155v-321l-665 -813h683v-336h-1201z" />
<glyph unicode="&#x17c;" horiz-adv-x="1147" d="M739 1224h-286v246h286v-246zM68 0v295l536 444h-526v303h978v-294l-545 -444h568v-304h-1011z" />
<glyph unicode="&#x17d;" horiz-adv-x="1371" d="M269 1898h325l137 -114l138 114h325l-307 -268h-312zM85 0v322l663 812h-635v336h1155v-321l-665 -813h683v-336h-1201z" />
<glyph unicode="&#x17e;" horiz-adv-x="1147" d="M447 1212l-278 258h315l112 -114l113 114h315l-279 -258h-298zM68 0v295l536 444h-526v303h978v-294l-545 -444h568v-304h-1011z" />
<glyph unicode="&#x218;" horiz-adv-x="1454" d="M745 -35q-157 0 -281 37t-204.5 104t-128 153.5t-62.5 192.5h425q40 -185 258 -185q101 0 160 35.5t59 98.5v1q0 61 -50 95.5t-160 57.5l-221 43q-216 43 -335 157.5t-119 299.5v2q0 199 173.5 323.5t449.5 124.5q280 0 437.5 -122t191.5 -340h-424q-40 157 -222 157 q-87 0 -140 -32.5t-53 -91.5v-1q0 -105 162 -138l220 -44q249 -49 376 -157t127 -293v-3q0 -222 -174.5 -348.5t-464.5 -126.5zM890 -96l-176 -242h-267l122 242h321z" />
<glyph unicode="&#x219;" horiz-adv-x="1208" d="M621 -35q-250 0 -394 96.5t-161 263.5h391q22 -124 162 -124q57 0 92 21.5t35 58.5v1q0 40 -34.5 62.5t-117.5 37.5l-181 34q-170 32 -256 117.5t-86 207.5v2q0 152 140 248t361 96q233 0 368.5 -85t161.5 -252h-388q-22 103 -134 103q-49 0 -81 -22t-32 -56v-2 q0 -36 31 -57t99 -34l174 -32q189 -36 280.5 -116t91.5 -215v-2q0 -158 -141.5 -255t-380.5 -97zM767 -96l-175 -242h-267l122 242h320z" />
<glyph unicode="&#x21a;" horiz-adv-x="1384" d="M483 0v1134h-464v336h1346v-336h-464v-1134h-418zM855 -96l-175 -242h-267l122 242h320z" />
<glyph unicode="&#x21b;" horiz-adv-x="866" d="M616 0q-129 0 -214.5 22t-134 69.5t-68 112.5t-19.5 161v374h-143v303h143v290h402v-290h203v-303h-203v-298q0 -82 29 -109.5t97 -27.5h74v-304h-166zM574 -96l-176 -242h-267l122 242h321z" />
<glyph unicode="&#x2c6;" horiz-adv-x="955" d="M50 1212l278 258h298l279 -258h-315l-113 114l-112 -114h-315z" />
<glyph unicode="&#x2da;" horiz-adv-x="565" d="M50 1422q0 91 70.5 161t162.5 70q93 0 162.5 -69.5t69.5 -161.5q0 -96 -68 -165t-164 -69q-95 0 -164 69.5t-69 164.5zM202 1422q0 -36 22.5 -58.5t57.5 -22.5t56 21.5t21 59.5q0 33 -21.5 55t-55.5 22q-35 0 -57.5 -22.5t-22.5 -54.5z" />
<glyph unicode="&#x2dc;" horiz-adv-x="845" d="M577 1488h218q0 -121 -62 -199t-159 -78q-46 0 -97 19t-91.5 38t-62.5 19q-54 0 -55 -67h-218q0 121 62 198.5t159 77.5q48 0 97.5 -19t89.5 -38t64 -19q53 0 55 68z" />
<glyph unicode="&#x2000;" horiz-adv-x="1039" />
<glyph unicode="&#x2001;" horiz-adv-x="2078" />
<glyph unicode="&#x2002;" horiz-adv-x="1039" />
<glyph unicode="&#x2003;" horiz-adv-x="2078" />
<glyph unicode="&#x2004;" horiz-adv-x="692" />
<glyph unicode="&#x2005;" horiz-adv-x="519" />
<glyph unicode="&#x2006;" horiz-adv-x="346" />
<glyph unicode="&#x2007;" horiz-adv-x="346" />
<glyph unicode="&#x2008;" horiz-adv-x="259" />
<glyph unicode="&#x2009;" horiz-adv-x="415" />
<glyph unicode="&#x200a;" horiz-adv-x="115" />
<glyph unicode="&#x2010;" horiz-adv-x="879" d="M100 351v340h680v-340h-680z" />
<glyph unicode="&#x2011;" horiz-adv-x="879" d="M100 351v340h680v-340h-680z" />
<glyph unicode="&#x2012;" horiz-adv-x="879" d="M100 351v340h680v-340h-680z" />
<glyph unicode="&#x2013;" horiz-adv-x="1283" d="M100 351v340h1083v-340h-1083z" />
<glyph unicode="&#x2014;" horiz-adv-x="2083" d="M100 351v340h1883v-340h-1883z" />
<glyph unicode="&#x2018;" horiz-adv-x="693" d="M633 1470l-144 -600h-411l194 600h361z" />
<glyph unicode="&#x2019;" horiz-adv-x="693" d="M60 870l144 600h411l-194 -600h-361z" />
<glyph unicode="&#x201a;" horiz-adv-x="693" d="M60 -217l144 600h411l-194 -600h-361z" />
<glyph unicode="&#x201c;" horiz-adv-x="1208" d="M633 1470l-144 -600h-411l194 600h361zM1148 1470l-144 -600h-411l194 600h361z" />
<glyph unicode="&#x201d;" horiz-adv-x="1208" d="M575 870l144 600h411l-194 -600h-361zM60 870l144 600h411l-194 -600h-361z" />
<glyph unicode="&#x201e;" horiz-adv-x="1208" d="M60 -217l144 600h411l-194 -600h-361zM575 -217l144 600h411l-194 -600h-361z" />
<glyph unicode="&#x2026;" horiz-adv-x="1940" d="M1176 0h-410v383h410v-383zM1823 0h-411v383h411v-383zM529 0h-411v383h411v-383z" />
<glyph unicode="&#x202f;" horiz-adv-x="415" />
<glyph unicode="&#x2039;" horiz-adv-x="831" d="M305 192l-236 373l236 372h416l-229 -372l229 -373h-416z" />
<glyph unicode="&#x203a;" horiz-adv-x="831" d="M761 565l-236 -373h-415l229 373l-229 372h415z" />
<glyph unicode="&#x205f;" horiz-adv-x="519" />
<glyph unicode="&#x20ac;" horiz-adv-x="1774" d="M1002 -35q-270 0 -456 137.5t-248 390.5h-284l91 191h167q-1 16 -1 48v6q0 25 1 37h-258l91 191h191q59 257 246.5 398t459.5 141q280 0 463.5 -142.5t227.5 -413.5h-422q-52 220 -271 220q-90 0 -157.5 -50.5t-102.5 -152.5h364l-91 -191h-305v-36v-7q0 -33 1 -48h395 l-91 -191h-269q36 -96 102.5 -143.5t153.5 -47.5q219 0 271 219h422q-44 -271 -227.5 -413.5t-463.5 -142.5z" />
<glyph unicode="&#x25fc;" horiz-adv-x="1040" d="M0 1040h1040v-1040h-1040v1040z" />
</font>
</defs>
</svg>
