<?xml version="1.0" standalone="no"?>
<!DOCTYPE svg PUBLIC "-//W3C//DTD SVG 1.1//EN" "http://www.w3.org/Graphics/SVG/1.1/DTD/svg11.dtd" >
<svg xmlns="http://www.w3.org/2000/svg" xmlns:xlink="http://www.w3.org/1999/xlink" version="1.1">
<metadata></metadata>
<defs>
<font id="antarctica_betaextra_light" horiz-adv-x="1178" >
<font-face units-per-em="2000" ascent="1600" descent="-400" />
<missing-glyph horiz-adv-x="462" />
<glyph horiz-adv-x="1000" />
<glyph horiz-adv-x="1000" />
<glyph unicode="&#xd;" horiz-adv-x="0" />
<glyph unicode=" "  horiz-adv-x="462" />
<glyph unicode="&#x09;" horiz-adv-x="462" />
<glyph unicode="&#xa0;" horiz-adv-x="462" />
<glyph unicode="!" horiz-adv-x="562" d="M237 403l-15 566l1 501h116l-1 -501l-15 -566h-86zM340 0h-119v216h119v-216z" />
<glyph unicode="&#x22;" horiz-adv-x="609" d="M394 1470h115v-78l-13 -378h-90l-12 378v78zM100 1470h115v-78l-13 -378h-89l-13 378v78z" />
<glyph unicode="#" horiz-adv-x="1453" d="M187 954l12 93h269l55 423h96l-55 -423h396l55 423h97l-56 -423h278l-13 -93h-277l-55 -427h277l-12 -93h-278l-56 -434h-96l57 434h-397l-57 -434h-95l56 434h-270l12 93h270l56 427h-269zM496 527h397l55 427h-396z" />
<glyph unicode="$" horiz-adv-x="1286" d="M590 -246v225q-202 18 -328.5 132t-158.5 315h120q34 -180 148.5 -268t299.5 -88q81 0 151 17.5t126.5 52.5t89 94t32.5 136v2q0 59 -19.5 105.5t-51 78.5t-81 57.5t-98.5 41.5t-115 31l-188 44q-375 86 -375 388v3q0 162 128 262.5t320 110.5v222h100v-224 q187 -15 303 -117t149 -282h-120q-71 307 -401 307q-149 0 -254.5 -74t-105.5 -202v-2q0 -220 283 -286l189 -44q77 -18 137.5 -38t122.5 -53.5t102.5 -75t66.5 -103t26 -136.5v-2q0 -190 -137.5 -296.5t-360.5 -111.5v-222h-100z" />
<glyph unicode="%" horiz-adv-x="1867" d="M459 663q-154 0 -243 110t-89 305v2q0 194 89 304.5t243 110.5t243.5 -110.5t89.5 -304.5v-2q0 -195 -89 -305t-244 -110zM562 0l633 1470h108l-633 -1470h-108zM459 743q109 0 172.5 84.5t63.5 250.5v2q0 165 -63.5 249.5t-172.5 84.5t-172 -84.5t-63 -249.5v-2 q0 -166 63 -250.5t172 -84.5zM1408 -25q-154 0 -243 110.5t-89 304.5v2q0 195 88.5 305t243.5 110t244 -110t89 -305v-2q0 -194 -89.5 -304.5t-243.5 -110.5zM1408 57q109 0 172 84t63 249v2q0 166 -63 250.5t-172 84.5t-172 -84.5t-63 -250.5v-2q0 -165 63 -249t172 -84z " />
<glyph unicode="&#x26;" horiz-adv-x="1494" d="M1302 0l-214 225q-111 -126 -233.5 -188t-277.5 -62q-205 0 -332 109.5t-127 288.5v2q0 149 99 259.5t296 194.5q-90 99 -138 183.5t-48 178.5v2q0 133 94.5 217.5t244.5 84.5q153 0 248.5 -81.5t95.5 -215.5v-3q0 -124 -81.5 -218.5t-248.5 -170.5l11 -11l397 -417 q119 158 211 344h116q-97 -201 -259 -414l293 -308h-147zM615 874q147 63 214.5 139.5t67.5 178.5v3q0 95 -66 153.5t-165 58.5q-97 0 -162 -57t-65 -157v-3q0 -76 45.5 -150t130.5 -166zM1022 294l-432 453q-2 3 -6.5 7t-6.5 7q-174 -71 -259 -165t-85 -220v-2 q0 -135 100 -221.5t254 -86.5q126 0 231 57t204 171z" />
<glyph unicode="'" horiz-adv-x="315" d="M100 1470h115v-78l-13 -378h-89l-13 378v78z" />
<glyph unicode="(" horiz-adv-x="503" d="M453 1529q-117 -186 -184 -431t-67 -486q0 -240 67 -485t184 -431h-99q-110 161 -182 418t-72 498t72 499t182 418h99z" />
<glyph unicode=")" horiz-adv-x="503" d="M50 1529h99q110 -161 182 -418.5t72 -498.5q0 -240 -72 -497.5t-182 -418.5h-99q116 186 183.5 431t67.5 485t-67.5 485.5t-183.5 431.5z" />
<glyph unicode="*" horiz-adv-x="759" d="M247 938l-65 48l131 182l-213 69l25 78l213 -70v225h82v-225l213 70l26 -77l-214 -70l132 -182l-66 -48l-131 181z" />
<glyph unicode="+" horiz-adv-x="1245" d="M572 785v473h98v-473h475v-99h-475v-474h-98v474h-472v99h472z" />
<glyph unicode="," horiz-adv-x="473" d="M100 -227l135 443h119l-154 -443h-100z" />
<glyph unicode="-" horiz-adv-x="779" d="M100 472v98h579v-98h-579z" />
<glyph unicode="." horiz-adv-x="509" d="M314 0h-119v216h119v-216z" />
<glyph unicode="/" horiz-adv-x="961" d="M120 -206l611 1676h110l-611 -1676h-110z" />
<glyph unicode="0" horiz-adv-x="1369" d="M684 -25q-181 0 -308 97t-188.5 266t-61.5 396v2q0 227 61.5 396t188.5 266t308 97t308.5 -97t188.5 -265.5t61 -396.5v-2q0 -228 -61 -396.5t-188.5 -265.5t-308.5 -97zM684 74q210 0 323.5 173.5t113.5 486.5v2q0 313 -113.5 486.5t-323.5 173.5q-209 0 -323 -174 t-114 -486v-2q0 -312 114 -486t323 -174z" />
<glyph unicode="1" horiz-adv-x="827" d="M407 0v1182h-321v101h145q39 0 62 1.5t46 8.5t35.5 18.5t24.5 33.5t19.5 52.5t14.5 75.5h89v-1473h-115z" />
<glyph unicode="2" horiz-adv-x="1264" d="M122 0v39q0 92 24 173t63.5 142.5t100 119t122.5 99.5t142 86l121 67q145 82 215.5 168t70.5 210v2q0 135 -94.5 213t-241.5 78q-72 0 -133 -17.5t-113 -56t-84 -107.5t-38 -163h-117q12 215 144 328.5t343 113.5q128 0 229.5 -42.5t163.5 -131t62 -210.5v-1 q0 -106 -43 -192.5t-116.5 -150.5t-188.5 -127l-117 -65q-86 -48 -148 -92t-119 -102.5t-86.5 -128.5t-29.5 -152h882v-100h-1014z" />
<glyph unicode="3" horiz-adv-x="1288" d="M655 -25q-227 0 -370.5 112.5t-171.5 314.5h120q27 -164 139 -246.5t283 -82.5q173 0 280 85.5t107 239.5v2q0 151 -118.5 234t-312.5 83h-89v94h90q184 0 284 85.5t100 216.5v1q0 133 -94 208t-250 75q-155 0 -247.5 -79.5t-112.5 -235.5h-120q23 196 149 304.5 t336 108.5q206 0 330.5 -98.5t124.5 -271.5v-2q0 -134 -80 -228t-205 -124v-2q69 -15 127.5 -44t106 -73.5t74.5 -109.5t27 -145v-2q0 -197 -141 -308.5t-366 -111.5z" />
<glyph unicode="4" horiz-adv-x="1339" d="M875 0v381h-812v102l812 987h115v-987h286v-102h-286v-381h-115zM182 483h693v847h-2z" />
<glyph unicode="5" horiz-adv-x="1273" d="M637 -25q-215 0 -349 109t-162 311h120q27 -161 128.5 -241.5t261.5 -80.5q165 0 277.5 106t112.5 283v2q0 176 -107 286.5t-273 110.5q-124 0 -218 -53t-144 -144l-108 21l103 785h796v-100h-699l-77 -575q136 163 372 163q208 0 342 -137.5t134 -355.5v-2 q0 -146 -69 -258.5t-184.5 -171t-256.5 -58.5z" />
<glyph unicode="6" horiz-adv-x="1288" d="M653 -25q-242 0 -384.5 162.5t-142.5 467.5v4q0 425 145.5 655.5t415.5 230.5q187 0 300.5 -98t139.5 -253h-114q-26 123 -113 188t-220 65q-202 0 -315 -182.5t-120 -532.5q49 125 162 201t269 76q208 0 346.5 -139.5t138.5 -353.5v-2q0 -211 -143 -350t-365 -139z M652 73q169 0 279.5 108t110.5 283v2q0 175 -111 285.5t-279 110.5q-167 0 -279.5 -111t-112.5 -285v-2q0 -173 109 -282t283 -109z" />
<glyph unicode="7" horiz-adv-x="1122" d="M326 0q11 326 85 581.5t202.5 443.5t323.5 345h-879v100h1006v-100q-306 -239 -455.5 -561.5t-165.5 -808.5h-117z" />
<glyph unicode="8" horiz-adv-x="1290" d="M645 -25q-235 0 -377 114.5t-142 306.5v2q0 81 27.5 148t74.5 112t100.5 74t113.5 45v2q-118 36 -193.5 123.5t-75.5 216.5v2q0 166 131.5 270t340.5 104t340.5 -104t131.5 -270v-2q0 -129 -75.5 -216.5t-193.5 -123.5v-2q60 -16 113.5 -45t100 -74t74 -112t27.5 -148v-2 q0 -192 -142 -306.5t-376 -114.5zM645 821q151 0 251.5 77.5t100.5 209.5v1q0 133 -100.5 210.5t-251.5 77.5q-152 0 -252.5 -77.5t-100.5 -210.5v-1q0 -132 100.5 -209.5t252.5 -77.5zM645 73q179 0 288.5 87.5t109.5 237.5v1q0 151 -109 238t-289 87t-289 -87t-109 -238 v-1q0 -151 109 -238t289 -87z" />
<glyph unicode="9" horiz-adv-x="1288" d="M635 1495q242 0 384.5 -162.5t142.5 -467.5v-4q0 -425 -145.5 -655.5t-415.5 -230.5q-187 0 -300.5 98t-139.5 253h114q26 -123 113 -188t220 -65q202 0 315 182.5t120 532.5q-49 -125 -162 -201t-269 -76q-208 0 -346.5 139.5t-138.5 353.5v2q0 211 143 350t365 139z M636 1397q-169 0 -279.5 -108t-110.5 -283v-2q0 -175 111 -285.5t279 -110.5q167 0 279.5 111t112.5 285v2q0 173 -109 282t-283 109z" />
<glyph unicode=":" horiz-adv-x="509" d="M314 826h-119v216h119v-216zM314 0h-119v216h119v-216z" />
<glyph unicode=";" horiz-adv-x="540" d="M345 826h-119v216h119v-216zM100 -227l135 443h119l-154 -443h-100z" />
<glyph unicode="&#x3c;" horiz-adv-x="1019" d="M100 779l819 431v-112l-698 -365v-2l698 -365v-112l-819 430v95z" />
<glyph unicode="=" horiz-adv-x="1245" d="M100 876v98h1045v-98h-1045zM100 501v98h1045v-98h-1045z" />
<glyph unicode="&#x3e;" horiz-adv-x="1019" d="M100 1210l820 -431v-95l-820 -430v112l699 365v2l-699 365v112z" />
<glyph unicode="?" horiz-adv-x="1051" d="M508 1401q-145 0 -237.5 -88.5t-92.5 -230.5h-118q2 183 126 298t322 115q207 0 326 -100.5t119 -270.5v-1q0 -192 -173 -343l-72 -64q-93 -81 -127 -144.5t-34 -168.5h-107q0 129 35 202.5t135 161.5l74 65q76 69 111.5 135t35.5 152v1q0 129 -86.5 205t-236.5 76z M553 0h-119v216h119v-216z" />
<glyph unicode="@" horiz-adv-x="1754" d="M755 240q-132 0 -216.5 91.5t-84.5 260.5v2q0 91 29.5 178t82.5 155.5t134.5 110.5t176.5 42q106 0 175.5 -56.5t88.5 -155.5l26 175h76l-73 -500q-35 -237 129 -237q107 0 186 119.5t78 318.5v2q0 184 -83.5 316.5t-227.5 198t-333 65.5q-157 0 -292.5 -56.5 t-230 -153.5t-148 -230.5t-53.5 -283.5v-2q-1 -186 80.5 -331t230.5 -225.5t342 -80.5q227 0 412 91l29 -72q-91 -45 -209.5 -70.5t-231.5 -25.5q-218 0 -386 91t-260 254t-92 372v2q0 167 62.5 315t170 253t257.5 166t320 61q155 0 285.5 -40.5t229 -119.5t154 -204.5 t55.5 -285.5v-2q0 -121 -30 -221.5t-80.5 -164t-113 -98t-129.5 -34.5q-99 0 -149 65.5t-45 172.5q-43 -94 -131 -161t-211 -67zM777 316q100 0 178 63.5t116.5 159t38.5 201.5v2q0 122 -60 191t-170 69q-100 0 -178.5 -60.5t-118 -153t-39.5 -197.5v-2q0 -128 63 -200.5 t170 -72.5z" />
<glyph unicode="A" horiz-adv-x="1370" d="M45 0l577 1477h125l578 -1477h-121l-179 464h-687l-178 -464h-115zM377 564h610l-304 789h-3z" />
<glyph unicode="B" horiz-adv-x="1365" d="M204 0v1470h503q211 0 331 -97t120 -272v-1q0 -128 -68.5 -213t-182.5 -118v-2q149 -27 241.5 -116.5t92.5 -246.5v-2q0 -200 -135 -301t-369 -101h-533zM320 802h381q153 0 246.5 74.5t93.5 211.5v1q0 137 -93 211t-247 74h-381v-572zM320 96h416q190 0 287 80t97 230v1 q0 142 -98 220.5t-286 78.5h-416v-610z" />
<glyph unicode="C" horiz-adv-x="1578" d="M822 -25q-158 0 -292 57t-226.5 157.5t-144 241t-51.5 303.5v2q0 163 51.5 303.5t144 241t226.5 157.5t292 57q248 0 419 -122t229 -342h-120q-51 175 -194.5 269t-334.5 94q-176 0 -311.5 -84.5t-207.5 -234t-72 -339.5v-2q0 -190 72 -339.5t207.5 -234t311.5 -84.5 q191 0 334.5 94t194.5 269h120q-58 -220 -229 -342t-419 -122z" />
<glyph unicode="D" horiz-adv-x="1487" d="M204 0v1470h371q173 0 317.5 -45.5t254 -134t171 -231t61.5 -325.5v-2q0 -182 -61.5 -323.5t-171 -229.5t-254 -133.5t-317.5 -45.5h-371zM320 99h254q112 0 211.5 21.5t187 70.5t150 121.5t99 179.5t36.5 240v2q0 133 -36.5 241t-99 181t-150 122t-187 71t-211.5 22 h-254v-1272z" />
<glyph unicode="E" horiz-adv-x="1237" d="M204 0v1470h915v-100h-799v-572h739v-101h-739v-597h801v-100h-917z" />
<glyph unicode="F" horiz-adv-x="1174" d="M204 0v1470h915v-100h-799v-572h737v-101h-737v-697h-116z" />
<glyph unicode="G" horiz-adv-x="1680" d="M819 -25q-157 0 -290.5 57t-225.5 157.5t-143.5 241t-51.5 303.5v2q0 163 51.5 303.5t144 241t226.5 157.5t292 57q246 0 417.5 -118.5t230.5 -331.5h-120q-52 167 -194.5 258t-332.5 91q-177 0 -312.5 -84.5t-208 -234t-72.5 -339.5v-2q0 -191 72.5 -340t208 -234 t312.5 -85q108 0 203.5 30t170.5 87.5t119 151.5t44 212v86h-524v97h634v-739h-96l-2 300q-56 -146 -200 -235.5t-353 -89.5z" />
<glyph unicode="H" horiz-adv-x="1508" d="M204 0v1470h116v-673h869v673h115v-1470h-115v694h-869v-694h-116z" />
<glyph unicode="I" horiz-adv-x="525" d="M204 0v1470h116v-1470h-116z" />
<glyph unicode="J" horiz-adv-x="1108" d="M490 -25q-89 0 -164.5 24.5t-134.5 75t-93.5 134t-37.5 194.5h119q4 -171 89 -250.5t222 -79.5q66 0 120.5 18.5t97.5 58t67 108t24 161.5v1051h115v-1051q0 -92 -22 -167t-60.5 -126t-92.5 -85.5t-116 -50t-133 -15.5z" />
<glyph unicode="K" horiz-adv-x="1344" d="M204 0v1470h116v-685l824 685h152l-863 -725l877 -745h-167l-823 692v-692h-116z" />
<glyph unicode="L" horiz-adv-x="1135" d="M204 0v1470h116v-1370h765v-100h-881z" />
<glyph unicode="M" horiz-adv-x="1838" d="M204 0v1470h181l533 -1349h2l533 1349h180v-1470h-111v884l1 467h-2l-539 -1356h-126l-539 1356h-2l1 -467v-884h-112z" />
<glyph unicode="N" horiz-adv-x="1508" d="M204 0v1470h149l838 -1320h2l-1 736v584h112v-1470h-149l-838 1321h-2l1 -737v-584h-112z" />
<glyph unicode="O" horiz-adv-x="1650" d="M825 -25q-211 0 -375 98t-253 270.5t-89 390.5v2q0 218 89 390.5t253 270.5t375 98t375 -98t253 -270.5t89 -390.5v-2q0 -218 -89 -390.5t-253 -270.5t-375 -98zM825 76q177 0 313 84.5t209.5 234t73.5 339.5v2q0 190 -73.5 339.5t-209.5 234t-313 84.5 q-267 0 -431 -184.5t-164 -473.5v-2q0 -289 164 -473.5t431 -184.5z" />
<glyph unicode="P" horiz-adv-x="1268" d="M204 0v1470h454q267 0 408.5 -104.5t141.5 -312.5v-2q0 -207 -142 -311t-408 -104h-338v-636h-116zM320 736h334q432 0 432 315v2q0 318 -432 318h-334v-635z" />
<glyph unicode="Q" horiz-adv-x="1650" d="M825 -25q-211 0 -375 98t-253 270.5t-89 390.5v2q0 218 89 390.5t253 270.5t375 98t375 -98t253 -270.5t89 -390.5v-2q0 -213 -86 -383.5t-240 -267.5l353 -299h-151l-295 250q-138 -59 -298 -59zM825 76q177 0 313 84.5t209.5 234t73.5 339.5v2q0 190 -73.5 339.5 t-209.5 234t-313 84.5q-267 0 -431 -184.5t-164 -473.5v-2q0 -289 164 -473.5t431 -184.5z" />
<glyph unicode="R" horiz-adv-x="1357" d="M204 0v1470h449q549 0 549 -407v-2q0 -182 -111 -281.5t-321 -120.5l509 -659h-136l-503 653h-320v-653h-116zM320 753h332q100 0 176.5 16t134.5 51t88 95.5t30 145.5v2q0 165 -111.5 236.5t-317.5 71.5h-332v-618z" />
<glyph unicode="S" horiz-adv-x="1286" d="M667 -25q-234 0 -381.5 115.5t-182.5 335.5h120q34 -180 148.5 -268t299.5 -88q81 0 151 17.5t126.5 52.5t89 94t32.5 136v2q0 59 -19.5 105.5t-51 78.5t-81 57.5t-98.5 41.5t-115 31l-188 44q-375 86 -375 388v3q0 114 67 200.5t176.5 130t241.5 43.5 q213 0 346.5 -103.5t168.5 -298.5h-120q-71 307 -401 307q-149 0 -254.5 -74t-105.5 -202v-2q0 -220 283 -286l189 -44q77 -18 137.5 -38t122.5 -53.5t102.5 -75t66.5 -103t26 -136.5v-2q0 -195 -145 -302t-376 -107z" />
<glyph unicode="T" horiz-adv-x="1265" d="M575 0v1370h-543v100h1201v-100h-543v-1370h-115z" />
<glyph unicode="U" horiz-adv-x="1477" d="M738 -25q-275 0 -411.5 140.5t-136.5 447.5v907h115v-907q0 -256 106 -371.5t327 -115.5t327.5 115.5t106.5 371.5v907h116v-907q0 -307 -137 -447.5t-413 -140.5z" />
<glyph unicode="V" horiz-adv-x="1430" d="M653 -7l-605 1477h124l546 -1344l547 1344h117l-604 -1477h-125z" />
<glyph unicode="W" horiz-adv-x="1934" d="M474 -7l-413 1477h119l369 -1328l349 1333h139l350 -1332l367 1327h119l-411 -1477h-139l-356 1349l-353 -1349h-140z" />
<glyph unicode="X" horiz-adv-x="1424" d="M77 0l570 744l-532 726h141l460 -632l460 632h131l-530 -720l571 -750h-141l-498 656l-501 -656h-131z" />
<glyph unicode="Y" horiz-adv-x="1332" d="M609 0v642l-571 828h132l433 -632l64 -95h2l62 95l431 632h132l-569 -828v-642h-116z" />
<glyph unicode="Z" horiz-adv-x="1255" d="M90 0v97l913 1273h-855v100h996v-97l-914 -1273h936v-100h-1076z" />
<glyph unicode="[" horiz-adv-x="670" d="M100 -304v1834h469v-88h-367v-1658h367v-88h-469z" />
<glyph unicode="\" horiz-adv-x="961" d="M230 1470l611 -1676h-110l-611 1676h110z" />
<glyph unicode="]" horiz-adv-x="670" d="M570 1530v-1834h-470v88h367v1658h-367v88h470z" />
<glyph unicode="_" horiz-adv-x="1044" d="M50 -245v98h944v-98h-944z" />
<glyph unicode="`" horiz-adv-x="512" d="M337 1212l-287 258h149l262 -258h-124z" />
<glyph unicode="a" horiz-adv-x="1126" d="M459 -25q-152 0 -257 79t-105 213v2q0 64 23.5 114.5t71 87.5t110.5 64.5t151.5 46t184 30t216.5 19.5v41q0 304 -289 304q-138 0 -216.5 -67t-83.5 -181h-113q11 153 122.5 244t292.5 91q194 0 296 -96t101 -308l-1 -298q-1 -230 20 -361h-107q-10 77 -12 193 q-116 -218 -405 -218zM855 546q-334 -20 -488 -80t-154 -194v-2q0 -97 77.5 -152.5t198.5 -55.5q73 0 137 21.5t116 65t82.5 118t30.5 172.5v107z" />
<glyph unicode="b" horiz-adv-x="1256" d="M679 -25q-137 0 -239 66t-150 174v-215h-111v1470h111v-647q48 108 150 174t239 66q93 0 177 -37t148.5 -104.5t102.5 -171.5t38 -230v-2q0 -126 -38 -230t-102.5 -171.5t-148.5 -104.5t-177 -37zM656 69q161 0 266.5 119.5t105.5 329.5v2q0 210 -105.5 329.5 t-266.5 119.5q-157 0 -263.5 -121t-106.5 -328v-2q0 -207 106.5 -328t263.5 -121z" />
<glyph unicode="c" horiz-adv-x="1189" d="M612 -25q-220 0 -360.5 149t-140.5 394v2q0 245 140.5 394t360.5 149q184 0 307.5 -93t161.5 -250h-113q-34 117 -127.5 183.5t-228.5 66.5q-164 0 -274 -121t-110 -329v-2q0 -207 110 -328t274 -121q135 0 228.5 66.5t127.5 183.5h113q-38 -158 -161.5 -251t-307.5 -93z " />
<glyph unicode="d" horiz-adv-x="1256" d="M577 -25q-94 0 -177.5 37t-148 104.5t-102.5 171.5t-38 230v2q0 126 38 230t102.5 171.5t148 104.5t177.5 37q137 0 239 -66t150 -174v647h110v-1470h-110v215q-48 -108 -150 -174t-239 -66zM600 69q157 0 263 121t106 328v2q0 207 -106 328t-263 121q-161 0 -267 -119.5 t-106 -329.5v-2q0 -210 106 -329.5t267 -119.5z" />
<glyph unicode="e" horiz-adv-x="1222" d="M625 -25q-229 0 -371.5 150t-142.5 395v2q0 122 39.5 224.5t107.5 171.5t160.5 107t197.5 38q227 0 362.5 -156.5t131.5 -408.5v-1h-882q6 -197 117 -313t283 -116q142 0 232 60.5t126 168.5h113q-43 -149 -165 -235.5t-309 -86.5zM230 588h762v1q-7 170 -109.5 277 t-266.5 107q-158 0 -264 -100.5t-122 -284.5z" />
<glyph unicode="f" horiz-adv-x="670" d="M237 0v947h-174v95h174v101q0 157 83 242t250 85h35v-93h-27q-120 0 -175.5 -59t-55.5 -177v-99h254v-95h-254v-947h-110z" />
<glyph unicode="g" horiz-adv-x="1256" d="M577 35q-93 0 -176.5 35t-148.5 98.5t-103.5 162t-38.5 217.5v2q0 119 38.5 217.5t103.5 162t148.5 98.5t176.5 35q135 0 238.5 -60.5t150.5 -165.5v205h111v-970q0 -127 -36.5 -221t-102.5 -148.5t-149 -80t-184 -25.5q-188 0 -313.5 94.5t-146.5 262.5h112 q15 -119 109 -192.5t242 -73.5q58 0 108.5 11t97.5 37.5t80 68t52.5 106.5t19.5 149v201q-47 -105 -150.5 -165.5t-238.5 -60.5zM600 129q158 0 264.5 112.5t106.5 306.5v2q0 194 -106.5 306.5t-264.5 112.5q-159 0 -266 -112t-107 -307v-2q0 -195 107 -307t266 -112z" />
<glyph unicode="h" horiz-adv-x="1168" d="M179 0v1470h111v-600q103 193 342 193q189 0 290.5 -114t101.5 -323v-626h-111v607q0 180 -81.5 270.5t-229.5 90.5q-152 0 -232 -100.5t-80 -279.5v-588h-111z" />
<glyph unicode="i" horiz-adv-x="469" d="M179 1257v213h111v-213h-111zM179 0v1042h111v-1042h-111z" />
<glyph unicode="j" horiz-adv-x="469" d="M179 1257v213h111v-213h-111zM-17 -385v94h28q101 0 134.5 48t33.5 168v1117h111v-1121q0 -160 -60 -233t-209 -73h-38z" />
<glyph unicode="k" horiz-adv-x="1090" d="M181 0v1470h111v-885l594 457h148l-636 -493l667 -549h-161l-612 498v-498h-111z" />
<glyph unicode="l" horiz-adv-x="469" d="M179 0v1470h111v-1470h-111z" />
<glyph unicode="m" horiz-adv-x="1911" d="M179 0v1042h111v-172q103 193 342 193q136 0 227.5 -60.5t131.5 -173.5q106 234 374 234q189 0 290.5 -114t101.5 -323v-626h-110v607q0 180 -81.5 270.5t-229.5 90.5q-152 0 -232 -100.5t-80 -279.5v-588h-111v607q0 180 -81.5 270.5t-229.5 90.5q-152 0 -232 -100.5 t-80 -279.5v-588h-111z" />
<glyph unicode="n" d="M179 0v1042h111v-172q103 193 342 193q189 0 290.5 -114t101.5 -323v-626h-111v607q0 180 -81.5 270.5t-229.5 90.5q-152 0 -232 -100.5t-80 -279.5v-588h-111z" />
<glyph unicode="o" horiz-adv-x="1243" d="M622 -25q-223 0 -367 150t-144 393v2q0 243 144 393t367 150t366.5 -150t143.5 -393v-2q0 -243 -143.5 -393t-366.5 -150zM622 69q174 0 283.5 122t109.5 327v2q0 205 -109.5 327.5t-283.5 122.5t-284 -122.5t-110 -327.5v-2q0 -205 110 -327t284 -122z" />
<glyph unicode="p" horiz-adv-x="1256" d="M679 -25q-137 0 -239 66t-150 174v-600h-111v1427h111v-219q48 108 150 174t239 66q93 0 177 -37t148.5 -104.5t102.5 -171.5t38 -230v-2q0 -126 -38 -230t-102.5 -171.5t-148.5 -104.5t-177 -37zM656 69q161 0 266.5 119.5t105.5 329.5v2q0 210 -105.5 329.5 t-266.5 119.5q-157 0 -263.5 -121t-106.5 -328v-2q0 -207 106.5 -328t263.5 -121z" />
<glyph unicode="q" horiz-adv-x="1256" d="M577 -25q-94 0 -177.5 37t-148 104.5t-102.5 171.5t-38 230v2q0 126 38 230t102.5 171.5t148 104.5t177.5 37q137 0 239 -66t150 -174v219h110v-1427h-110v600q-48 -108 -150 -174t-239 -66zM600 69q157 0 263 121t106 328v2q0 207 -106 328t-263 121q-161 0 -267 -119.5 t-106 -329.5v-2q0 -210 106 -329.5t267 -119.5z" />
<glyph unicode="r" horiz-adv-x="693" d="M179 0v1042h110v-213q41 100 126.5 161.5t213.5 61.5h25v-107h-43q-160 0 -240.5 -110t-80.5 -297v-538h-111z" />
<glyph unicode="s" horiz-adv-x="1038" d="M534 -25q-191 0 -302 90t-135 243h112q49 -246 329 -246q129 0 210.5 51.5t81.5 151.5v2q0 43 -16 76t-39.5 54t-63 37.5t-73 25.5t-83.5 19l-143 28q-135 27 -214.5 95t-79.5 183v2q0 123 110.5 199.5t276.5 76.5t271.5 -73.5t133.5 -214.5h-112q-53 202 -297 202 q-111 0 -192 -49.5t-81 -136.5v-2q0 -144 217 -186l146 -29q60 -12 105 -25t93.5 -36.5t79.5 -53.5t51 -76t20 -104v-2q0 -143 -112.5 -222.5t-293.5 -79.5z" />
<glyph unicode="t" horiz-adv-x="684" d="M509 0q-154 0 -219 70t-65 232v645h-174v95h174v251h111v-251h254v-95h-254v-633q0 -121 44 -170t149 -49h53v-95h-73z" />
<glyph unicode="u" d="M546 -25q-189 0 -290.5 114t-101.5 323v630h111v-611q0 -180 81.5 -270.5t229.5 -90.5q152 0 232 100.5t80 279.5v592h110v-1042h-110v168q-103 -193 -342 -193z" />
<glyph unicode="v" horiz-adv-x="1101" d="M491 -5l-439 1047h121l381 -928l384 928h111l-438 -1047h-120z" />
<glyph unicode="w" horiz-adv-x="1653" d="M398 -5l-332 1047h116l284 -915l304 920h114l309 -921l287 916h107l-332 -1047h-119l-313 919l-304 -919h-121z" />
<glyph unicode="x" horiz-adv-x="1123" d="M74 0l425 533l-402 509h127l339 -427l340 427h121l-403 -504l426 -538h-127l-362 458l-366 -458h-118z" />
<glyph unicode="y" horiz-adv-x="1124" d="M318 -385l179 400l-445 1027h120l385 -897h2l398 897h115l-641 -1427h-113z" />
<glyph unicode="z" horiz-adv-x="1003" d="M87 0v91l686 856h-648v95h779v-90l-688 -857h700v-95h-829z" />
<glyph unicode="{" horiz-adv-x="663" d="M77 585v56q87 28 120.5 82t33.5 158v343q0 158 68.5 232t213.5 74h50v-88h-30q-109 0 -154.5 -51t-45.5 -171v-325q0 -117 -33.5 -181.5t-125.5 -99.5v-1q92 -36 125.5 -100.5t33.5 -181.5v-325q0 -122 45.5 -172t154.5 -50h30v-88h-50q-145 0 -213.5 74t-68.5 232v343 q0 104 -33.5 158t-120.5 82z" />
<glyph unicode="|" horiz-adv-x="340" d="M120 -203v1849h100v-1849h-100z" />
<glyph unicode="}" horiz-adv-x="663" d="M586 641v-56q-87 -28 -121 -82t-34 -158v-343q0 -158 -68 -232t-213 -74h-50v88h30q109 0 154.5 50.5t45.5 171.5v325q0 117 33 181.5t125 100.5v1q-92 35 -125 99.5t-33 181.5v325q0 120 -45.5 171t-154.5 51h-30v88h50q145 0 213 -74t68 -232v-343q0 -104 34 -158 t121 -82z" />
<glyph unicode="&#xa2;" horiz-adv-x="1193" d="M559 227v182q-199 19 -323.5 165.5t-124.5 375.5v2q0 229 124.5 375.5t323.5 164.5v183h108v-183q162 -14 270.5 -105t143.5 -236h-113q-34 117 -127.5 183.5t-228.5 66.5q-164 0 -274 -120.5t-110 -328.5v-2q0 -208 110 -329t274 -121q135 0 228.5 66.5t127.5 183.5h113 q-35 -145 -143.5 -236t-270.5 -105v-182h-108z" />
<glyph unicode="&#xa3;" horiz-adv-x="1239" d="M100 668v94h217l-13 33q-25 62 -38.5 101.5t-26 96.5t-12.5 108v2q0 179 122 285.5t317 106.5q127 0 222 -39.5t158.5 -128.5t78.5 -224h-118q-37 294 -343 294q-143 0 -229.5 -78.5t-86.5 -217.5v-2q0 -108 67 -282l21 -55h400v-94h-364q44 -125 44 -219v-3 q0 -112 -49.5 -206.5t-134.5 -139.5h779v-100h-971v95q117 21 186.5 118.5t69.5 233.5v3q0 96 -43 218h-253z" />
<glyph unicode="&#xa8;" horiz-adv-x="694" d="M160 1272h-108v198h108v-198zM642 1272h-107v198h107v-198z" />
<glyph unicode="&#xab;" horiz-adv-x="1041" d="M343 192l-236 373l236 372h117l-232 -372l232 -373h-117zM757 192l-236 373l236 372h117l-233 -372l233 -373h-117z" />
<glyph unicode="&#xad;" horiz-adv-x="779" d="M100 472v98h579v-98h-579z" />
<glyph unicode="&#xb4;" horiz-adv-x="511" d="M461 1470l-287 -258h-124l262 258h149z" />
<glyph unicode="&#xb8;" horiz-adv-x="336" d="M285 -96l-122 -242h-112l136 242h98z" />
<glyph unicode="&#xbb;" horiz-adv-x="1041" d="M934 565l-236 -373h-117l233 373l-233 372h117zM521 565l-236 -373h-117l232 373l-232 372h117z" />
<glyph unicode="&#xc2;" horiz-adv-x="1370" d="M368 1630l264 268h105l265 -268h-119l-198 196l-199 -196h-118zM45 0l577 1477h125l578 -1477h-121l-179 464h-687l-178 -464h-115zM377 564h610l-304 789h-3z" />
<glyph unicode="&#xce;" horiz-adv-x="525" d="M-54 1630l264 268h105l265 -268h-119l-198 196l-199 -196h-118zM204 0v1470h116v-1470h-116z" />
<glyph unicode="&#xe2;" horiz-adv-x="1126" d="M282 1212l225 258h105l225 -258h-111l-166 198l-167 -198h-111zM459 -25q-152 0 -257 79t-105 213v2q0 64 23.5 114.5t71 87.5t110.5 64.5t151.5 46t184 30t216.5 19.5v41q0 304 -289 304q-138 0 -216.5 -67t-83.5 -181h-113q11 153 122.5 244t292.5 91q194 0 296 -96 t101 -308l-1 -298q-1 -230 20 -361h-107q-10 77 -12 193q-116 -218 -405 -218zM855 546q-334 -20 -488 -80t-154 -194v-2q0 -97 77.5 -152.5t198.5 -55.5q73 0 137 21.5t116 65t82.5 118t30.5 172.5v107z" />
<glyph unicode="&#xee;" horiz-adv-x="469" d="M-43 1212l225 258h105l225 -258h-110l-167 198l-167 -198h-111zM179 0v1042h111v-1042h-111z" />
<glyph unicode="&#x100;" horiz-adv-x="1370" d="M401 1816v82h567v-82h-567zM45 0l577 1477h125l578 -1477h-121l-179 464h-687l-178 -464h-115zM377 564h610l-304 789h-3z" />
<glyph unicode="&#x101;" horiz-adv-x="1126" d="M276 1388v82h567v-82h-567zM459 -25q-152 0 -257 79t-105 213v2q0 64 23.5 114.5t71 87.5t110.5 64.5t151.5 46t184 30t216.5 19.5v41q0 304 -289 304q-138 0 -216.5 -67t-83.5 -181h-113q11 153 122.5 244t292.5 91q194 0 296 -96t101 -308l-1 -298q-1 -230 20 -361 h-107q-10 77 -12 193q-116 -218 -405 -218zM855 546q-334 -20 -488 -80t-154 -194v-2q0 -97 77.5 -152.5t198.5 -55.5q73 0 137 21.5t116 65t82.5 118t30.5 172.5v107z" />
<glyph unicode="&#x102;" horiz-adv-x="1370" d="M431 1898h89q11 -61 55 -96t110 -35t109.5 35t54.5 96h90q-14 -99 -81.5 -154.5t-172.5 -55.5q-106 0 -173 55.5t-81 154.5zM45 0l577 1477h125l578 -1477h-121l-179 464h-687l-178 -464h-115zM377 564h610l-304 789h-3z" />
<glyph unicode="&#x103;" horiz-adv-x="1126" d="M306 1470h89q11 -61 55 -96t110 -35t109.5 35t54.5 96h90q-14 -99 -81.5 -154.5t-172.5 -55.5q-106 0 -173 55.5t-81 154.5zM459 -25q-152 0 -257 79t-105 213v2q0 64 23.5 114.5t71 87.5t110.5 64.5t151.5 46t184 30t216.5 19.5v41q0 304 -289 304q-138 0 -216.5 -67 t-83.5 -181h-113q11 153 122.5 244t292.5 91q194 0 296 -96t101 -308l-1 -298q-1 -230 20 -361h-107q-10 77 -12 193q-116 -218 -405 -218zM855 546q-334 -20 -488 -80t-154 -194v-2q0 -97 77.5 -152.5t198.5 -55.5q73 0 137 21.5t116 65t82.5 118t30.5 172.5v107z" />
<glyph unicode="&#x104;" horiz-adv-x="1370" d="M45 0l577 1477h125l578 -1477h-1q-43 -31 -73.5 -74.5t-30.5 -90.5q0 -48 32.5 -80t81.5 -32q38 0 70 13l37 -75q-57 -30 -123 -30q-87 0 -142.5 50t-55.5 130q0 103 97 189h-13l-179 464h-687l-178 -464h-115zM377 564h610l-304 789h-3z" />
<glyph unicode="&#x105;" horiz-adv-x="1126" d="M459 -25q-152 0 -257 79t-105 213v2q0 64 23.5 114.5t71 87.5t110.5 64.5t151.5 46t184 30t216.5 19.5v41q0 304 -289 304q-138 0 -216.5 -67t-83.5 -181h-113q11 153 122.5 244t292.5 91q194 0 296 -96t101 -308l-1 -298q-1 -230 20 -361q-44 -31 -74.5 -74.5 t-30.5 -90.5q0 -48 32.5 -80t82.5 -32q38 0 69 13l38 -75q-57 -30 -123 -30q-87 0 -143 50t-56 130q0 102 98 189q-10 77 -12 193q-116 -218 -405 -218zM855 546q-334 -20 -488 -80t-154 -194v-2q0 -97 77.5 -152.5t198.5 -55.5q73 0 137 21.5t116 65t82.5 118t30.5 172.5 v107z" />
<glyph unicode="&#x106;" horiz-adv-x="1578" d="M883 1670h-123l228 228h154zM822 -25q-158 0 -292 57t-226.5 157.5t-144 241t-51.5 303.5v2q0 163 51.5 303.5t144 241t226.5 157.5t292 57q248 0 419 -122t229 -342h-120q-51 175 -194.5 269t-334.5 94q-176 0 -311.5 -84.5t-207.5 -234t-72 -339.5v-2q0 -190 72 -339.5 t207.5 -234t311.5 -84.5q191 0 334.5 94t194.5 269h120q-58 -220 -229 -342t-419 -122z" />
<glyph unicode="&#x107;" horiz-adv-x="1189" d="M942 1470l-287 -258h-124l262 258h149zM612 -25q-220 0 -360.5 149t-140.5 394v2q0 245 140.5 394t360.5 149q184 0 307.5 -93t161.5 -250h-113q-34 117 -127.5 183.5t-228.5 66.5q-164 0 -274 -121t-110 -329v-2q0 -207 110 -328t274 -121q135 0 228.5 66.5t127.5 183.5 h113q-38 -158 -161.5 -251t-307.5 -93z" />
<glyph unicode="&#x108;" horiz-adv-x="1578" d="M473 1630l264 268h105l265 -268h-119l-198 196l-199 -196h-118zM822 -25q-158 0 -292 57t-226.5 157.5t-144 241t-51.5 303.5v2q0 163 51.5 303.5t144 241t226.5 157.5t292 57q248 0 419 -122t229 -342h-120q-51 175 -194.5 269t-334.5 94q-176 0 -311.5 -84.5 t-207.5 -234t-72 -339.5v-2q0 -190 72 -339.5t207.5 -234t311.5 -84.5q191 0 334.5 94t194.5 269h120q-58 -220 -229 -342t-419 -122z" />
<glyph unicode="&#x109;" horiz-adv-x="1189" d="M317 1212l225 258h105l225 -258h-111l-166 198l-167 -198h-111zM612 -25q-220 0 -360.5 149t-140.5 394v2q0 245 140.5 394t360.5 149q184 0 307.5 -93t161.5 -250h-113q-34 117 -127.5 183.5t-228.5 66.5q-164 0 -274 -121t-110 -329v-2q0 -207 110 -328t274 -121 q135 0 228.5 66.5t127.5 183.5h113q-38 -158 -161.5 -251t-307.5 -93z" />
<glyph unicode="&#x10a;" horiz-adv-x="1578" d="M846 1713h-113v185h113v-185zM822 -25q-158 0 -292 57t-226.5 157.5t-144 241t-51.5 303.5v2q0 163 51.5 303.5t144 241t226.5 157.5t292 57q248 0 419 -122t229 -342h-120q-51 175 -194.5 269t-334.5 94q-176 0 -311.5 -84.5t-207.5 -234t-72 -339.5v-2 q0 -190 72 -339.5t207.5 -234t311.5 -84.5q191 0 334.5 94t194.5 269h120q-58 -220 -229 -342t-419 -122z" />
<glyph unicode="&#x10b;" horiz-adv-x="1189" d="M649 1272h-108v198h108v-198zM612 -25q-220 0 -360.5 149t-140.5 394v2q0 245 140.5 394t360.5 149q184 0 307.5 -93t161.5 -250h-113q-34 117 -127.5 183.5t-228.5 66.5q-164 0 -274 -121t-110 -329v-2q0 -207 110 -328t274 -121q135 0 228.5 66.5t127.5 183.5h113 q-38 -158 -161.5 -251t-307.5 -93z" />
<glyph unicode="&#x10c;" horiz-adv-x="1578" d="M473 1898h118l199 -196l198 196h119l-265 -268h-105zM822 -25q-158 0 -292 57t-226.5 157.5t-144 241t-51.5 303.5v2q0 163 51.5 303.5t144 241t226.5 157.5t292 57q248 0 419 -122t229 -342h-120q-51 175 -194.5 269t-334.5 94q-176 0 -311.5 -84.5t-207.5 -234 t-72 -339.5v-2q0 -190 72 -339.5t207.5 -234t311.5 -84.5q191 0 334.5 94t194.5 269h120q-58 -220 -229 -342t-419 -122z" />
<glyph unicode="&#x10d;" horiz-adv-x="1189" d="M542 1212l-225 258h111l167 -198l166 198h111l-225 -258h-105zM612 -25q-220 0 -360.5 149t-140.5 394v2q0 245 140.5 394t360.5 149q184 0 307.5 -93t161.5 -250h-113q-34 117 -127.5 183.5t-228.5 66.5q-164 0 -274 -121t-110 -329v-2q0 -207 110 -328t274 -121 q135 0 228.5 66.5t127.5 183.5h113q-38 -158 -161.5 -251t-307.5 -93z" />
<glyph unicode="&#x10e;" horiz-adv-x="1487" d="M239 1898h118l199 -196l199 196h118l-264 -268h-106zM204 0v1470h371q173 0 317.5 -45.5t254 -134t171 -231t61.5 -325.5v-2q0 -182 -61.5 -323.5t-171 -229.5t-254 -133.5t-317.5 -45.5h-371zM320 99h254q112 0 211.5 21.5t187 70.5t150 121.5t99 179.5t36.5 240v2 q0 133 -36.5 241t-99 181t-150 122t-187 71t-211.5 22h-254v-1272z" />
<glyph unicode="&#x10f;" horiz-adv-x="1311" d="M577 -25q-94 0 -177.5 37t-148 104.5t-102.5 171.5t-38 230v2q0 126 38 230t102.5 171.5t148 104.5t177.5 37q137 0 239 -66t150 -174v647h110v-1470h-110v215q-48 -108 -150 -174t-239 -66zM1220 1470h96v-328h-96v328zM600 69q157 0 263 121t106 328v2q0 207 -106 328 t-263 121q-161 0 -267 -119.5t-106 -329.5v-2q0 -210 106 -329.5t267 -119.5z" />
<glyph unicode="&#x110;" horiz-adv-x="1487" d="M204 0v690h-156v90h156v690h371q173 0 317.5 -45.5t254 -134t171 -231t61.5 -325.5v-2q0 -182 -61.5 -323.5t-171 -229.5t-254 -133.5t-317.5 -45.5h-371zM320 99h254q112 0 211.5 21.5t187 70.5t150 121.5t99 179.5t36.5 240v2q0 133 -36.5 241t-99 181t-150 122 t-187 71t-211.5 22h-254v-591h398v-90h-398v-591z" />
<glyph unicode="&#x111;" horiz-adv-x="1256" d="M577 -25q-94 0 -177.5 37t-148 104.5t-102.5 171.5t-38 230v2q0 126 38 230t102.5 171.5t148 104.5t177.5 37q137 0 239 -66t150 -174v407h-380v73h380v167h110v-167h120v-73h-120v-1230h-110v215q-48 -108 -150 -174t-239 -66zM600 69q157 0 263 121t106 328v2 q0 207 -106 328t-263 121q-161 0 -267 -119.5t-106 -329.5v-2q0 -210 106 -329.5t267 -119.5z" />
<glyph unicode="&#x112;" horiz-adv-x="1237" d="M379 1816v82h567v-82h-567zM204 0v1470h915v-100h-799v-572h739v-101h-739v-597h801v-100h-917z" />
<glyph unicode="&#x113;" horiz-adv-x="1222" d="M325 1388v82h567v-82h-567zM625 -25q-229 0 -371.5 150t-142.5 395v2q0 122 39.5 224.5t107.5 171.5t160.5 107t197.5 38q227 0 362.5 -156.5t131.5 -408.5v-1h-882q6 -197 117 -313t283 -116q142 0 232 60.5t126 168.5h113q-43 -149 -165 -235.5t-309 -86.5zM230 588 h762v1q-7 170 -109.5 277t-266.5 107q-158 0 -264 -100.5t-122 -284.5z" />
<glyph unicode="&#x114;" horiz-adv-x="1237" d="M409 1898h89q11 -61 55 -96t110 -35t109.5 35t54.5 96h90q-14 -99 -81.5 -154.5t-172.5 -55.5q-106 0 -173 55.5t-81 154.5zM204 0v1470h915v-100h-799v-572h739v-101h-739v-597h801v-100h-917z" />
<glyph unicode="&#x115;" horiz-adv-x="1222" d="M355 1470h89q11 -61 55 -96t110 -35t109.5 35t54.5 96h90q-14 -99 -81.5 -154.5t-172.5 -55.5q-106 0 -173 55.5t-81 154.5zM625 -25q-229 0 -371.5 150t-142.5 395v2q0 122 39.5 224.5t107.5 171.5t160.5 107t197.5 38q227 0 362.5 -156.5t131.5 -408.5v-1h-882 q6 -197 117 -313t283 -116q142 0 232 60.5t126 168.5h113q-43 -149 -165 -235.5t-309 -86.5zM230 588h762v1q-7 170 -109.5 277t-266.5 107q-158 0 -264 -100.5t-122 -284.5z" />
<glyph unicode="&#x116;" horiz-adv-x="1237" d="M719 1713h-113v185h113v-185zM204 0v1470h915v-100h-799v-572h739v-101h-739v-597h801v-100h-917z" />
<glyph unicode="&#x117;" horiz-adv-x="1222" d="M663 1272h-108v198h108v-198zM625 -25q-229 0 -371.5 150t-142.5 395v2q0 122 39.5 224.5t107.5 171.5t160.5 107t197.5 38q227 0 362.5 -156.5t131.5 -408.5v-1h-882q6 -197 117 -313t283 -116q142 0 232 60.5t126 168.5h113q-43 -149 -165 -235.5t-309 -86.5zM230 588 h762v1q-7 170 -109.5 277t-266.5 107q-158 0 -264 -100.5t-122 -284.5z" />
<glyph unicode="&#x118;" horiz-adv-x="1237" d="M204 0v1470h915v-100h-799v-572h739v-101h-739v-597h801v-100h-247q-43 -31 -73.5 -74.5t-30.5 -90.5q0 -48 32.5 -80t81.5 -32q38 0 70 13l38 -75q-57 -30 -123 -30q-87 0 -143 50t-56 130q0 103 98 189h-564z" />
<glyph unicode="&#x119;" horiz-adv-x="1222" d="M625 -25q-229 0 -371.5 150t-142.5 395v2q0 122 39.5 224.5t107.5 171.5t160.5 107t197.5 38q227 0 362.5 -156.5t131.5 -408.5v-1h-882q6 -197 117 -313t283 -116q142 0 232 60.5t126 168.5h113q-31 -109 -106.5 -186t-189.5 -111q-43 -31 -73.5 -74.5t-30.5 -90.5 q0 -48 32.5 -80t81.5 -32q38 0 70 13l38 -75q-57 -30 -123 -30q-87 0 -143 50t-56 130q0 87 74 166q-32 -2 -48 -2zM230 588h762v1q-7 170 -109.5 277t-266.5 107q-158 0 -264 -100.5t-122 -284.5z" />
<glyph unicode="&#x11a;" horiz-adv-x="1237" d="M346 1898h118l199 -196l198 196h119l-265 -268h-105zM204 0v1470h915v-100h-799v-572h739v-101h-739v-597h801v-100h-917z" />
<glyph unicode="&#x11b;" horiz-adv-x="1222" d="M556 1212l-225 258h111l167 -198l166 198h111l-225 -258h-105zM625 -25q-229 0 -371.5 150t-142.5 395v2q0 122 39.5 224.5t107.5 171.5t160.5 107t197.5 38q227 0 362.5 -156.5t131.5 -408.5v-1h-882q6 -197 117 -313t283 -116q142 0 232 60.5t126 168.5h113 q-43 -149 -165 -235.5t-309 -86.5zM230 588h762v1q-7 170 -109.5 277t-266.5 107q-158 0 -264 -100.5t-122 -284.5z" />
<glyph unicode="&#x11c;" horiz-adv-x="1680" d="M474 1630l264 268h106l264 -268h-118l-199 196l-198 -196h-119zM819 -25q-157 0 -290.5 57t-225.5 157.5t-143.5 241t-51.5 303.5v2q0 163 51.5 303.5t144 241t226.5 157.5t292 57q246 0 417.5 -118.5t230.5 -331.5h-120q-52 167 -194.5 258t-332.5 91 q-177 0 -312.5 -84.5t-208 -234t-72.5 -339.5v-2q0 -191 72.5 -340t208 -234t312.5 -85q108 0 203.5 30t170.5 87.5t119 151.5t44 212v86h-524v97h634v-739h-96l-2 300q-56 -146 -200 -235.5t-353 -89.5z" />
<glyph unicode="&#x11d;" horiz-adv-x="1256" d="M316 1212l225 258h105l225 -258h-111l-166 198l-167 -198h-111zM577 35q-93 0 -176.5 35t-148.5 98.5t-103.5 162t-38.5 217.5v2q0 119 38.5 217.5t103.5 162t148.5 98.5t176.5 35q135 0 238.5 -60.5t150.5 -165.5v205h111v-970q0 -127 -36.5 -221t-102.5 -148.5 t-149 -80t-184 -25.5q-188 0 -313.5 94.5t-146.5 262.5h112q15 -119 109 -192.5t242 -73.5q58 0 108.5 11t97.5 37.5t80 68t52.5 106.5t19.5 149v201q-47 -105 -150.5 -165.5t-238.5 -60.5zM600 129q158 0 264.5 112.5t106.5 306.5v2q0 194 -106.5 306.5t-264.5 112.5 q-159 0 -266 -112t-107 -307v-2q0 -195 107 -307t266 -112z" />
<glyph unicode="&#x11e;" horiz-adv-x="1680" d="M537 1898h90q11 -61 54.5 -96t109.5 -35t110 35t55 96h89q-14 -99 -81 -154.5t-173 -55.5q-105 0 -172.5 55.5t-81.5 154.5zM819 -25q-157 0 -290.5 57t-225.5 157.5t-143.5 241t-51.5 303.5v2q0 163 51.5 303.5t144 241t226.5 157.5t292 57q246 0 417.5 -118.5 t230.5 -331.5h-120q-52 167 -194.5 258t-332.5 91q-177 0 -312.5 -84.5t-208 -234t-72.5 -339.5v-2q0 -191 72.5 -340t208 -234t312.5 -85q108 0 203.5 30t170.5 87.5t119 151.5t44 212v86h-524v97h634v-739h-96l-2 300q-56 -146 -200 -235.5t-353 -89.5z" />
<glyph unicode="&#x11f;" horiz-adv-x="1256" d="M340 1470h90q11 -61 54.5 -96t109.5 -35t109.5 35t54.5 96h90q-14 -99 -81 -154.5t-173 -55.5t-173 55.5t-81 154.5zM577 35q-93 0 -176.5 35t-148.5 98.5t-103.5 162t-38.5 217.5v2q0 119 38.5 217.5t103.5 162t148.5 98.5t176.5 35q135 0 238.5 -60.5t150.5 -165.5v205 h111v-970q0 -127 -36.5 -221t-102.5 -148.5t-149 -80t-184 -25.5q-188 0 -313.5 94.5t-146.5 262.5h112q15 -119 109 -192.5t242 -73.5q58 0 108.5 11t97.5 37.5t80 68t52.5 106.5t19.5 149v201q-47 -105 -150.5 -165.5t-238.5 -60.5zM600 129q158 0 264.5 112.5 t106.5 306.5v2q0 194 -106.5 306.5t-264.5 112.5q-159 0 -266 -112t-107 -307v-2q0 -195 107 -307t266 -112z" />
<glyph unicode="&#x120;" horiz-adv-x="1680" d="M848 1713h-113v185h113v-185zM819 -25q-157 0 -290.5 57t-225.5 157.5t-143.5 241t-51.5 303.5v2q0 163 51.5 303.5t144 241t226.5 157.5t292 57q246 0 417.5 -118.5t230.5 -331.5h-120q-52 167 -194.5 258t-332.5 91q-177 0 -312.5 -84.5t-208 -234t-72.5 -339.5v-2 q0 -191 72.5 -340t208 -234t312.5 -85q108 0 203.5 30t170.5 87.5t119 151.5t44 212v86h-524v97h634v-739h-96l-2 300q-56 -146 -200 -235.5t-353 -89.5z" />
<glyph unicode="&#x121;" horiz-adv-x="1256" d="M648 1272h-108v198h108v-198zM577 35q-93 0 -176.5 35t-148.5 98.5t-103.5 162t-38.5 217.5v2q0 119 38.5 217.5t103.5 162t148.5 98.5t176.5 35q135 0 238.5 -60.5t150.5 -165.5v205h111v-970q0 -127 -36.5 -221t-102.5 -148.5t-149 -80t-184 -25.5q-188 0 -313.5 94.5 t-146.5 262.5h112q15 -119 109 -192.5t242 -73.5q58 0 108.5 11t97.5 37.5t80 68t52.5 106.5t19.5 149v201q-47 -105 -150.5 -165.5t-238.5 -60.5zM600 129q158 0 264.5 112.5t106.5 306.5v2q0 194 -106.5 306.5t-264.5 112.5q-159 0 -266 -112t-107 -307v-2 q0 -195 107 -307t266 -112z" />
<glyph unicode="&#x122;" horiz-adv-x="1680" d="M819 -25q-157 0 -290.5 57t-225.5 157.5t-143.5 241t-51.5 303.5v2q0 163 51.5 303.5t144 241t226.5 157.5t292 57q246 0 417.5 -118.5t230.5 -331.5h-120q-52 167 -194.5 258t-332.5 91q-177 0 -312.5 -84.5t-208 -234t-72.5 -339.5v-2q0 -191 72.5 -340t208 -234 t312.5 -85q108 0 203.5 30t170.5 87.5t119 151.5t44 212v86h-524v97h634v-739h-96l-2 300q-56 -146 -200 -235.5t-353 -89.5zM849 -96l-137 -242h-98l122 242h113z" />
<glyph unicode="&#x123;" horiz-adv-x="1256" d="M822 1470l-122 -242h-113l137 242h98zM577 35q-93 0 -176.5 35t-148.5 98.5t-103.5 162t-38.5 217.5v2q0 119 38.5 217.5t103.5 162t148.5 98.5t176.5 35q135 0 238.5 -60.5t150.5 -165.5v205h111v-970q0 -127 -36.5 -221t-102.5 -148.5t-149 -80t-184 -25.5 q-188 0 -313.5 94.5t-146.5 262.5h112q15 -119 109 -192.5t242 -73.5q58 0 108.5 11t97.5 37.5t80 68t52.5 106.5t19.5 149v201q-47 -105 -150.5 -165.5t-238.5 -60.5zM600 129q158 0 264.5 112.5t106.5 306.5v2q0 194 -106.5 306.5t-264.5 112.5q-159 0 -266 -112 t-107 -307v-2q0 -195 107 -307t266 -112z" />
<glyph unicode="&#x124;" horiz-adv-x="1508" d="M438 1630l264 268h105l265 -268h-119l-198 196l-199 -196h-118zM204 0v1470h116v-673h869v673h115v-1470h-115v694h-869v-694h-116z" />
<glyph unicode="&#x125;" horiz-adv-x="1168" d="M-43 1640l225 258h105l225 -258h-111l-166 198l-167 -198h-111zM179 0v1470h111v-600q103 193 342 193q189 0 290.5 -114t101.5 -323v-626h-111v607q0 180 -81.5 270.5t-229.5 90.5q-152 0 -232 -100.5t-80 -279.5v-588h-111z" />
<glyph unicode="&#x126;" horiz-adv-x="1508" d="M204 0v1089h-150v89h150v292h116v-292h869v292h115v-292h150v-89h-150v-1089h-115v694h-869v-694h-116zM320 797h869v292h-869v-292z" />
<glyph unicode="&#x127;" horiz-adv-x="1168" d="M179 0v1233h-120v74h120v163h111v-163h380v-74h-380v-363q103 193 342 193q189 0 290.5 -114t101.5 -323v-626h-111v607q0 180 -81.5 270.5t-229.5 90.5q-152 0 -232 -100.5t-80 -279.5v-588h-111z" />
<glyph unicode="&#x128;" horiz-adv-x="525" d="M494 1898h76q0 -92 -44.5 -146.5t-119.5 -54.5q-38 0 -78.5 17.5t-69.5 38t-65 38t-66 17.5q-95 0 -95 -120h-76q0 92 43.5 146t119.5 54q48 0 98.5 -28t96.5 -55.5t83 -27.5q95 0 97 121zM204 0v1470h116v-1470h-116z" />
<glyph unicode="&#x129;" horiz-adv-x="469" d="M466 1472h76q0 -92 -44 -146.5t-119 -54.5q-38 0 -79 17.5t-70 38t-64.5 38t-65.5 17.5q-95 0 -95 -121h-77q0 92 44 146t119 54q48 0 98.5 -27.5t96.5 -55t83 -27.5q95 0 97 121zM179 0v1042h111v-1042h-111z" />
<glyph unicode="&#x12a;" horiz-adv-x="525" d="M-21 1816v82h567v-82h-567zM204 0v1470h116v-1470h-116z" />
<glyph unicode="&#x12b;" horiz-adv-x="469" d="M-48 1388v82h566v-82h-566zM179 0v1042h111v-1042h-111z" />
<glyph unicode="&#x12e;" horiz-adv-x="525" d="M204 0v1470h116v-1470h-5q-43 -31 -73.5 -74.5t-30.5 -90.5q0 -48 32.5 -80t81.5 -32q37 0 70 13l38 -75q-57 -30 -123 -30q-87 0 -143 50t-56 130q0 103 98 189h-5z" />
<glyph unicode="&#x12f;" horiz-adv-x="469" d="M179 1257v213h111v-213h-111zM179 0v1042h111v-1042h-2q-43 -31 -73.5 -74.5t-30.5 -90.5q0 -48 32.5 -80t81.5 -32q38 0 70 13l38 -75q-57 -30 -123 -30q-87 0 -143 50t-56 130q0 103 98 189h-3z" />
<glyph unicode="&#x130;" horiz-adv-x="525" d="M319 1713h-113v185h113v-185zM204 0v1470h116v-1470h-116z" />
<glyph unicode="&#x131;" horiz-adv-x="469" d="M179 0v1042h111v-1042h-111z" />
<glyph unicode="&#x132;" horiz-adv-x="1633" d="M204 0v1470h116v-1470h-116zM1014 -25q-89 0 -164 24.5t-134.5 74.5t-94 134t-36.5 195h119q4 -171 89 -250.5t222 -79.5q66 0 120 18.5t97.5 58t67.5 108t24 161.5v1051h115v-1051q0 -115 -33 -202t-92.5 -139t-134.5 -77.5t-165 -25.5z" />
<glyph unicode="&#x133;" horiz-adv-x="939" d="M179 1257v213h111v-213h-111zM649 1257v213h110v-213h-110zM179 0v1042h111v-1042h-111zM453 -385v94h28q101 0 134.5 48t33.5 168v1117h110v-1121q0 -160 -59.5 -233t-208.5 -73h-38z" />
<glyph unicode="&#x134;" horiz-adv-x="1108" d="M540 1630l264 268h106l264 -268h-118l-199 196l-199 -196h-118zM490 -25q-89 0 -164.5 24.5t-134.5 75t-93.5 134t-37.5 194.5h119q4 -171 89 -250.5t222 -79.5q66 0 120.5 18.5t97.5 58t67 108t24 161.5v1051h115v-1051q0 -92 -22 -167t-60.5 -126t-92.5 -85.5t-116 -50 t-133 -15.5z" />
<glyph unicode="&#x135;" horiz-adv-x="469" d="M-43 1212l225 258h105l225 -258h-111l-166 198l-167 -198h-111zM-17 -385v94h28q101 0 134.5 48t33.5 168v1117h111v-1121q0 -160 -60 -233t-209 -73h-38z" />
<glyph unicode="&#x136;" horiz-adv-x="1344" d="M204 0v1470h116v-685l824 685h152l-863 -725l877 -745h-167l-823 692v-692h-116zM815 -96l-136 -242h-99l122 242h113z" />
<glyph unicode="&#x137;" horiz-adv-x="1090" d="M181 0v1470h111v-885l594 457h148l-636 -493l667 -549h-161l-612 498v-498h-111zM681 -96l-137 -242h-98l122 242h113z" />
<glyph unicode="&#x139;" horiz-adv-x="1135" d="M356 1670h-123l228 228h154zM204 0v1470h116v-1370h765v-100h-881z" />
<glyph unicode="&#x13a;" horiz-adv-x="469" d="M582 1898l-287 -258h-124l262 258h149zM179 0v1470h111v-1470h-111z" />
<glyph unicode="&#x13b;" horiz-adv-x="1135" d="M204 0v1470h116v-1370h765v-100h-881zM703 -96l-137 -242h-98l122 242h113z" />
<glyph unicode="&#x13c;" horiz-adv-x="469" d="M179 0v1470h111v-1470h-111zM292 -96l-136 -242h-99l122 242h113z" />
<glyph unicode="&#x13d;" horiz-adv-x="1135" d="M667 1670h97v-328h-97v328zM204 0v1470h116v-1370h765v-100h-881z" />
<glyph unicode="&#x13e;" horiz-adv-x="524" d="M179 0v1470h111v-1470h-111zM433 1470h97v-328h-97v328z" />
<glyph unicode="&#x13f;" horiz-adv-x="1135" d="M204 0v1470h116v-1370h765v-100h-881zM762 678h-119v216h119v-216z" />
<glyph unicode="&#x140;" horiz-adv-x="540" d="M179 0v1470h111v-1470h-111zM552 628h-119v215h119v-215z" />
<glyph unicode="&#x143;" horiz-adv-x="1508" d="M847 1670h-123l229 228h153zM204 0v1470h149l838 -1320h2l-1 736v584h112v-1470h-149l-838 1321h-2l1 -737v-584h-112z" />
<glyph unicode="&#x144;" d="M949 1470l-288 -258h-124l262 258h150zM179 0v1042h111v-172q103 193 342 193q189 0 290.5 -114t101.5 -323v-626h-111v607q0 180 -81.5 270.5t-229.5 90.5q-152 0 -232 -100.5t-80 -279.5v-588h-111z" />
<glyph unicode="&#x145;" horiz-adv-x="1508" d="M204 0v1470h149l838 -1320h2l-1 736v584h112v-1470h-149l-838 1321h-2l1 -737v-584h-112zM812 -96l-136 -242h-99l122 242h113z" />
<glyph unicode="&#x146;" d="M179 0v1042h111v-172q103 193 342 193q189 0 290.5 -114t101.5 -323v-626h-111v607q0 180 -81.5 270.5t-229.5 90.5q-152 0 -232 -100.5t-80 -279.5v-588h-111zM659 -196l-136 -242h-99l122 242h113z" />
<glyph unicode="&#x147;" horiz-adv-x="1508" d="M437 1898h119l198 -196l199 196h118l-264 -268h-106zM204 0v1470h149l838 -1320h2l-1 736v584h112v-1470h-149l-838 1321h-2l1 -737v-584h-112z" />
<glyph unicode="&#x148;" d="M549 1212l-225 258h111l167 -198l166 198h111l-225 -258h-105zM179 0v1042h111v-172q103 193 342 193q189 0 290.5 -114t101.5 -323v-626h-111v607q0 180 -81.5 270.5t-229.5 90.5q-152 0 -232 -100.5t-80 -279.5v-588h-111z" />
<glyph unicode="&#x149;" d="M319 1470l-104 -328h-116l117 328h103zM179 0v1042h111v-172q103 193 342 193q189 0 290.5 -114t101.5 -323v-626h-111v607q0 180 -81.5 270.5t-229.5 90.5q-152 0 -232 -100.5t-80 -279.5v-588h-111z" />
<glyph unicode="&#x14c;" horiz-adv-x="1650" d="M542 1816v82h566v-82h-566zM825 -25q-211 0 -375 98t-253 270.5t-89 390.5v2q0 218 89 390.5t253 270.5t375 98t375 -98t253 -270.5t89 -390.5v-2q0 -218 -89 -390.5t-253 -270.5t-375 -98zM825 76q177 0 313 84.5t209.5 234t73.5 339.5v2q0 190 -73.5 339.5t-209.5 234 t-313 84.5q-267 0 -431 -184.5t-164 -473.5v-2q0 -289 164 -473.5t431 -184.5z" />
<glyph unicode="&#x14d;" horiz-adv-x="1243" d="M338 1388v82h567v-82h-567zM622 -25q-223 0 -367 150t-144 393v2q0 243 144 393t367 150t366.5 -150t143.5 -393v-2q0 -243 -143.5 -393t-366.5 -150zM622 69q174 0 283.5 122t109.5 327v2q0 205 -109.5 327.5t-283.5 122.5t-284 -122.5t-110 -327.5v-2q0 -205 110 -327 t284 -122z" />
<glyph unicode="&#x14e;" horiz-adv-x="1650" d="M571 1898h90q11 -61 54.5 -96t109.5 -35t109.5 35t54.5 96h90q-14 -99 -81 -154.5t-173 -55.5t-173 55.5t-81 154.5zM825 -25q-211 0 -375 98t-253 270.5t-89 390.5v2q0 218 89 390.5t253 270.5t375 98t375 -98t253 -270.5t89 -390.5v-2q0 -218 -89 -390.5t-253 -270.5 t-375 -98zM825 76q177 0 313 84.5t209.5 234t73.5 339.5v2q0 190 -73.5 339.5t-209.5 234t-313 84.5q-267 0 -431 -184.5t-164 -473.5v-2q0 -289 164 -473.5t431 -184.5z" />
<glyph unicode="&#x14f;" horiz-adv-x="1243" d="M368 1470h89q11 -61 55 -96t110 -35t109.5 35t54.5 96h90q-14 -99 -81.5 -154.5t-172.5 -55.5q-106 0 -173 55.5t-81 154.5zM622 -25q-223 0 -367 150t-144 393v2q0 243 144 393t367 150t366.5 -150t143.5 -393v-2q0 -243 -143.5 -393t-366.5 -150zM622 69 q174 0 283.5 122t109.5 327v2q0 205 -109.5 327.5t-283.5 122.5t-284 -122.5t-110 -327.5v-2q0 -205 110 -327t284 -122z" />
<glyph unicode="&#x150;" horiz-adv-x="1650" d="M655 1670h-123l229 228h153zM1068 1670h-123l229 228h153zM825 -25q-211 0 -375 98t-253 270.5t-89 390.5v2q0 218 89 390.5t253 270.5t375 98t375 -98t253 -270.5t89 -390.5v-2q0 -218 -89 -390.5t-253 -270.5t-375 -98zM825 76q177 0 313 84.5t209.5 234t73.5 339.5v2 q0 190 -73.5 339.5t-209.5 234t-313 84.5q-267 0 -431 -184.5t-164 -473.5v-2q0 -289 164 -473.5t431 -184.5z" />
<glyph unicode="&#x151;" horiz-adv-x="1243" d="M743 1470l-288 -258h-124l262 258h150zM1159 1470l-288 -258h-124l262 258h150zM622 -25q-223 0 -367 150t-144 393v2q0 243 144 393t367 150t366.5 -150t143.5 -393v-2q0 -243 -143.5 -393t-366.5 -150zM622 69q174 0 283.5 122t109.5 327v2q0 205 -109.5 327.5 t-283.5 122.5t-284 -122.5t-110 -327.5v-2q0 -205 110 -327t284 -122z" />
<glyph unicode="&#x152;" horiz-adv-x="2458" d="M825 -25q-211 0 -375 98t-253 270.5t-89 390.5v2q0 218 89 390.5t253 270.5t375 98q196 0 351 -84.5t249 -234.5v294h915v-100h-800v-572h739v-101h-737q-1 -5 -1.5 -14.5t-0.5 -14.5v-568h801v-100h-916v295q-94 -151 -249 -235.5t-351 -84.5zM825 76q177 0 313 84.5 t209.5 234t73.5 339.5v2q0 190 -73.5 339.5t-209.5 234t-313 84.5q-267 0 -431 -184.5t-164 -473.5v-2q0 -289 164 -473.5t431 -184.5z" />
<glyph unicode="&#x153;" horiz-adv-x="2123" d="M622 -25q-223 0 -367 150t-144 393v2q0 243 144 393t367 150q152 0 270.5 -72t181.5 -201q63 129 181 201t266 72q227 0 362.5 -156.5t131.5 -408.5v-1h-882q6 -197 117 -313t283 -116q142 0 232 60.5t126 168.5h113q-43 -149 -165 -235.5t-309 -86.5q-156 0 -275 72.5 t-181 201.5q-63 -129 -181.5 -201.5t-270.5 -72.5zM1135 588h762v1q-7 170 -109.5 277t-266.5 107q-158 0 -264 -100.5t-122 -284.5zM622 69q174 0 283.5 122t109.5 327v2q0 205 -109.5 327.5t-283.5 122.5t-284 -122.5t-110 -327.5v-2q0 -205 110 -327t284 -122z" />
<glyph unicode="&#x154;" horiz-adv-x="1357" d="M725 1670h-123l229 228h153zM204 0v1470h449q549 0 549 -407v-2q0 -182 -111 -281.5t-321 -120.5l509 -659h-136l-503 653h-320v-653h-116zM320 753h332q100 0 176.5 16t134.5 51t88 95.5t30 145.5v2q0 165 -111.5 236.5t-317.5 71.5h-332v-618z" />
<glyph unicode="&#x155;" horiz-adv-x="693" d="M764 1470l-287 -258h-124l262 258h149zM179 0v1042h110v-213q41 100 126.5 161.5t213.5 61.5h25v-107h-43q-160 0 -240.5 -110t-80.5 -297v-538h-111z" />
<glyph unicode="&#x156;" horiz-adv-x="1357" d="M204 0v1470h449q549 0 549 -407v-2q0 -182 -111 -281.5t-321 -120.5l509 -659h-136l-503 653h-320v-653h-116zM320 753h332q100 0 176.5 16t134.5 51t88 95.5t30 145.5v2q0 165 -111.5 236.5t-317.5 71.5h-332v-618zM799 -96l-136 -242h-98l122 242h112z" />
<glyph unicode="&#x157;" horiz-adv-x="693" d="M179 0v1042h110v-213q41 100 126.5 161.5t213.5 61.5h25v-107h-43q-160 0 -240.5 -110t-80.5 -297v-538h-111zM292 -96l-136 -242h-99l122 242h113z" />
<glyph unicode="&#x158;" horiz-adv-x="1357" d="M315 1898h118l199 -196l199 196h118l-264 -268h-106zM204 0v1470h449q549 0 549 -407v-2q0 -182 -111 -281.5t-321 -120.5l509 -659h-136l-503 653h-320v-653h-116zM320 753h332q100 0 176.5 16t134.5 51t88 95.5t30 145.5v2q0 165 -111.5 236.5t-317.5 71.5h-332v-618z " />
<glyph unicode="&#x159;" horiz-adv-x="693" d="M364 1212l-225 258h111l167 -198l166 198h111l-225 -258h-105zM179 0v1042h110v-213q41 100 126.5 161.5t213.5 61.5h25v-107h-43q-160 0 -240.5 -110t-80.5 -297v-538h-111z" />
<glyph unicode="&#x15a;" horiz-adv-x="1286" d="M739 1670h-123l229 228h153zM667 -25q-234 0 -381.5 115.5t-182.5 335.5h120q34 -180 148.5 -268t299.5 -88q81 0 151 17.5t126.5 52.5t89 94t32.5 136v2q0 59 -19.5 105.5t-51 78.5t-81 57.5t-98.5 41.5t-115 31l-188 44q-375 86 -375 388v3q0 114 67 200.5t176.5 130 t241.5 43.5q213 0 346.5 -103.5t168.5 -298.5h-120q-71 307 -401 307q-149 0 -254.5 -74t-105.5 -202v-2q0 -220 283 -286l189 -44q77 -18 137.5 -38t122.5 -53.5t102.5 -75t66.5 -103t26 -136.5v-2q0 -195 -145 -302t-376 -107z" />
<glyph unicode="&#x15b;" horiz-adv-x="1038" d="M866 1470l-288 -258h-124l262 258h150zM534 -25q-191 0 -302 90t-135 243h112q49 -246 329 -246q129 0 210.5 51.5t81.5 151.5v2q0 43 -16 76t-39.5 54t-63 37.5t-73 25.5t-83.5 19l-143 28q-135 27 -214.5 95t-79.5 183v2q0 123 110.5 199.5t276.5 76.5t271.5 -73.5 t133.5 -214.5h-112q-53 202 -297 202q-111 0 -192 -49.5t-81 -136.5v-2q0 -144 217 -186l146 -29q60 -12 105 -25t93.5 -36.5t79.5 -53.5t51 -76t20 -104v-2q0 -143 -112.5 -222.5t-293.5 -79.5z" />
<glyph unicode="&#x15c;" horiz-adv-x="1286" d="M329 1630l264 268h106l264 -268h-118l-199 196l-199 -196h-118zM667 -25q-234 0 -381.5 115.5t-182.5 335.5h120q34 -180 148.5 -268t299.5 -88q81 0 151 17.5t126.5 52.5t89 94t32.5 136v2q0 59 -19.5 105.5t-51 78.5t-81 57.5t-98.5 41.5t-115 31l-188 44 q-375 86 -375 388v3q0 114 67 200.5t176.5 130t241.5 43.5q213 0 346.5 -103.5t168.5 -298.5h-120q-71 307 -401 307q-149 0 -254.5 -74t-105.5 -202v-2q0 -220 283 -286l189 -44q77 -18 137.5 -38t122.5 -53.5t102.5 -75t66.5 -103t26 -136.5v-2q0 -195 -145 -302 t-376 -107z" />
<glyph unicode="&#x15d;" horiz-adv-x="1038" d="M241 1212l225 258h105l225 -258h-111l-166 198l-167 -198h-111zM534 -25q-191 0 -302 90t-135 243h112q49 -246 329 -246q129 0 210.5 51.5t81.5 151.5v2q0 43 -16 76t-39.5 54t-63 37.5t-73 25.5t-83.5 19l-143 28q-135 27 -214.5 95t-79.5 183v2q0 123 110.5 199.5 t276.5 76.5t271.5 -73.5t133.5 -214.5h-112q-53 202 -297 202q-111 0 -192 -49.5t-81 -136.5v-2q0 -144 217 -186l146 -29q60 -12 105 -25t93.5 -36.5t79.5 -53.5t51 -76t20 -104v-2q0 -143 -112.5 -222.5t-293.5 -79.5z" />
<glyph unicode="&#x15e;" horiz-adv-x="1286" d="M667 -25q-234 0 -381.5 115.5t-182.5 335.5h120q34 -180 148.5 -268t299.5 -88q81 0 151 17.5t126.5 52.5t89 94t32.5 136v2q0 59 -19.5 105.5t-51 78.5t-81 57.5t-98.5 41.5t-115 31l-188 44q-375 86 -375 388v3q0 114 67 200.5t176.5 130t241.5 43.5 q213 0 346.5 -103.5t168.5 -298.5h-120q-71 307 -401 307q-149 0 -254.5 -74t-105.5 -202v-2q0 -220 283 -286l189 -44q77 -18 137.5 -38t122.5 -53.5t102.5 -75t66.5 -103t26 -136.5v-2q0 -195 -145 -302t-376 -107zM697 -96l-122 -242h-113l137 242h98z" />
<glyph unicode="&#x15f;" horiz-adv-x="1038" d="M534 -25q-191 0 -302 90t-135 243h112q49 -246 329 -246q129 0 210.5 51.5t81.5 151.5v2q0 43 -16 76t-39.5 54t-63 37.5t-73 25.5t-83.5 19l-143 28q-135 27 -214.5 95t-79.5 183v2q0 123 110.5 199.5t276.5 76.5t271.5 -73.5t133.5 -214.5h-112q-53 202 -297 202 q-111 0 -192 -49.5t-81 -136.5v-2q0 -144 217 -186l146 -29q60 -12 105 -25t93.5 -36.5t79.5 -53.5t51 -76t20 -104v-2q0 -143 -112.5 -222.5t-293.5 -79.5zM570 -96l-122 -242h-113l137 242h98z" />
<glyph unicode="&#x160;" horiz-adv-x="1286" d="M329 1898h118l199 -196l199 196h118l-264 -268h-106zM667 -25q-234 0 -381.5 115.5t-182.5 335.5h120q34 -180 148.5 -268t299.5 -88q81 0 151 17.5t126.5 52.5t89 94t32.5 136v2q0 59 -19.5 105.5t-51 78.5t-81 57.5t-98.5 41.5t-115 31l-188 44q-375 86 -375 388v3 q0 114 67 200.5t176.5 130t241.5 43.5q213 0 346.5 -103.5t168.5 -298.5h-120q-71 307 -401 307q-149 0 -254.5 -74t-105.5 -202v-2q0 -220 283 -286l189 -44q77 -18 137.5 -38t122.5 -53.5t102.5 -75t66.5 -103t26 -136.5v-2q0 -195 -145 -302t-376 -107z" />
<glyph unicode="&#x161;" horiz-adv-x="1038" d="M466 1212l-225 258h111l167 -198l166 198h111l-225 -258h-105zM534 -25q-191 0 -302 90t-135 243h112q49 -246 329 -246q129 0 210.5 51.5t81.5 151.5v2q0 43 -16 76t-39.5 54t-63 37.5t-73 25.5t-83.5 19l-143 28q-135 27 -214.5 95t-79.5 183v2q0 123 110.5 199.5 t276.5 76.5t271.5 -73.5t133.5 -214.5h-112q-53 202 -297 202q-111 0 -192 -49.5t-81 -136.5v-2q0 -144 217 -186l146 -29q60 -12 105 -25t93.5 -36.5t79.5 -53.5t51 -76t20 -104v-2q0 -143 -112.5 -222.5t-293.5 -79.5z" />
<glyph unicode="&#x162;" horiz-adv-x="1265" d="M575 0v1370h-543v100h1201v-100h-543v-1370h-115zM684 -96l-122 -242h-113l137 242h98z" />
<glyph unicode="&#x163;" horiz-adv-x="684" d="M509 0q-154 0 -219 70t-65 232v645h-174v95h174v251h111v-251h254v-95h-254v-633q0 -121 44 -170t149 -49h53v-95h-73zM378 -96l-136 -242h-99l122 242h113z" />
<glyph unicode="&#x164;" horiz-adv-x="1265" d="M316 1898h118l199 -196l199 196h118l-264 -268h-106zM575 0v1370h-543v100h1201v-100h-543v-1370h-115z" />
<glyph unicode="&#x165;" horiz-adv-x="684" d="M456 1670h97v-328h-97v328zM509 0q-154 0 -219 70t-65 232v645h-174v95h174v251h111v-251h254v-95h-254v-633q0 -121 44 -170t149 -49h53v-95h-73z" />
<glyph unicode="&#x166;" horiz-adv-x="1265" d="M575 0v831h-341v91h341v448h-543v100h1201v-100h-543v-448h339v-91h-339v-831h-115z" />
<glyph unicode="&#x167;" horiz-adv-x="684" d="M509 0q-154 0 -219 70t-65 232v182h-174v74h174v389h-174v95h174v251h111v-251h254v-95h-254v-389h254v-74h-254v-170q0 -121 44 -170t149 -49h53v-95h-73z" />
<glyph unicode="&#x168;" horiz-adv-x="1477" d="M970 1898h76q0 -92 -44.5 -146.5t-119.5 -54.5q-38 0 -78.5 17.5t-69.5 38t-65 38t-66 17.5q-95 0 -95 -120h-76q0 92 43.5 146t119.5 54q48 0 98.5 -28t96.5 -55.5t83 -27.5q95 0 97 121zM738 -25q-275 0 -411.5 140.5t-136.5 447.5v907h115v-907q0 -256 106 -371.5 t327 -115.5t327.5 115.5t106.5 371.5v907h116v-907q0 -307 -137 -447.5t-413 -140.5z" />
<glyph unicode="&#x169;" d="M808 1472h76q0 -92 -44 -146.5t-119 -54.5q-38 0 -79 17.5t-70 38t-64.5 38t-65.5 17.5q-95 0 -95 -121h-77q0 92 44 146t119 54q48 0 98.5 -27.5t96.5 -55t83 -27.5q95 0 97 121zM546 -25q-189 0 -290.5 114t-101.5 323v630h111v-611q0 -180 81.5 -270.5t229.5 -90.5 q152 0 232 100.5t80 279.5v592h110v-1042h-110v168q-103 -193 -342 -193z" />
<glyph unicode="&#x16a;" horiz-adv-x="1477" d="M455 1816v82h567v-82h-567zM738 -25q-275 0 -411.5 140.5t-136.5 447.5v907h115v-907q0 -256 106 -371.5t327 -115.5t327.5 115.5t106.5 371.5v907h116v-907q0 -307 -137 -447.5t-413 -140.5z" />
<glyph unicode="&#x16b;" d="M294 1388v82h566v-82h-566zM546 -25q-189 0 -290.5 114t-101.5 323v630h111v-611q0 -180 81.5 -270.5t229.5 -90.5q152 0 232 100.5t80 279.5v592h110v-1042h-110v168q-103 -193 -342 -193z" />
<glyph unicode="&#x16c;" horiz-adv-x="1477" d="M485 1898h89q11 -61 55 -96t110 -35t109.5 35t54.5 96h90q-14 -99 -81.5 -154.5t-172.5 -55.5q-106 0 -173 55.5t-81 154.5zM738 -25q-275 0 -411.5 140.5t-136.5 447.5v907h115v-907q0 -256 106 -371.5t327 -115.5t327.5 115.5t106.5 371.5v907h116v-907 q0 -307 -137 -447.5t-413 -140.5z" />
<glyph unicode="&#x16d;" d="M323 1470h90q11 -61 54.5 -96t109.5 -35t109.5 35t54.5 96h90q-14 -99 -81 -154.5t-173 -55.5t-173 55.5t-81 154.5zM546 -25q-189 0 -290.5 114t-101.5 323v630h111v-611q0 -180 81.5 -270.5t229.5 -90.5q152 0 232 100.5t80 279.5v592h110v-1042h-110v168 q-103 -193 -342 -193z" />
<glyph unicode="&#x16e;" horiz-adv-x="1477" d="M516 1850q0 89 66.5 153.5t156.5 64.5t156.5 -64t66.5 -154q0 -92 -66 -157.5t-157 -65.5t-157 65.5t-66 157.5zM585 1851q0 -66 44 -111.5t110 -45.5t109 45t43 112q0 62 -43 105.5t-109 43.5q-65 0 -109.5 -44t-44.5 -105zM738 -25q-275 0 -411.5 140.5t-136.5 447.5 v907h115v-907q0 -256 106 -371.5t327 -115.5t327.5 115.5t106.5 371.5v907h116v-907q0 -307 -137 -447.5t-413 -140.5z" />
<glyph unicode="&#x16f;" d="M354 1423q0 90 67 154.5t156 64.5q91 0 157 -64.5t66 -154.5q0 -91 -66 -157t-157 -66q-90 0 -156.5 66t-66.5 157zM423 1424q0 -65 44.5 -110.5t109.5 -45.5q66 0 109 44.5t43 111.5q0 63 -43 106.5t-109 43.5q-65 0 -109.5 -44t-44.5 -106zM546 -25q-189 0 -290.5 114 t-101.5 323v630h111v-611q0 -180 81.5 -270.5t229.5 -90.5q152 0 232 100.5t80 279.5v592h110v-1042h-110v168q-103 -193 -342 -193z" />
<glyph unicode="&#x170;" horiz-adv-x="1477" d="M569 1670h-123l228 228h154zM982 1670h-123l229 228h153zM738 -25q-275 0 -411.5 140.5t-136.5 447.5v907h115v-907q0 -256 106 -371.5t327 -115.5t327.5 115.5t106.5 371.5v907h116v-907q0 -307 -137 -447.5t-413 -140.5z" />
<glyph unicode="&#x171;" d="M698 1470l-287 -258h-124l262 258h149zM1114 1470l-287 -258h-124l262 258h149zM546 -25q-189 0 -290.5 114t-101.5 323v630h111v-611q0 -180 81.5 -270.5t229.5 -90.5q152 0 232 100.5t80 279.5v592h110v-1042h-110v168q-103 -193 -342 -193z" />
<glyph unicode="&#x172;" horiz-adv-x="1477" d="M872 -264l38 -75q-57 -30 -123 -30q-87 0 -143 50t-56 130q0 87 75 167q-237 18 -355 159t-118 426v907h115v-907q0 -256 106 -371.5t327 -115.5t327.5 115.5t106.5 371.5v907h116v-907q0 -300 -131.5 -441t-394.5 -146q-74 -68 -74 -141q0 -48 32.5 -80t81.5 -32 q38 0 70 13z" />
<glyph unicode="&#x173;" d="M546 -25q-189 0 -290.5 114t-101.5 323v630h111v-611q0 -180 81.5 -270.5t229.5 -90.5q152 0 232 100.5t80 279.5v592h110v-1042h-1q-44 -31 -74.5 -74.5t-30.5 -90.5q0 -48 32.5 -80t82.5 -32q38 0 69 13l38 -75q-57 -30 -123 -30q-87 0 -143 50t-56 130q0 102 98 189 h-2v168q-103 -193 -342 -193z" />
<glyph unicode="&#x174;" horiz-adv-x="1934" d="M650 1630l264 268h106l264 -268h-118l-199 196l-198 -196h-119zM474 -7l-413 1477h119l369 -1328l349 1333h139l350 -1332l367 1327h119l-411 -1477h-139l-356 1349l-353 -1349h-140z" />
<glyph unicode="&#x175;" horiz-adv-x="1653" d="M549 1212l225 258h105l225 -258h-111l-166 198l-167 -198h-111zM398 -5l-332 1047h116l284 -915l304 920h114l309 -921l287 916h107l-332 -1047h-119l-313 919l-304 -919h-121z" />
<glyph unicode="&#x176;" horiz-adv-x="1332" d="M350 1630l264 268h105l265 -268h-119l-198 196l-199 -196h-118zM609 0v642l-571 828h132l433 -632l64 -95h2l62 95l431 632h132l-569 -828v-642h-116z" />
<glyph unicode="&#x177;" horiz-adv-x="1124" d="M285 1212l224 258h105l225 -258h-110l-167 198l-167 -198h-110zM318 -385l179 400l-445 1027h120l385 -897h2l398 897h115l-641 -1427h-113z" />
<glyph unicode="&#x178;" horiz-adv-x="1332" d="M485 1714h-113v185h113v-185zM962 1714h-113v185h113v-185zM609 0v642l-571 828h132l433 -632l64 -95h2l62 95l431 632h132l-569 -828v-642h-116z" />
<glyph unicode="&#x179;" horiz-adv-x="1255" d="M789 1670h-123l229 228h153zM90 0v97l913 1273h-855v100h996v-97l-914 -1273h936v-100h-1076z" />
<glyph unicode="&#x17a;" horiz-adv-x="1003" d="M879 1470l-288 -258h-124l262 258h150zM87 0v91l686 856h-648v95h779v-90l-688 -857h700v-95h-829z" />
<glyph unicode="&#x17b;" horiz-adv-x="1255" d="M753 1713h-113v185h113v-185zM90 0v97l913 1273h-855v100h996v-97l-914 -1273h936v-100h-1076z" />
<glyph unicode="&#x17c;" horiz-adv-x="1003" d="M585 1272h-107v198h107v-198zM87 0v91l686 856h-648v95h779v-90l-688 -857h700v-95h-829z" />
<glyph unicode="&#x17d;" horiz-adv-x="1255" d="M379 1898h118l199 -196l199 196h118l-264 -268h-106zM90 0v97l913 1273h-855v100h996v-97l-914 -1273h936v-100h-1076z" />
<glyph unicode="&#x17e;" horiz-adv-x="1003" d="M478 1212l-224 258h110l167 -198l167 198h110l-225 -258h-105zM87 0v91l686 856h-648v95h779v-90l-688 -857h700v-95h-829z" />
<glyph unicode="&#x218;" horiz-adv-x="1286" d="M667 -25q-234 0 -381.5 115.5t-182.5 335.5h120q34 -180 148.5 -268t299.5 -88q81 0 151 17.5t126.5 52.5t89 94t32.5 136v2q0 59 -19.5 105.5t-51 78.5t-81 57.5t-98.5 41.5t-115 31l-188 44q-375 86 -375 388v3q0 114 67 200.5t176.5 130t241.5 43.5 q213 0 346.5 -103.5t168.5 -298.5h-120q-71 307 -401 307q-149 0 -254.5 -74t-105.5 -202v-2q0 -220 283 -286l189 -44q77 -18 137.5 -38t122.5 -53.5t102.5 -75t66.5 -103t26 -136.5v-2q0 -195 -145 -302t-376 -107zM703 -96l-136 -242h-98l122 242h112z" />
<glyph unicode="&#x219;" horiz-adv-x="1038" d="M534 -25q-191 0 -302 90t-135 243h112q49 -246 329 -246q129 0 210.5 51.5t81.5 151.5v2q0 43 -16 76t-39.5 54t-63 37.5t-73 25.5t-83.5 19l-143 28q-135 27 -214.5 95t-79.5 183v2q0 123 110.5 199.5t276.5 76.5t271.5 -73.5t133.5 -214.5h-112q-53 202 -297 202 q-111 0 -192 -49.5t-81 -136.5v-2q0 -144 217 -186l146 -29q60 -12 105 -25t93.5 -36.5t79.5 -53.5t51 -76t20 -104v-2q0 -143 -112.5 -222.5t-293.5 -79.5zM576 -96l-136 -242h-98l122 242h112z" />
<glyph unicode="&#x21a;" horiz-adv-x="1265" d="M575 0v1370h-543v100h1201v-100h-543v-1370h-115zM690 -96l-136 -242h-98l122 242h112z" />
<glyph unicode="&#x21b;" horiz-adv-x="684" d="M509 0q-154 0 -219 70t-65 232v645h-174v95h174v251h111v-251h254v-95h-254v-633q0 -121 44 -170t149 -49h53v-95h-73zM378 -96l-136 -242h-99l122 242h113z" />
<glyph unicode="&#x2c6;" horiz-adv-x="654" d="M50 1212l225 258h105l225 -258h-111l-166 198l-167 -198h-111z" />
<glyph unicode="&#x2da;" horiz-adv-x="546" d="M50 1423q0 90 67 154.5t156 64.5q91 0 157 -64.5t66 -154.5q0 -91 -66 -157t-157 -66q-90 0 -156.5 66t-66.5 157zM119 1424q0 -65 44.5 -110.5t109.5 -45.5q66 0 109 44.5t43 111.5q0 63 -43 106.5t-109 43.5q-65 0 -109.5 -44t-44.5 -106z" />
<glyph unicode="&#x2dc;" horiz-adv-x="714" d="M588 1472h76q0 -92 -44 -146.5t-119 -54.5q-38 0 -79 17.5t-70 38t-64.5 38t-65.5 17.5q-95 0 -95 -121h-77q0 92 44 146t119 54q48 0 98.5 -27.5t96.5 -55t83 -27.5q95 0 97 121z" />
<glyph unicode="&#x2000;" horiz-adv-x="1034" />
<glyph unicode="&#x2001;" horiz-adv-x="2068" />
<glyph unicode="&#x2002;" horiz-adv-x="1034" />
<glyph unicode="&#x2003;" horiz-adv-x="2068" />
<glyph unicode="&#x2004;" horiz-adv-x="689" />
<glyph unicode="&#x2005;" horiz-adv-x="517" />
<glyph unicode="&#x2006;" horiz-adv-x="344" />
<glyph unicode="&#x2007;" horiz-adv-x="344" />
<glyph unicode="&#x2008;" horiz-adv-x="258" />
<glyph unicode="&#x2009;" horiz-adv-x="413" />
<glyph unicode="&#x200a;" horiz-adv-x="114" />
<glyph unicode="&#x2010;" horiz-adv-x="779" d="M100 472v98h579v-98h-579z" />
<glyph unicode="&#x2011;" horiz-adv-x="779" d="M100 472v98h579v-98h-579z" />
<glyph unicode="&#x2012;" horiz-adv-x="779" d="M100 472v98h579v-98h-579z" />
<glyph unicode="&#x2013;" horiz-adv-x="1144" d="M100 472v98h944v-98h-944z" />
<glyph unicode="&#x2014;" horiz-adv-x="1944" d="M100 472v98h1744v-98h-1744z" />
<glyph unicode="&#x2018;" horiz-adv-x="473" d="M373 1470l-135 -443h-118l153 443h100z" />
<glyph unicode="&#x2019;" horiz-adv-x="473" d="M100 1027l135 443h119l-154 -443h-100z" />
<glyph unicode="&#x201a;" horiz-adv-x="473" d="M100 -227l135 443h119l-154 -443h-100z" />
<glyph unicode="&#x201c;" horiz-adv-x="849" d="M373 1470l-135 -443h-118l153 443h100zM749 1470l-135 -443h-119l154 443h100z" />
<glyph unicode="&#x201d;" horiz-adv-x="849" d="M476 1027l135 443h119l-154 -443h-100zM100 1027l135 443h119l-154 -443h-100z" />
<glyph unicode="&#x201e;" horiz-adv-x="849" d="M100 -227l135 443h119l-154 -443h-100zM476 -227l135 443h119l-154 -443h-100z" />
<glyph unicode="&#x2026;" horiz-adv-x="1522" d="M821 0h-119v216h119v-216zM1328 0h-119v216h119v-216zM314 0h-119v216h119v-216z" />
<glyph unicode="&#x202f;" horiz-adv-x="413" />
<glyph unicode="&#x2039;" horiz-adv-x="628" d="M343 192l-236 373l236 372h117l-232 -372l232 -373h-117z" />
<glyph unicode="&#x203a;" horiz-adv-x="628" d="M521 565l-236 -373h-117l232 373l-232 372h117z" />
<glyph unicode="&#x205f;" horiz-adv-x="517" />
<glyph unicode="&#x20ac;" horiz-adv-x="1503" d="M856 -25q-231 0 -377.5 149t-184.5 421h-256l41 85h206q-3 48 -3 100v10q0 45 3 87h-247l41 85h213q36 278 183.5 430.5t380.5 152.5q211 0 351.5 -118.5t173.5 -345.5h-116q-31 184 -143 274t-267 90q-176 0 -291.5 -126.5t-147.5 -356.5h462l-42 -85h-428 q-3 -42 -3 -87v-10q0 -57 4 -100h469l-42 -85h-418q34 -224 148.5 -347t288.5 -123q155 0 267 90t143 274h116q-33 -227 -173.5 -345.5t-351.5 -118.5z" />
<glyph unicode="&#x25fc;" horiz-adv-x="1040" d="M0 1040h1040v-1040h-1040v1040z" />
</font>
</defs>
</svg>
