<?xml version="1.0" standalone="no"?>
<!DOCTYPE svg PUBLIC "-//W3C//DTD SVG 1.1//EN" "http://www.w3.org/Graphics/SVG/1.1/DTD/svg11.dtd" >
<svg xmlns="http://www.w3.org/2000/svg" xmlns:xlink="http://www.w3.org/1999/xlink" version="1.1">
<metadata></metadata>
<defs>
<font id="antarctica_betaregular" horiz-adv-x="419" >
<font-face units-per-em="2000" ascent="1600" descent="-400" />
<missing-glyph horiz-adv-x="480" />
<glyph horiz-adv-x="1000" />
<glyph horiz-adv-x="1000" />
<glyph unicode="&#xd;" horiz-adv-x="0" />
<glyph unicode=" "  horiz-adv-x="480" />
<glyph unicode="&#x09;" horiz-adv-x="480" />
<glyph unicode="&#xa0;" horiz-adv-x="480" />
<glyph unicode="!" horiz-adv-x="463" d="M223 374l-1 531v565h19l-2 -1096h-16zM241 0h-19v182h19v-182z" />
<glyph unicode="&#x22;" horiz-adv-x="539" d="M419 1470h19v-75l-2 -353h-16l-1 353v75zM100 1470h19v-75l-2 -353h-16l-1 353v75z" />
<glyph unicode="#" horiz-adv-x="1442" d="M191 1004l2 16h292l58 450h18l-59 -450h497l58 450h18l-59 -450h306l-3 -16h-305l-69 -527h305l-2 -16h-305l-60 -461h-17l60 461h-497l-60 -461h-17l60 461h-292l2 16h292l68 527h-291zM431 477h497l68 527h-496z" />
<glyph unicode="$" horiz-adv-x="1236" d="M651 -21h-25v-225h-16v226q-93 4 -171.5 29t-146 74.5t-114.5 132t-66 194.5h19q20 -111 68 -192.5t118 -129.5t153 -70.5t181 -22.5q89 0 169.5 21t148 64t108 116.5t40.5 169.5v2q0 68 -23.5 124t-61.5 94.5t-95.5 69t-115.5 49.5t-132 35l-184 40q-72 16 -131 43 t-109 69t-77.5 104.5t-27.5 140.5v2q0 69 27 128t71.5 99.5t103 69t121.5 42t127 13.5v225h16v-225q188 -6 311 -103t160 -281h-19q-38 180 -162.5 274t-312.5 94q-78 0 -153.5 -23t-136 -65t-97.5 -106.5t-37 -140.5v-2q0 -268 333 -340l184 -40q73 -16 131.5 -35t118 -51 t100 -72.5t65.5 -100t25 -131.5v-2q0 -182 -136.5 -284.5t-348.5 -102.5z" />
<glyph unicode="%" horiz-adv-x="1805" d="M457 659q-147 0 -232 111t-85 304v2q0 193 85 304t232 111t232 -111t85 -304v-2q0 -193 -85 -304t-232 -111zM457 675q132 0 215 101.5t83 297.5v2q0 196 -83 297.5t-215 101.5t-215 -101.5t-83 -297.5v-2q0 -196 83 -297.5t215 -101.5zM574 0l633 1470h19l-633 -1470 h-19zM1348 -21q-147 0 -232 111t-85 304v2q0 193 85 304t232 111t232 -111t85 -304v-2q0 -193 -85 -304t-232 -111zM1348 -5q132 0 215 101.5t83 297.5v2q0 196 -83 297.5t-215 101.5t-215 -101.5t-83 -297.5v-2q0 -196 83 -297.5t215 -101.5z" />
<glyph unicode="&#x26;" horiz-adv-x="1406" d="M1331 0l-245 258q-111 -137 -237 -208t-286 -71q-188 0 -310.5 104t-122.5 275v1q0 154 106.5 267.5t316.5 195.5q-106 117 -154 206t-48 188v1q0 125 81 199.5t209 74.5q126 0 211.5 -75.5t85.5 -194.5v-1q0 -132 -86.5 -231.5t-267.5 -172.5q17 -19 51 -55l450 -475 q127 164 250 409h20q-124 -253 -257 -422l258 -273h-25zM572 829q181 75 264 169.5t83 221.5v1q0 112 -80.5 183t-197.5 71q-113 0 -192 -68.5t-79 -189.5v-1q0 -97 48 -184t154 -203zM1074 272l-455 479q-36 38 -53 57q-204 -77 -310.5 -186t-106.5 -263v-1 q0 -163 118.5 -263t295.5 -100q156 0 279 70.5t232 206.5z" />
<glyph unicode="'" horiz-adv-x="219" d="M100 1470h19v-75l-2 -353h-16l-1 353v75z" />
<glyph unicode="(" horiz-adv-x="423" d="M373 1524q-117 -187 -185.5 -431.5t-68.5 -480.5t68.5 -480.5t185.5 -431.5h-19q-109 163 -181.5 418.5t-72.5 493.5t72.5 493.5t181.5 418.5h19z" />
<glyph unicode=")" horiz-adv-x="423" d="M50 1524h19q109 -163 181.5 -418.5t72.5 -493.5t-72.5 -493.5t-181.5 -418.5h-19q117 187 185.5 431.5t68.5 480.5t-68.5 480.5t-185.5 431.5z" />
<glyph unicode="*" horiz-adv-x="656" d="M195 1035l-13 10l133 183l-215 70l5 15l215 -70v227h16v-227l215 70l5 -15l-215 -70l133 -183l-13 -10l-133 183z" />
<glyph unicode="+" horiz-adv-x="1242" d="M612 744v512h16v-512h514v-16h-514v-514h-16v514h-512v16h512z" />
<glyph unicode="," horiz-adv-x="407" d="M120 -228l128 410h19l-128 -410h-19z" />
<glyph unicode="-" horiz-adv-x="760" d="M100 512v16h560v-16h-560z" />
<glyph unicode="." horiz-adv-x="463" d="M241 0h-19v182h19v-182z" />
<glyph unicode="/" horiz-adv-x="868" d="M120 -206l611 1676h17l-611 -1676h-17z" />
<glyph unicode="0" horiz-adv-x="1332" d="M666 -21q-172 0 -292.5 98t-177 265.5t-56.5 391.5v2q0 224 56.5 391.5t177 265.5t292.5 98t292.5 -98t177 -265.5t56.5 -391.5v-2q0 -224 -56.5 -391.5t-177 -265.5t-292.5 -98zM666 -5q165 0 281 95t171 259.5t55 384.5v2q0 220 -55 384.5t-171 259.5t-281 95t-281 -95 t-171 -259.5t-55 -384.5v-2q0 -220 55 -384.5t171 -259.5t281 -95z" />
<glyph unicode="1" horiz-adv-x="750" d="M401 0v1265h-321v16h233q26 0 37 0.5t24 8t16.5 16t8 35t5 53.5t1.5 82h15v-1476h-19z" />
<glyph unicode="2" horiz-adv-x="1270" d="M140 0v9q0 86 29 165.5t70.5 138.5t108.5 119t121 98.5t129 85.5l127 79q79 49 133 91t102.5 95t72.5 115.5t24 135.5v2q0 105 -56.5 184t-147 118t-200.5 39q-82 0 -155.5 -21.5t-139.5 -66.5t-107.5 -126.5t-47.5 -190.5h-19q4 86 30.5 156t69.5 118.5t101.5 82 t125.5 49t142 15.5q116 0 211 -41t153.5 -123.5t58.5 -192.5v-2q0 -74 -24 -138t-73 -119.5t-105 -99.5t-138 -95l-127 -79q-74 -46 -128.5 -84.5t-119 -97t-105.5 -115.5t-69 -132.5t-28 -155.5h971v-16h-990z" />
<glyph unicode="3" horiz-adv-x="1274" d="M655 -21q-210 0 -345.5 103t-169.5 292h19q34 -182 165.5 -280.5t330.5 -98.5q210 0 335 103t125 284v2q0 89 -38.5 160.5t-106 117t-156 69.5t-191.5 24h-105v16h105q107 0 193 30t140 80.5t82.5 114.5t28.5 135v2q0 157 -113 249.5t-299 92.5q-181 0 -294 -94.5 t-140 -269.5h-19q28 184 146 282t307 98q196 0 313.5 -96.5t117.5 -261.5v-2q0 -148 -100 -245t-250 -121v-2q77 -10 145.5 -36.5t126.5 -71t92 -114.5t34 -157v-2q0 -189 -130 -296t-349 -107z" />
<glyph unicode="4" horiz-adv-x="1324" d="M919 0v421h-849v16l849 1033h19v-1033h316v-16h-316v-421h-19zM93 437h826v1004h-1z" />
<glyph unicode="5" horiz-adv-x="1248" d="M629 -21q-202 0 -328.5 100.5t-160.5 291.5h19q33 -182 155 -279t315 -97q194 0 327 128.5t133 337.5v2q0 204 -123 337.5t-321 133.5q-142 0 -251.5 -63t-171.5 -172l-18 5l101 766h750v-16h-733l-94 -713q61 91 165.5 150t251.5 59q206 0 334.5 -136t128.5 -351v-2 q0 -216 -137.5 -349t-341.5 -133z" />
<glyph unicode="6" horiz-adv-x="1263" d="M638 -21q-104 0 -192.5 35t-157.5 103t-108.5 178.5t-39.5 251.5v6q0 241 38 422.5t109.5 293.5t168.5 167t219 55q169 0 277.5 -87.5t139.5 -231.5h-19q-34 143 -139 223t-259 80q-245 0 -382 -234t-134 -702q31 184 162.5 296t316.5 112q212 0 348.5 -138t136.5 -345 v-2q0 -207 -136.5 -345t-348.5 -138zM638 -5q199 0 332.5 131t133.5 336v2q0 203 -133.5 335t-332.5 132q-194 0 -330 -133t-136 -334v-2q0 -200 130 -333.5t336 -133.5z" />
<glyph unicode="7" horiz-adv-x="1102" d="M375 0q12 273 57.5 492.5t127.5 394t192 310.5t261 257h-953v16h982v-16q-315 -244 -469.5 -583t-178.5 -871h-19z" />
<glyph unicode="8" horiz-adv-x="1272" d="M636 -21q-223 0 -359.5 108.5t-136.5 293.5v2q0 92 34 165t91.5 119t122 73t135.5 37v2q-146 29 -241.5 117.5t-95.5 232.5v1q0 160 126 260.5t324 100.5t324 -100.5t126 -260.5v-1q0 -144 -95.5 -232.5t-241.5 -117.5v-2q71 -10 135.5 -37t122 -73t91.5 -119t34 -165v-2 q0 -185 -136.5 -293.5t-359.5 -108.5zM636 785q116 0 212.5 39t157.5 119t61 186v1q0 106 -60.5 186t-157.5 119.5t-213 39.5t-213 -39.5t-157.5 -119.5t-60.5 -186v-1q0 -106 61 -186t157.5 -119t212.5 -39zM636 -5q214 0 345.5 104t131.5 282v2q0 178 -131.5 282 t-345.5 104t-345.5 -104t-131.5 -282v-2q0 -178 131.5 -282t345.5 -104z" />
<glyph unicode="9" horiz-adv-x="1263" d="M625 1491q104 0 192.5 -35t157.5 -103t108.5 -178.5t39.5 -251.5v-6q0 -241 -38 -422.5t-109.5 -293.5t-168.5 -167t-219 -55q-169 0 -277.5 87.5t-139.5 231.5h19q34 -143 139 -223t259 -80q245 0 382 234t134 702q-31 -184 -162.5 -296t-316.5 -112q-212 0 -348.5 138 t-136.5 345v2q0 207 136.5 345t348.5 138zM625 1475q-199 0 -332.5 -131t-133.5 -336v-2q0 -203 133.5 -335t332.5 -132q194 0 330 133t136 334v2q0 200 -130 333.5t-336 133.5z" />
<glyph unicode=":" horiz-adv-x="463" d="M241 860h-19v182h19v-182zM241 0h-19v182h19v-182z" />
<glyph unicode=";" horiz-adv-x="487" d="M265 860h-19v182h19v-182zM120 -228l128 410h19l-128 -410h-19z" />
<glyph unicode="&#x3c;" horiz-adv-x="1013" d="M100 744l813 425v-19l-789 -413v-2l789 -413v-19l-813 425v16z" />
<glyph unicode="=" horiz-adv-x="1242" d="M100 914v16h1042v-16h-1042zM100 549v16h1042v-16h-1042z" />
<glyph unicode="&#x3e;" horiz-adv-x="1013" d="M100 1169l813 -425v-16l-813 -425v19l789 413v2l-789 413v19z" />
<glyph unicode="?" horiz-adv-x="1015" d="M496 1475q-174 0 -290.5 -111t-116.5 -278h-19q0 175 120.5 290t305.5 115q192 0 305.5 -99t113.5 -258v-1q0 -101 -44 -184.5t-135 -169.5l-66 -63q-98 -93 -137.5 -166t-39.5 -176h-19q0 107 40.5 181.5t141.5 171.5l64 61q91 87 133.5 167t42.5 178v1 q0 152 -109 246.5t-291 94.5zM494 0h-19v182h19v-182z" />
<glyph unicode="@" horiz-adv-x="1712" d="M740 240q-133 0 -217 91t-84 249v2q0 94 28.5 182.5t81 158.5t134.5 112.5t180 42.5q124 0 200 -66.5t90 -191.5l34 221h19l-85 -544q-9 -46 -3.5 -91t21 -80.5t53 -57.5t91.5 -22q60 0 117 34t103 96t73.5 159t26.5 212v2q0 149 -52.5 269.5t-146 199.5t-222 121.5 t-281.5 42.5q-170 0 -318 -60.5t-251.5 -165.5t-163 -249.5t-59.5 -308.5v-2q-1 -149 52.5 -278t147.5 -220t228 -143.5t289 -52.5q116 0 234 26t202 68l7 -14q-91 -45 -209 -70.5t-234 -25.5q-130 0 -245 34.5t-204 98t-154 150.5t-99 196t-34 231v2q0 230 106.5 413.5 t291.5 285t413 101.5q122 0 230 -25.5t198 -78.5t155 -129t101.5 -182.5t36.5 -233.5v-2q0 -121 -29 -221t-77.5 -163.5t-108.5 -98t-124 -34.5q-111 0 -155 77.5t-25 197.5q-16 -42 -44 -83.5t-71.5 -84.5t-108.5 -70t-139 -27zM741 256q91 0 168.5 45t126.5 117 t76.5 159.5t27.5 176.5v2q0 143 -72 224.5t-206 81.5q-93 0 -171 -42t-128 -110.5t-77.5 -153.5t-27.5 -175v-2q0 -147 78 -235t205 -88z" />
<glyph unicode="A" horiz-adv-x="1270" d="M60 0l570 1485h10l570 -1485h-20l-195 510h-720l-195 -510h-20zM281 526h708l-353 921h-2z" />
<glyph unicode="B" horiz-adv-x="1363" d="M230 0v1470h463q97 0 176.5 -20.5t142 -62.5t97 -113.5t34.5 -167.5v-2q0 -145 -84 -234t-231 -115v-2q82 -5 152 -29.5t125 -67.5t86.5 -111.5t31.5 -154.5v-2q0 -101 -35.5 -177t-100 -121.5t-149 -67.5t-189.5 -22h-519zM249 758h450q121 0 214.5 35.5t152 115.5 t58.5 197v2q0 118 -58 197.5t-151 114t-216 34.5h-450v-696zM249 16h503q218 0 335 95.5t117 276.5v2q0 166 -119 259t-333 93h-503v-726z" />
<glyph unicode="C" horiz-adv-x="1580" d="M823 -21q-204 0 -362.5 98t-244.5 269.5t-86 387.5v2q0 216 86 387.5t244.5 269.5t362.5 98q235 0 401.5 -114.5t225.5 -325.5h-19q-38 135 -127.5 231.5t-212 144.5t-268.5 48q-196 0 -350.5 -95.5t-239 -264t-84.5 -379.5v-2q0 -211 84.5 -379.5t239 -264t350.5 -95.5 q146 0 268.5 48t212 144.5t127.5 231.5h19q-59 -211 -225.5 -325.5t-401.5 -114.5z" />
<glyph unicode="D" horiz-adv-x="1471" d="M230 0v1470h273q137 0 257.5 -23.5t228.5 -79t185 -138.5t122 -209t45 -284v-2q0 -158 -45 -284t-122 -209t-185 -138.5t-228.5 -79t-257.5 -23.5h-273zM249 16h254q120 0 229.5 19t219.5 69.5t190 129t130 207t50 293.5v2q0 165 -50 293.5t-130 207t-190 129 t-219.5 69.5t-229.5 19h-254v-1438z" />
<glyph unicode="E" horiz-adv-x="1211" d="M230 0v1470h881v-16h-862v-695h816v-16h-816v-727h862v-16h-881z" />
<glyph unicode="F" horiz-adv-x="1151" d="M230 0v1470h861v-16h-842v-695h796v-16h-796v-743h-19z" />
<glyph unicode="G" horiz-adv-x="1680" d="M823 -21q-204 0 -362.5 98t-244.5 269.5t-86 387.5v2q0 216 86 387.5t244.5 269.5t362.5 98q234 0 400 -113.5t227 -321.5h-19q-60 200 -223.5 309.5t-384.5 109.5q-196 0 -350.5 -95.5t-239 -264t-84.5 -379.5v-2q0 -211 84.5 -379.5t239 -264t350.5 -95.5 q93 0 178 18.5t162.5 60t133.5 102.5t89.5 151.5t33.5 201.5v161h-536v16h555v-706h-19v376q-44 -182 -199 -289.5t-398 -107.5z" />
<glyph unicode="H" horiz-adv-x="1506" d="M230 0v1470h19v-711h1008v711h19v-1470h-19v743h-1008v-743h-19z" />
<glyph unicode="I" horiz-adv-x="479" d="M230 0v1470h19v-1470h-19z" />
<glyph unicode="J" horiz-adv-x="1124" d="M502 -21q-85 0 -154 21t-127 67.5t-92 130.5t-39 200h19q4 -110 36 -190t87 -125.5t121.5 -66.5t148.5 -21q83 0 149 22t120.5 70.5t84 135t29.5 206.5v1041h19v-1041q0 -124 -31.5 -214t-88.5 -140t-126.5 -73t-155.5 -23z" />
<glyph unicode="K" horiz-adv-x="1319" d="M230 0v1470h19v-720l985 720h32l-996 -728l1008 -742h-33l-996 735v-735h-19z" />
<glyph unicode="L" horiz-adv-x="1133" d="M230 0v1470h19v-1454h842v-16h-861z" />
<glyph unicode="M" horiz-adv-x="1850" d="M230 0v1470h25l669 -1446h2l669 1446h25v-1470h-19v1436h-2l-669 -1446h-10l-669 1446h-2v-1436h-19z" />
<glyph unicode="N" horiz-adv-x="1506" d="M230 0v1470h19l1006 -1435h2v1435h19v-1470h-19l-1006 1436h-2v-1436h-19z" />
<glyph unicode="O" horiz-adv-x="1646" d="M823 -21q-204 0 -362.5 98t-244.5 269.5t-86 387.5v2q0 216 86 387.5t244.5 269.5t362.5 98t362.5 -98t244.5 -269.5t86 -387.5v-2q0 -216 -86 -387.5t-244.5 -269.5t-362.5 -98zM823 -5q196 0 350.5 95.5t239 264t84.5 379.5v2q0 211 -84.5 379.5t-239 264t-350.5 95.5 t-350.5 -95.5t-239 -264t-84.5 -379.5v-2q0 -211 84.5 -379.5t239 -264t350.5 -95.5z" />
<glyph unicode="P" horiz-adv-x="1240" d="M230 0v1470h394q129 0 227 -20t174 -64t115.5 -120.5t39.5 -184.5v-2q0 -108 -39.5 -184.5t-115.5 -120.5t-174 -64t-227 -20h-375v-690h-19zM249 706h375q94 0 170.5 10.5t146.5 36.5t117.5 67.5t75 107t27.5 151.5v2q0 86 -27.5 151.5t-75 107t-117.5 67.5t-146.5 36.5 t-170.5 10.5h-375v-748z" />
<glyph unicode="Q" horiz-adv-x="1646" d="M823 -21q-204 0 -362.5 98t-244.5 269.5t-86 387.5v2q0 216 86 387.5t244.5 269.5t362.5 98t362.5 -98t244.5 -269.5t86 -387.5v-2q0 -230 -98 -409.5t-271 -269.5l330 -266h-29l-319 257q-140 -67 -306 -67zM823 -5q196 0 350.5 95.5t239 264t84.5 379.5v2 q0 211 -84.5 379.5t-239 264t-350.5 95.5t-350.5 -95.5t-239 -264t-84.5 -379.5v-2q0 -211 84.5 -379.5t239 -264t350.5 -95.5z" />
<glyph unicode="R" horiz-adv-x="1344" d="M230 0v1470h394q130 0 227 -18.5t173.5 -60.5t116 -117.5t39.5 -182.5v-2q0 -83 -24.5 -147t-68.5 -106.5t-110.5 -70.5t-143 -40.5t-173.5 -14.5l594 -710h-23l-594 710h-13h-375v-710h-19zM249 726h375q95 0 171 9.5t146.5 34t117 64.5t74.5 104.5t28 150.5v2 q0 86 -28 150.5t-74.5 104.5t-117 64.5t-146.5 34t-171 9.5h-375v-728z" />
<glyph unicode="S" horiz-adv-x="1236" d="M651 -21q-100 0 -184.5 22.5t-158.5 71t-125 134t-71 203.5h19q20 -111 68 -192.5t118 -129.5t153 -70.5t181 -22.5q89 0 169.5 21t148 64t108 116.5t40.5 169.5v2q0 68 -23.5 124t-61.5 94.5t-95.5 69t-115.5 49.5t-132 35l-184 40q-72 16 -131 43t-109 69t-77.5 104.5 t-27.5 140.5v2q0 108 65.5 190t165 122t212.5 40q197 0 326.5 -97t167.5 -287h-19q-38 180 -162.5 274t-312.5 94q-78 0 -153.5 -23t-136 -65t-97.5 -106.5t-37 -140.5v-2q0 -268 333 -340l184 -40q73 -16 131.5 -35t118 -51t100 -72.5t65.5 -100t25 -131.5v-2 q0 -182 -136.5 -284.5t-348.5 -102.5z" />
<glyph unicode="T" horiz-adv-x="1245" d="M613 0v1454h-593v16h1205v-16h-593v-1454h-19z" />
<glyph unicode="U" horiz-adv-x="1466" d="M733 -21q-277 0 -400 141.5t-123 448.5v901h19v-903q0 -297 117.5 -434.5t386.5 -137.5t386.5 137.5t117.5 434.5v903h19v-901q0 -307 -123 -448.5t-400 -141.5z" />
<glyph unicode="V" horiz-adv-x="1330" d="M660 -15l-610 1485h20l594 -1447h2l594 1447h20l-610 -1485h-10z" />
<glyph unicode="W" horiz-adv-x="1864" d="M515 -15l-450 1485h20l435 -1437l407 1446h10l408 -1446l434 1437h20l-449 -1485h-10l-408 1445l-407 -1445h-10z" />
<glyph unicode="X" horiz-adv-x="1357" d="M80 0l587 744l-542 726h24l530 -710l529 710h24l-542 -726l587 -744h-24l-574 729l-575 -729h-24z" />
<glyph unicode="Y" horiz-adv-x="1239" d="M611 0v695l-581 775h23l566 -757h2l565 757h23l-579 -775v-695h-19z" />
<glyph unicode="Z" horiz-adv-x="1232" d="M84 0v16l1017 1438h-939v16h961v-16l-1017 -1438h1046v-16h-1068z" />
<glyph unicode="[" horiz-adv-x="650" d="M100 -300v1826h450v-16h-431v-1794h431v-16h-450z" />
<glyph unicode="\" horiz-adv-x="868" d="M137 1470l611 -1676h-17l-611 1676h17z" />
<glyph unicode="]" horiz-adv-x="650" d="M550 1526v-1826h-450v16h431v1794h-431v16h450z" />
<glyph unicode="_" horiz-adv-x="1030" d="M50 -201v16h930v-16h-930z" />
<glyph unicode="`" horiz-adv-x="385" d="M308 1212l-258 258h27l258 -258h-27z" />
<glyph unicode="a" horiz-adv-x="1112" d="M463 -21q-93 0 -171.5 31t-129.5 96.5t-51 152.5v2q0 63 23.5 112.5t73 86t114 63t158 44.5t194 29.5t231.5 19.5v68q0 101 -24.5 171.5t-72 110t-107.5 56.5t-140 17q-167 0 -267 -84.5t-105 -217.5h-19q8 146 114 232t277 86q85 0 149.5 -19t114 -61t74.5 -114.5 t25 -175.5l-1 -308q-1 -250 9 -377h-20q-8 108 -8 297q-42 -157 -159 -237.5t-282 -80.5zM905 599q-158 -9 -276.5 -24t-215.5 -41t-157.5 -63t-93 -89t-32.5 -120v-2q-1 -120 97 -192.5t244 -72.5q83 0 157 25t137 77t100.5 142.5t38.5 209.5z" />
<glyph unicode="b" horiz-adv-x="1231" d="M650 -21q-152 0 -271.5 97.5t-159.5 268.5v-345h-19v1470h19v-781q40 171 159.5 268.5t271.5 97.5q94 0 177.5 -36t146.5 -102.5t100 -169.5t37 -229v-2q0 -126 -37 -229t-100 -169.5t-146.5 -102.5t-177.5 -36zM650 -5q90 0 169.5 35.5t140.5 100t96.5 164.5t35.5 221v2 q0 121 -35.5 221t-96.5 164.5t-140.5 100t-169.5 35.5q-88 0 -166 -36t-137.5 -101t-94.5 -164.5t-35 -219.5v-2q0 -120 35 -219.5t94.5 -164.5t137.5 -101t166 -36z" />
<glyph unicode="c" horiz-adv-x="1171" d="M604 -21q-98 0 -185.5 36.5t-154 104t-105.5 170t-39 226.5v2q0 124 39 226.5t105.5 170t154 104t185.5 36.5q170 0 287 -85t160 -232h-19q-42 138 -154 219.5t-274 81.5q-94 0 -178 -35.5t-148 -100.5t-101.5 -164.5t-37.5 -220.5v-2q0 -121 37.5 -220.5t101.5 -164.5 t148 -100.5t178 -35.5q162 0 274 81.5t154 219.5h19q-43 -147 -160 -232t-287 -85z" />
<glyph unicode="d" horiz-adv-x="1231" d="M581 -21q-94 0 -177.5 36t-146.5 102.5t-100 169.5t-37 229v2q0 126 37 229t100 169.5t146.5 102.5t177.5 36q152 0 271.5 -97.5t159.5 -268.5v781h19v-1470h-19v345q-40 -171 -159.5 -268.5t-271.5 -97.5zM581 -5q88 0 166 36t137.5 101t94.5 164.5t35 219.5v2 q0 120 -35 219.5t-94.5 164.5t-137.5 101t-166 36q-90 0 -169.5 -35.5t-140.5 -100t-96.5 -164.5t-35.5 -221v-2q0 -121 35.5 -221t96.5 -164.5t140.5 -100t169.5 -35.5z" />
<glyph unicode="e" horiz-adv-x="1202" d="M619 -21q-104 0 -194.5 36.5t-158.5 104t-107 170t-39 226.5v2q0 124 39 226.5t106 170t155 104t188 36.5q207 0 338.5 -143t135.5 -377v-1h-943v-16v-2q0 -121 38 -220.5t103 -164.5t152.5 -100.5t186.5 -35.5q170 0 282.5 81t154.5 220h19q-43 -148 -160.5 -232.5 t-295.5 -84.5zM140 550h923v1q-7 216 -133 352t-322 136q-124 0 -227 -56.5t-169 -169t-72 -263.5z" />
<glyph unicode="f" horiz-adv-x="621" d="M259 0v1026h-189v16h189v117q0 311 281 311h11v-16h-11q-139 0 -200.5 -76t-61.5 -219v-117h265v-16h-265v-1026h-19z" />
<glyph unicode="g" horiz-adv-x="1231" d="M581 42q-94 0 -177.5 34t-146.5 96.5t-100 159.5t-37 216v2q0 119 37 215.5t100 159.5t146.5 96.5t177.5 33.5q153 0 272 -92t159 -253v332h19v-996q0 -118 -33.5 -206t-94.5 -139t-138.5 -75.5t-173.5 -24.5q-179 0 -300 93t-136 261h19q11 -149 125.5 -243.5 t291.5 -94.5q67 0 125.5 12.5t114 43.5t95 78.5t63 123t23.5 171.5v341q-40 -161 -159 -253t-272 -92zM581 58q88 0 166 33.5t137.5 95t94.5 155t35 206.5v2q0 223 -125.5 356t-307.5 133q-90 0 -169.5 -33t-140.5 -94t-96.5 -154.5t-35.5 -207.5v-2q0 -114 35.5 -208 t96.5 -155t140.5 -94t169.5 -33z" />
<glyph unicode="h" horiz-adv-x="1139" d="M200 0v1470h19v-716q33 144 131.5 222.5t245.5 78.5q190 0 291.5 -109.5t101.5 -315.5v-630h-19v630q0 208 -101 308.5t-273 100.5q-180 0 -278.5 -120t-98.5 -323v-596h-19z" />
<glyph unicode="i" d="M200 1273v197h19v-197h-19zM200 0v1042h19v-1042h-19z" />
<glyph unicode="j" d="M200 1273v197h19v-197h-19zM-5 -385v16h23q59 0 96 16.5t55.5 53.5t24.5 81t6 115v1145h19v-1145q0 -72 -7 -119t-27.5 -86.5t-60.5 -58t-102 -18.5h-27z" />
<glyph unicode="k" horiz-adv-x="1015" d="M205 0v1470h19v-903l693 475h34l-712 -488l739 -554h-32l-722 541v-541h-19z" />
<glyph unicode="l" d="M200 0v1470h19v-1470h-19z" />
<glyph unicode="m" horiz-adv-x="1929" d="M200 0v1042h19v-288q33 144 131.5 222.5t245.5 78.5q165 0 264 -83.5t122 -241.5q31 160 133.5 242.5t250.5 82.5q190 0 291.5 -109.5t101.5 -315.5v-630h-19v630q0 208 -101 308.5t-273 100.5q-180 0 -278.5 -120t-98.5 -323v-596h-19v630q0 208 -101 308.5t-273 100.5 q-180 0 -278.5 -120t-98.5 -323v-596h-19z" />
<glyph unicode="n" horiz-adv-x="1159" d="M200 0v1042h19v-288q33 144 131.5 222.5t245.5 78.5q190 0 291.5 -109.5t101.5 -315.5v-630h-19v630q0 208 -101 308.5t-273 100.5q-180 0 -278.5 -120t-98.5 -323v-596h-19z" />
<glyph unicode="o" horiz-adv-x="1228" d="M614 -21q-98 0 -187 36.5t-157.5 103.5t-109 170t-40.5 227v2q0 124 40.5 227t109 170t157.5 103.5t187 36.5t187 -36.5t157.5 -103.5t109 -170t40.5 -227v-2q0 -124 -40.5 -227t-109 -170t-157.5 -103.5t-187 -36.5zM614 -5q94 0 179.5 35.5t151.5 100.5t105 165t39 220 v2q0 120 -39 220t-105 165t-151.5 100.5t-179.5 35.5t-179.5 -35.5t-151.5 -100.5t-105 -165t-39 -220v-2q0 -120 39 -220t105 -165t151.5 -100.5t179.5 -35.5z" />
<glyph unicode="p" horiz-adv-x="1231" d="M650 -21q-152 0 -271.5 97.5t-159.5 268.5v-730h-19v1427h19v-353q40 171 159.5 268.5t271.5 97.5q94 0 177.5 -36t146.5 -102.5t100 -169.5t37 -229v-2q0 -126 -37 -229t-100 -169.5t-146.5 -102.5t-177.5 -36zM650 -5q90 0 169.5 35.5t140.5 100t96.5 164.5t35.5 221v2 q0 121 -35.5 221t-96.5 164.5t-140.5 100t-169.5 35.5q-88 0 -166 -36t-137.5 -101t-94.5 -164.5t-35 -219.5v-2q0 -120 35 -219.5t94.5 -164.5t137.5 -101t166 -36z" />
<glyph unicode="q" horiz-adv-x="1231" d="M581 -21q-94 0 -177.5 36t-146.5 102.5t-100 169.5t-37 229v2q0 126 37 229t100 169.5t146.5 102.5t177.5 36q152 0 271.5 -97.5t159.5 -268.5v353h19v-1427h-19v730q-40 -171 -159.5 -268.5t-271.5 -97.5zM581 -5q88 0 166 36t137.5 101t94.5 164.5t35 219.5v2 q0 120 -35 219.5t-94.5 164.5t-137.5 101t-166 36q-90 0 -169.5 -35.5t-140.5 -100t-96.5 -164.5t-35.5 -221v-2q0 -121 35.5 -221t96.5 -164.5t140.5 -100t169.5 -35.5z" />
<glyph unicode="r" horiz-adv-x="623" d="M200 0v1042h19v-319q28 147 114 238t227 91h31v-16h-31q-74 0 -132.5 -28t-97 -75.5t-64 -113t-36.5 -137t-11 -150.5v-532h-19z" />
<glyph unicode="s" horiz-adv-x="994" d="M514 -21q-358 0 -415 319h19q58 -303 398 -303q100 0 179 27.5t129.5 89t50.5 149.5v2q0 40 -10.5 73.5t-27.5 58t-44.5 44.5t-53.5 33t-63 24t-66 17.5t-68 13.5l-134 24q-286 51 -286 252v2q0 113 104 181.5t259 68.5q322 0 380 -268h-19q-61 252 -363 252 q-84 0 -159.5 -24.5t-129 -80t-53.5 -131.5v-2q0 -183 272 -232l139 -25q56 -10 97.5 -20.5t90.5 -32.5t80.5 -50.5t52.5 -74t21 -103.5v-2q0 -135 -104 -208.5t-276 -73.5z" />
<glyph unicode="t" horiz-adv-x="593" d="M458 0q-126 0 -175 67t-49 213v746h-189v16h189v231h19v-231h265v-16h-265v-744q0 -141 44.5 -203.5t160.5 -62.5h51v-16h-51z" />
<glyph unicode="u" horiz-adv-x="1159" d="M563 -21q-190 0 -291.5 109.5t-101.5 315.5v638h19v-638q0 -208 101 -308.5t273 -100.5q180 0 278.5 120t98.5 323v604h19v-1042h-19v280q-33 -144 -131.5 -222.5t-245.5 -78.5z" />
<glyph unicode="v" horiz-adv-x="1053" d="M522 -10l-462 1052h21l446 -1017l445 1017h21l-461 -1052h-10z" />
<glyph unicode="w" horiz-adv-x="1564" d="M414 -10l-344 1052h20l329 -1008l358 1018h10l357 -1019l330 1009h20l-344 -1052h-10l-358 1020l-358 -1020h-10z" />
<glyph unicode="x" horiz-adv-x="1085" d="M90 0l441 536l-416 506h24l404 -491l403 491h24l-415 -506l440 -536h-24l-428 522l-429 -522h-24z" />
<glyph unicode="y" horiz-adv-x="1065" d="M327 -385l188 410l-455 1017h20l445 -992h2l457 992h21l-658 -1427h-20z" />
<glyph unicode="z" horiz-adv-x="961" d="M85 0v16l759 1010h-715v16h738v-16l-759 -1010h768v-16h-791z" />
<glyph unicode="{" horiz-adv-x="643" d="M80 605v16q60 20 94 59t45.5 85t11.5 112v355q0 151 65 222.5t202 71.5h45v-16h-45q-128 0 -188 -67t-60 -211v-355q0 -102 -31 -165.5t-116 -97.5v-1q85 -34 116 -98t31 -166v-355q0 -144 60 -211t188 -67h45v-16h-45q-137 0 -202 71.5t-65 222.5v355q0 66 -11.5 112 t-45.5 85t-94 59z" />
<glyph unicode="|" horiz-adv-x="256" d="M120 -201v1847h16v-1847h-16z" />
<glyph unicode="}" horiz-adv-x="643" d="M563 621v-16q-60 -20 -94 -59t-45.5 -85t-11.5 -112v-355q0 -151 -65 -222.5t-202 -71.5h-45v16h45q128 0 188 67t60 211v355q0 102 31 166t116 98v1q-85 34 -116 97.5t-31 165.5v355q0 144 -60 211t-188 67h-45v16h45q137 0 202 -71.5t65 -222.5v-355q0 -66 11.5 -112 t45.5 -85t94 -59z" />
<glyph unicode="&#xa2;" horiz-adv-x="1171" d="M593 235v180q-96 2 -181.5 40t-150.5 105t-103 168.5t-38 223.5v2q0 122 38 223.5t103 168.5t150.5 105t181.5 40v180h16v-180q168 -1 284 -86t158 -231h-19q-42 138 -154 219.5t-274 81.5q-94 0 -178 -35.5t-148 -100.5t-101.5 -164.5t-37.5 -220.5v-2 q0 -121 37.5 -220.5t101.5 -164.5t148 -100.5t178 -35.5q162 0 274 81.5t154 219.5h19q-42 -146 -158 -231t-284 -86v-180h-16z" />
<glyph unicode="&#xa3;" horiz-adv-x="1204" d="M100 708v16h238q0 1 -1 3t-1 3l-27 75q-70 194 -70 302v2q0 175 113.5 278.5t295.5 103.5q185 0 297.5 -95.5t128.5 -286.5h-19q-19 189 -126 277.5t-281 88.5q-172 0 -281 -99t-109 -267v-2q0 -107 68 -297l27 -75q1 -2 2 -5.5t2 -5.5h431v-16h-425q66 -188 66 -293v-2 q0 -134 -61.5 -243t-165.5 -154h855v-16h-917v16q116 19 193 132t77 265v2q0 110 -66 293h-244z" />
<glyph unicode="&#xa8;" horiz-adv-x="616" d="M69 1288h-19v182h19v-182zM566 1288h-19v182h19v-182z" />
<glyph unicode="&#xab;" horiz-adv-x="975" d="M356 192l-236 373l236 372h20l-236 -372l236 -373h-20zM755 192l-236 373l236 372h20l-236 -372l236 -373h-20z" />
<glyph unicode="&#xad;" horiz-adv-x="760" d="M100 512v16h560v-16h-560z" />
<glyph unicode="&#xb4;" horiz-adv-x="385" d="M335 1470l-258 -258h-27l258 258h27z" />
<glyph unicode="&#xb8;" horiz-adv-x="241" d="M50 -338l122 242h19l-122 -242h-19z" />
<glyph unicode="&#xbb;" horiz-adv-x="975" d="M855 565l-236 -373h-20l236 373l-236 372h20zM456 565l-236 -373h-20l236 373l-236 372h20z" />
<glyph unicode="&#xc2;" horiz-adv-x="1270" d="M367 1630l255 268h26l255 -268h-26l-242 254l-242 -254h-26zM60 0l570 1485h10l570 -1485h-20l-195 510h-720l-195 -510h-20zM281 526h708l-353 921h-2z" />
<glyph unicode="&#xce;" horiz-adv-x="479" d="M-28 1630l255 268h26l255 -268h-26l-242 254l-242 -254h-26zM230 0v1470h19v-1470h-19z" />
<glyph unicode="&#xe2;" horiz-adv-x="1112" d="M334 1212l215 258h25l215 -258h-25l-202 243l-203 -243h-25zM463 -21q-93 0 -171.5 31t-129.5 96.5t-51 152.5v2q0 63 23.5 112.5t73 86t114 63t158 44.5t194 29.5t231.5 19.5v68q0 101 -24.5 171.5t-72 110t-107.5 56.5t-140 17q-167 0 -267 -84.5t-105 -217.5h-19 q8 146 114 232t277 86q85 0 149.5 -19t114 -61t74.5 -114.5t25 -175.5l-1 -308q-1 -250 9 -377h-20q-8 108 -8 297q-42 -157 -159 -237.5t-282 -80.5zM905 599q-158 -9 -276.5 -24t-215.5 -41t-157.5 -63t-93 -89t-32.5 -120v-2q-1 -120 97 -192.5t244 -72.5q83 0 157 25 t137 77t100.5 142.5t38.5 209.5z" />
<glyph unicode="&#xee;" d="M-18 1212l215 258h25l215 -258h-25l-202 243l-203 -243h-25zM200 0v1042h19v-1042h-19z" />
<glyph unicode="&#x100;" horiz-adv-x="1270" d="M360 1879v19h550v-19h-550zM60 0l570 1485h10l570 -1485h-20l-195 510h-720l-195 -510h-20zM281 526h708l-353 921h-2z" />
<glyph unicode="&#x101;" horiz-adv-x="1112" d="M287 1451v19h550v-19h-550zM463 -21q-93 0 -171.5 31t-129.5 96.5t-51 152.5v2q0 63 23.5 112.5t73 86t114 63t158 44.5t194 29.5t231.5 19.5v68q0 101 -24.5 171.5t-72 110t-107.5 56.5t-140 17q-167 0 -267 -84.5t-105 -217.5h-19q8 146 114 232t277 86q85 0 149.5 -19 t114 -61t74.5 -114.5t25 -175.5l-1 -308q-1 -250 9 -377h-20q-8 108 -8 297q-42 -157 -159 -237.5t-282 -80.5zM905 599q-158 -9 -276.5 -24t-215.5 -41t-157.5 -63t-93 -89t-32.5 -120v-2q-1 -120 97 -192.5t244 -72.5q83 0 157 25t137 77t100.5 142.5t38.5 209.5z" />
<glyph unicode="&#x102;" horiz-adv-x="1270" d="M404 1898h20q22 -69 77.5 -106t133.5 -37t133.5 37t77.5 106h20q-22 -75 -83 -118.5t-148 -43.5t-148 43.5t-83 118.5zM60 0l570 1485h10l570 -1485h-20l-195 510h-720l-195 -510h-20zM281 526h708l-353 921h-2z" />
<glyph unicode="&#x103;" horiz-adv-x="1112" d="M331 1470h20q22 -69 77.5 -106t133.5 -37t133.5 37t77.5 106h20q-22 -75 -83 -118.5t-148 -43.5t-148 43.5t-83 118.5zM463 -21q-93 0 -171.5 31t-129.5 96.5t-51 152.5v2q0 63 23.5 112.5t73 86t114 63t158 44.5t194 29.5t231.5 19.5v68q0 101 -24.5 171.5t-72 110 t-107.5 56.5t-140 17q-167 0 -267 -84.5t-105 -217.5h-19q8 146 114 232t277 86q85 0 149.5 -19t114 -61t74.5 -114.5t25 -175.5l-1 -308q-1 -250 9 -377h-20q-8 108 -8 297q-42 -157 -159 -237.5t-282 -80.5zM905 599q-158 -9 -276.5 -24t-215.5 -41t-157.5 -63t-93 -89 t-32.5 -120v-2q-1 -120 97 -192.5t244 -72.5q83 0 157 25t137 77t100.5 142.5t38.5 209.5z" />
<glyph unicode="&#x104;" horiz-adv-x="1270" d="M60 0l570 1485h10l570 -1485q-104 -101 -104 -187q0 -58 41 -95.5t108 -37.5q45 0 82 18l8 -17q-42 -20 -90 -20q-75 0 -121.5 43t-46.5 109q0 50 27.5 98.5t76.5 88.5h-1l-195 510h-720l-195 -510h-20zM281 526h708l-353 921h-2z" />
<glyph unicode="&#x105;" horiz-adv-x="1112" d="M463 -21q-93 0 -171.5 31t-129.5 96.5t-51 152.5v2q0 63 23.5 112.5t73 86t114 63t158 44.5t194 29.5t231.5 19.5v68q0 101 -24.5 171.5t-72 110t-107.5 56.5t-140 17q-167 0 -267 -84.5t-105 -217.5h-19q8 146 114 232t277 86q85 0 149.5 -19t114 -61t74.5 -114.5 t25 -175.5l-1 -308q-1 -250 9 -377q-104 -101 -104 -187q0 -58 41 -95.5t108 -37.5q45 0 82 18l8 -17q-42 -20 -90 -20q-75 0 -121.5 43t-46.5 109q0 50 27.5 98.5t76.5 88.5h-1q-8 108 -8 297q-42 -157 -159 -237.5t-282 -80.5zM905 599q-158 -9 -276.5 -24t-215.5 -41 t-157.5 -63t-93 -89t-32.5 -120v-2q-1 -120 97 -192.5t244 -72.5q83 0 157 25t137 77t100.5 142.5t38.5 209.5z" />
<glyph unicode="&#x106;" horiz-adv-x="1580" d="M836 1670h-27l229 228h27zM823 -21q-204 0 -362.5 98t-244.5 269.5t-86 387.5v2q0 216 86 387.5t244.5 269.5t362.5 98q235 0 401.5 -114.5t225.5 -325.5h-19q-38 135 -127.5 231.5t-212 144.5t-268.5 48q-196 0 -350.5 -95.5t-239 -264t-84.5 -379.5v-2 q0 -211 84.5 -379.5t239 -264t350.5 -95.5q146 0 268.5 48t212 144.5t127.5 231.5h19q-59 -211 -225.5 -325.5t-401.5 -114.5z" />
<glyph unicode="&#x107;" horiz-adv-x="1171" d="M857 1470l-258 -258h-27l258 258h27zM604 -21q-98 0 -185.5 36.5t-154 104t-105.5 170t-39 226.5v2q0 124 39 226.5t105.5 170t154 104t185.5 36.5q170 0 287 -85t160 -232h-19q-42 138 -154 219.5t-274 81.5q-94 0 -178 -35.5t-148 -100.5t-101.5 -164.5t-37.5 -220.5 v-2q0 -121 37.5 -220.5t101.5 -164.5t148 -100.5t178 -35.5q162 0 274 81.5t154 219.5h19q-43 -147 -160 -232t-287 -85z" />
<glyph unicode="&#x108;" horiz-adv-x="1580" d="M522 1630l255 268h26l255 -268h-26l-242 254l-242 -254h-26zM823 -21q-204 0 -362.5 98t-244.5 269.5t-86 387.5v2q0 216 86 387.5t244.5 269.5t362.5 98q235 0 401.5 -114.5t225.5 -325.5h-19q-38 135 -127.5 231.5t-212 144.5t-268.5 48q-196 0 -350.5 -95.5t-239 -264 t-84.5 -379.5v-2q0 -211 84.5 -379.5t239 -264t350.5 -95.5q146 0 268.5 48t212 144.5t127.5 231.5h19q-59 -211 -225.5 -325.5t-401.5 -114.5z" />
<glyph unicode="&#x109;" horiz-adv-x="1171" d="M358 1212l215 258h25l215 -258h-25l-202 243l-203 -243h-25zM604 -21q-98 0 -185.5 36.5t-154 104t-105.5 170t-39 226.5v2q0 124 39 226.5t105.5 170t154 104t185.5 36.5q170 0 287 -85t160 -232h-19q-42 138 -154 219.5t-274 81.5q-94 0 -178 -35.5t-148 -100.5 t-101.5 -164.5t-37.5 -220.5v-2q0 -121 37.5 -220.5t101.5 -164.5t148 -100.5t178 -35.5q162 0 274 81.5t154 219.5h19q-43 -147 -160 -232t-287 -85z" />
<glyph unicode="&#x10a;" horiz-adv-x="1580" d="M799 1736h-19v162h19v-162zM823 -21q-204 0 -362.5 98t-244.5 269.5t-86 387.5v2q0 216 86 387.5t244.5 269.5t362.5 98q235 0 401.5 -114.5t225.5 -325.5h-19q-38 135 -127.5 231.5t-212 144.5t-268.5 48q-196 0 -350.5 -95.5t-239 -264t-84.5 -379.5v-2 q0 -211 84.5 -379.5t239 -264t350.5 -95.5q146 0 268.5 48t212 144.5t127.5 231.5h19q-59 -211 -225.5 -325.5t-401.5 -114.5z" />
<glyph unicode="&#x10b;" horiz-adv-x="1171" d="M595 1288h-19v182h19v-182zM604 -21q-98 0 -185.5 36.5t-154 104t-105.5 170t-39 226.5v2q0 124 39 226.5t105.5 170t154 104t185.5 36.5q170 0 287 -85t160 -232h-19q-42 138 -154 219.5t-274 81.5q-94 0 -178 -35.5t-148 -100.5t-101.5 -164.5t-37.5 -220.5v-2 q0 -121 37.5 -220.5t101.5 -164.5t148 -100.5t178 -35.5q162 0 274 81.5t154 219.5h19q-43 -147 -160 -232t-287 -85z" />
<glyph unicode="&#x10c;" horiz-adv-x="1580" d="M522 1898h26l242 -254l242 254h26l-255 -268h-26zM823 -21q-204 0 -362.5 98t-244.5 269.5t-86 387.5v2q0 216 86 387.5t244.5 269.5t362.5 98q235 0 401.5 -114.5t225.5 -325.5h-19q-38 135 -127.5 231.5t-212 144.5t-268.5 48q-196 0 -350.5 -95.5t-239 -264 t-84.5 -379.5v-2q0 -211 84.5 -379.5t239 -264t350.5 -95.5q146 0 268.5 48t212 144.5t127.5 231.5h19q-59 -211 -225.5 -325.5t-401.5 -114.5z" />
<glyph unicode="&#x10d;" horiz-adv-x="1171" d="M573 1212l-215 258h25l203 -243l202 243h25l-215 -258h-25zM604 -21q-98 0 -185.5 36.5t-154 104t-105.5 170t-39 226.5v2q0 124 39 226.5t105.5 170t154 104t185.5 36.5q170 0 287 -85t160 -232h-19q-42 138 -154 219.5t-274 81.5q-94 0 -178 -35.5t-148 -100.5 t-101.5 -164.5t-37.5 -220.5v-2q0 -121 37.5 -220.5t101.5 -164.5t148 -100.5t178 -35.5q162 0 274 81.5t154 219.5h19q-43 -147 -160 -232t-287 -85z" />
<glyph unicode="&#x10e;" horiz-adv-x="1471" d="M276 1898h26l242 -254l242 254h26l-255 -268h-26zM230 0v1470h273q137 0 257.5 -23.5t228.5 -79t185 -138.5t122 -209t45 -284v-2q0 -158 -45 -284t-122 -209t-185 -138.5t-228.5 -79t-257.5 -23.5h-273zM249 16h254q120 0 229.5 19t219.5 69.5t190 129t130 207t50 293.5 v2q0 165 -50 293.5t-130 207t-190 129t-219.5 69.5t-229.5 19h-254v-1438z" />
<glyph unicode="&#x10f;" horiz-adv-x="1231" d="M581 -21q-94 0 -177.5 36t-146.5 102.5t-100 169.5t-37 229v2q0 126 37 229t100 169.5t146.5 102.5t177.5 36q152 0 271.5 -97.5t159.5 -268.5v781h19v-1470h-19v345q-40 -171 -159.5 -268.5t-271.5 -97.5zM1151 1470h18v-328h-18v328zM581 -5q88 0 166 36t137.5 101 t94.5 164.5t35 219.5v2q0 120 -35 219.5t-94.5 164.5t-137.5 101t-166 36q-90 0 -169.5 -35.5t-140.5 -100t-96.5 -164.5t-35.5 -221v-2q0 -121 35.5 -221t96.5 -164.5t140.5 -100t169.5 -35.5z" />
<glyph unicode="&#x110;" horiz-adv-x="1471" d="M230 0v727h-210v16h210v727h273q137 0 257.5 -23.5t228.5 -79t185 -138.5t122 -209t45 -284v-2q0 -158 -45 -284t-122 -209t-185 -138.5t-228.5 -79t-257.5 -23.5h-273zM249 16h254q120 0 229.5 19t219.5 69.5t190 129t130 207t50 293.5v2q0 165 -50 293.5t-130 207 t-190 129t-219.5 69.5t-229.5 19h-254v-711h390v-16h-390v-711z" />
<glyph unicode="&#x111;" horiz-adv-x="1231" d="M581 -21q-94 0 -177.5 36t-146.5 102.5t-100 169.5t-37 229v2q0 126 37 229t100 169.5t146.5 102.5t177.5 36q152 0 271.5 -97.5t159.5 -268.5v566h-413v16h413v199h19v-199h120v-16h-120v-1255h-19v345q-40 -171 -159.5 -268.5t-271.5 -97.5zM581 -5q88 0 166 36 t137.5 101t94.5 164.5t35 219.5v2q0 120 -35 219.5t-94.5 164.5t-137.5 101t-166 36q-90 0 -169.5 -35.5t-140.5 -100t-96.5 -164.5t-35.5 -221v-2q0 -121 35.5 -221t96.5 -164.5t140.5 -100t169.5 -35.5z" />
<glyph unicode="&#x112;" horiz-adv-x="1211" d="M396 1879v19h550v-19h-550zM230 0v1470h881v-16h-862v-695h816v-16h-816v-727h862v-16h-881z" />
<glyph unicode="&#x113;" horiz-adv-x="1202" d="M326 1451v19h550v-19h-550zM619 -21q-104 0 -194.5 36.5t-158.5 104t-107 170t-39 226.5v2q0 124 39 226.5t106 170t155 104t188 36.5q207 0 338.5 -143t135.5 -377v-1h-943v-16v-2q0 -121 38 -220.5t103 -164.5t152.5 -100.5t186.5 -35.5q170 0 282.5 81t154.5 220h19 q-43 -148 -160.5 -232.5t-295.5 -84.5zM140 550h923v1q-7 216 -133 352t-322 136q-124 0 -227 -56.5t-169 -169t-72 -263.5z" />
<glyph unicode="&#x114;" horiz-adv-x="1211" d="M440 1898h20q22 -69 77.5 -106t133.5 -37t133.5 37t77.5 106h20q-22 -75 -83 -118.5t-148 -43.5t-148 43.5t-83 118.5zM230 0v1470h881v-16h-862v-695h816v-16h-816v-727h862v-16h-881z" />
<glyph unicode="&#x115;" horiz-adv-x="1202" d="M370 1470h20q22 -69 77.5 -106t133.5 -37t133.5 37t77.5 106h20q-22 -75 -83 -118.5t-148 -43.5t-148 43.5t-83 118.5zM619 -21q-104 0 -194.5 36.5t-158.5 104t-107 170t-39 226.5v2q0 124 39 226.5t106 170t155 104t188 36.5q207 0 338.5 -143t135.5 -377v-1h-943v-16 v-2q0 -121 38 -220.5t103 -164.5t152.5 -100.5t186.5 -35.5q170 0 282.5 81t154.5 220h19q-43 -148 -160.5 -232.5t-295.5 -84.5zM140 550h923v1q-7 216 -133 352t-322 136q-124 0 -227 -56.5t-169 -169t-72 -263.5z" />
<glyph unicode="&#x116;" horiz-adv-x="1211" d="M680 1736h-19v162h19v-162zM230 0v1470h881v-16h-862v-695h816v-16h-816v-727h862v-16h-881z" />
<glyph unicode="&#x117;" horiz-adv-x="1202" d="M610 1288h-19v182h19v-182zM619 -21q-104 0 -194.5 36.5t-158.5 104t-107 170t-39 226.5v2q0 124 39 226.5t106 170t155 104t188 36.5q207 0 338.5 -143t135.5 -377v-1h-943v-16v-2q0 -121 38 -220.5t103 -164.5t152.5 -100.5t186.5 -35.5q170 0 282.5 81t154.5 220h19 q-43 -148 -160.5 -232.5t-295.5 -84.5zM140 550h923v1q-7 216 -133 352t-322 136q-124 0 -227 -56.5t-169 -169t-72 -263.5z" />
<glyph unicode="&#x118;" horiz-adv-x="1211" d="M230 0v1470h881v-16h-862v-695h816v-16h-816v-727h862v-16h-290q-104 -101 -104 -187q0 -58 41 -95.5t108 -37.5q44 0 82 18l8 -17q-42 -20 -90 -20q-75 0 -121.5 43t-46.5 109q0 50 27.5 98.5t76.5 88.5h-572z" />
<glyph unicode="&#x119;" horiz-adv-x="1202" d="M619 -21q-104 0 -194.5 36.5t-158.5 104t-107 170t-39 226.5v2q0 124 39 226.5t106 170t155 104t188 36.5q207 0 338.5 -143t135.5 -377v-1h-943v-16v-2q0 -121 38 -220.5t103 -164.5t152.5 -100.5t186.5 -35.5q170 0 282.5 81t154.5 220h19q-35 -120 -119.5 -199 t-210.5 -105q-95 -97 -95 -179q0 -58 41 -95.5t108 -37.5q45 0 82 18l8 -17q-42 -20 -90 -20q-75 0 -121.5 43t-46.5 109q0 93 89 174q-51 -8 -101 -8zM140 550h923v1q-7 216 -133 352t-322 136q-124 0 -227 -56.5t-169 -169t-72 -263.5z" />
<glyph unicode="&#x11a;" horiz-adv-x="1211" d="M403 1898h26l242 -254l242 254h26l-255 -268h-26zM230 0v1470h881v-16h-862v-695h816v-16h-816v-727h862v-16h-881z" />
<glyph unicode="&#x11b;" horiz-adv-x="1202" d="M588 1212l-215 258h25l203 -243l202 243h25l-215 -258h-25zM619 -21q-104 0 -194.5 36.5t-158.5 104t-107 170t-39 226.5v2q0 124 39 226.5t106 170t155 104t188 36.5q207 0 338.5 -143t135.5 -377v-1h-943v-16v-2q0 -121 38 -220.5t103 -164.5t152.5 -100.5t186.5 -35.5 q170 0 282.5 81t154.5 220h19q-43 -148 -160.5 -232.5t-295.5 -84.5zM140 550h923v1q-7 216 -133 352t-322 136q-124 0 -227 -56.5t-169 -169t-72 -263.5z" />
<glyph unicode="&#x11c;" horiz-adv-x="1680" d="M522 1630l255 268h26l255 -268h-26l-242 254l-242 -254h-26zM823 -21q-204 0 -362.5 98t-244.5 269.5t-86 387.5v2q0 216 86 387.5t244.5 269.5t362.5 98q234 0 400 -113.5t227 -321.5h-19q-60 200 -223.5 309.5t-384.5 109.5q-196 0 -350.5 -95.5t-239 -264 t-84.5 -379.5v-2q0 -211 84.5 -379.5t239 -264t350.5 -95.5q93 0 178 18.5t162.5 60t133.5 102.5t89.5 151.5t33.5 201.5v161h-536v16h555v-706h-19v376q-44 -182 -199 -289.5t-398 -107.5z" />
<glyph unicode="&#x11d;" horiz-adv-x="1231" d="M348 1212l215 258h25l215 -258h-25l-202 243l-203 -243h-25zM581 42q-94 0 -177.5 34t-146.5 96.5t-100 159.5t-37 216v2q0 119 37 215.5t100 159.5t146.5 96.5t177.5 33.5q153 0 272 -92t159 -253v332h19v-996q0 -118 -33.5 -206t-94.5 -139t-138.5 -75.5t-173.5 -24.5 q-179 0 -300 93t-136 261h19q11 -149 125.5 -243.5t291.5 -94.5q67 0 125.5 12.5t114 43.5t95 78.5t63 123t23.5 171.5v341q-40 -161 -159 -253t-272 -92zM581 58q88 0 166 33.5t137.5 95t94.5 155t35 206.5v2q0 223 -125.5 356t-307.5 133q-90 0 -169.5 -33t-140.5 -94 t-96.5 -154.5t-35.5 -207.5v-2q0 -114 35.5 -208t96.5 -155t140.5 -94t169.5 -33z" />
<glyph unicode="&#x11e;" horiz-adv-x="1680" d="M559 1898h20q22 -69 77.5 -106t133.5 -37t133.5 37t77.5 106h20q-22 -75 -83 -118.5t-148 -43.5t-148 43.5t-83 118.5zM823 -21q-204 0 -362.5 98t-244.5 269.5t-86 387.5v2q0 216 86 387.5t244.5 269.5t362.5 98q234 0 400 -113.5t227 -321.5h-19q-60 200 -223.5 309.5 t-384.5 109.5q-196 0 -350.5 -95.5t-239 -264t-84.5 -379.5v-2q0 -211 84.5 -379.5t239 -264t350.5 -95.5q93 0 178 18.5t162.5 60t133.5 102.5t89.5 151.5t33.5 201.5v161h-536v16h555v-706h-19v376q-44 -182 -199 -289.5t-398 -107.5z" />
<glyph unicode="&#x11f;" horiz-adv-x="1231" d="M345 1470h20q22 -69 77.5 -106t133.5 -37t133.5 37t77.5 106h20q-22 -75 -83 -118.5t-148 -43.5t-148 43.5t-83 118.5zM581 42q-94 0 -177.5 34t-146.5 96.5t-100 159.5t-37 216v2q0 119 37 215.5t100 159.5t146.5 96.5t177.5 33.5q153 0 272 -92t159 -253v332h19v-996 q0 -118 -33.5 -206t-94.5 -139t-138.5 -75.5t-173.5 -24.5q-179 0 -300 93t-136 261h19q11 -149 125.5 -243.5t291.5 -94.5q67 0 125.5 12.5t114 43.5t95 78.5t63 123t23.5 171.5v341q-40 -161 -159 -253t-272 -92zM581 58q88 0 166 33.5t137.5 95t94.5 155t35 206.5v2 q0 223 -125.5 356t-307.5 133q-90 0 -169.5 -33t-140.5 -94t-96.5 -154.5t-35.5 -207.5v-2q0 -114 35.5 -208t96.5 -155t140.5 -94t169.5 -33z" />
<glyph unicode="&#x120;" horiz-adv-x="1680" d="M799 1736h-19v162h19v-162zM823 -21q-204 0 -362.5 98t-244.5 269.5t-86 387.5v2q0 216 86 387.5t244.5 269.5t362.5 98q234 0 400 -113.5t227 -321.5h-19q-60 200 -223.5 309.5t-384.5 109.5q-196 0 -350.5 -95.5t-239 -264t-84.5 -379.5v-2q0 -211 84.5 -379.5 t239 -264t350.5 -95.5q93 0 178 18.5t162.5 60t133.5 102.5t89.5 151.5t33.5 201.5v161h-536v16h555v-706h-19v376q-44 -182 -199 -289.5t-398 -107.5z" />
<glyph unicode="&#x121;" horiz-adv-x="1231" d="M585 1288h-19v182h19v-182zM581 42q-94 0 -177.5 34t-146.5 96.5t-100 159.5t-37 216v2q0 119 37 215.5t100 159.5t146.5 96.5t177.5 33.5q153 0 272 -92t159 -253v332h19v-996q0 -118 -33.5 -206t-94.5 -139t-138.5 -75.5t-173.5 -24.5q-179 0 -300 93t-136 261h19 q11 -149 125.5 -243.5t291.5 -94.5q67 0 125.5 12.5t114 43.5t95 78.5t63 123t23.5 171.5v341q-40 -161 -159 -253t-272 -92zM581 58q88 0 166 33.5t137.5 95t94.5 155t35 206.5v2q0 223 -125.5 356t-307.5 133q-90 0 -169.5 -33t-140.5 -94t-96.5 -154.5t-35.5 -207.5v-2 q0 -114 35.5 -208t96.5 -155t140.5 -94t169.5 -33z" />
<glyph unicode="&#x122;" horiz-adv-x="1680" d="M823 -21q-204 0 -362.5 98t-244.5 269.5t-86 387.5v2q0 216 86 387.5t244.5 269.5t362.5 98q234 0 400 -113.5t227 -321.5h-19q-60 200 -223.5 309.5t-384.5 109.5q-196 0 -350.5 -95.5t-239 -264t-84.5 -379.5v-2q0 -211 84.5 -379.5t239 -264t350.5 -95.5 q93 0 178 18.5t162.5 60t133.5 102.5t89.5 151.5t33.5 201.5v161h-536v16h555v-706h-19v376q-44 -182 -199 -289.5t-398 -107.5zM790 -96l-122 -242h-19l122 242h19z" />
<glyph unicode="&#x123;" horiz-adv-x="1231" d="M606 1228l122 242h19l-122 -242h-19zM581 42q-94 0 -177.5 34t-146.5 96.5t-100 159.5t-37 216v2q0 119 37 215.5t100 159.5t146.5 96.5t177.5 33.5q153 0 272 -92t159 -253v332h19v-996q0 -118 -33.5 -206t-94.5 -139t-138.5 -75.5t-173.5 -24.5q-179 0 -300 93 t-136 261h19q11 -149 125.5 -243.5t291.5 -94.5q67 0 125.5 12.5t114 43.5t95 78.5t63 123t23.5 171.5v341q-40 -161 -159 -253t-272 -92zM581 58q88 0 166 33.5t137.5 95t94.5 155t35 206.5v2q0 223 -125.5 356t-307.5 133q-90 0 -169.5 -33t-140.5 -94t-96.5 -154.5 t-35.5 -207.5v-2q0 -114 35.5 -208t96.5 -155t140.5 -94t169.5 -33z" />
<glyph unicode="&#x124;" horiz-adv-x="1506" d="M485 1630l255 268h26l255 -268h-26l-242 254l-242 -254h-26zM230 0v1470h19v-711h1008v711h19v-1470h-19v743h-1008v-743h-19z" />
<glyph unicode="&#x125;" horiz-adv-x="1139" d="M-19 1640l215 258h25l215 -258h-25l-202 243l-203 -243h-25zM200 0v1470h19v-716q33 144 131.5 222.5t245.5 78.5q190 0 291.5 -109.5t101.5 -315.5v-630h-19v630q0 208 -101 308.5t-273 100.5q-180 0 -278.5 -120t-98.5 -323v-596h-19z" />
<glyph unicode="&#x126;" horiz-adv-x="1506" d="M230 0v1107h-150v16h150v347h19v-347h1008v347h19v-347h150v-16h-150v-1107h-19v743h-1008v-743h-19zM249 759h1008v348h-1008v-348z" />
<glyph unicode="&#x127;" horiz-adv-x="1139" d="M200 0v1262h-120v16h120v192h19v-192h413v-16h-413v-508q33 144 131.5 222.5t245.5 78.5q190 0 291.5 -109.5t101.5 -315.5v-630h-19v630q0 208 -101 308.5t-273 100.5q-180 0 -278.5 -120t-98.5 -323v-596h-19z" />
<glyph unicode="&#x128;" horiz-adv-x="479" d="M511 1898h19q0 -83 -37.5 -128t-107.5 -45q-40 0 -80 21.5t-68 48t-66.5 48t-75.5 21.5q-61 0 -93.5 -40t-32.5 -114h-19q0 83 37.5 128t107.5 45q40 0 80 -21.5t68 -48t66.5 -48t75.5 -21.5q61 0 93.5 40t32.5 114zM230 0v1470h19v-1470h-19z" />
<glyph unicode="&#x129;" d="M481 1470h19q0 -83 -37.5 -128t-107.5 -45q-40 0 -80 21.5t-68 48t-66.5 48t-75.5 21.5q-61 0 -93.5 -40t-32.5 -114h-19q0 83 37.5 128t107.5 45q40 0 80 -21.5t68 -48t66.5 -48t75.5 -21.5q61 0 93.5 40t32.5 114zM200 0v1042h19v-1042h-19z" />
<glyph unicode="&#x12a;" horiz-adv-x="479" d="M-35 1879v19h550v-19h-550zM230 0v1470h19v-1470h-19z" />
<glyph unicode="&#x12b;" d="M-65 1451v19h550v-19h-550zM200 0v1042h19v-1042h-19z" />
<glyph unicode="&#x12e;" horiz-adv-x="479" d="M230 0v1470h19v-1470q-104 -101 -104 -187q0 -58 41 -95.5t108 -37.5q44 0 82 18l8 -17q-42 -20 -90 -20q-75 0 -121.5 43t-46.5 109q0 50 27.5 98.5t76.5 88.5z" />
<glyph unicode="&#x12f;" d="M200 1273v197h19v-197h-19zM200 0v1042h19v-1042q-104 -101 -104 -187q0 -58 41 -95.5t108 -37.5q44 0 82 18l8 -17q-42 -20 -90 -20q-75 0 -121.5 43t-46.5 109q0 50 27.5 98.5t76.5 88.5z" />
<glyph unicode="&#x130;" horiz-adv-x="479" d="M249 1736h-19v162h19v-162zM230 0v1470h19v-1470h-19z" />
<glyph unicode="&#x131;" d="M200 0v1042h19v-1042h-19z" />
<glyph unicode="&#x132;" horiz-adv-x="1603" d="M230 0v1470h19v-1470h-19zM981 -21q-85 0 -154 21t-127 67.5t-92 130.5t-39 200h19q4 -110 36 -190t87 -125.5t121.5 -66.5t148.5 -21q83 0 149 22t120.5 70.5t84 135t29.5 206.5v1041h19v-1041q0 -124 -31.5 -214t-88.5 -140t-126.5 -73t-155.5 -23z" />
<glyph unicode="&#x133;" horiz-adv-x="838" d="M200 1273v197h19v-197h-19zM619 1273v197h19v-197h-19zM200 0v1042h19v-1042h-19zM414 -385v16h23q59 0 96 16.5t55.5 53.5t24.5 81t6 115v1145h19v-1145q0 -72 -7 -119t-27.5 -86.5t-60.5 -58t-102 -18.5h-27z" />
<glyph unicode="&#x134;" horiz-adv-x="1124" d="M626 1630l255 268h26l255 -268h-26l-242 254l-242 -254h-26zM502 -21q-85 0 -154 21t-127 67.5t-92 130.5t-39 200h19q4 -110 36 -190t87 -125.5t121.5 -66.5t148.5 -21q83 0 149 22t120.5 70.5t84 135t29.5 206.5v1041h19v-1041q0 -124 -31.5 -214t-88.5 -140 t-126.5 -73t-155.5 -23z" />
<glyph unicode="&#x135;" d="M-18 1212l215 258h25l215 -258h-25l-202 243l-203 -243h-25zM-5 -385v16h23q59 0 96 16.5t55.5 53.5t24.5 81t6 115v1145h19v-1145q0 -72 -7 -119t-27.5 -86.5t-60.5 -58t-102 -18.5h-27z" />
<glyph unicode="&#x136;" horiz-adv-x="1319" d="M230 0v1470h19v-720l985 720h32l-996 -728l1008 -742h-33l-996 735v-735h-19zM754 -96l-122 -242h-19l122 242h19z" />
<glyph unicode="&#x137;" horiz-adv-x="1015" d="M205 0v1470h19v-903l693 475h34l-712 -488l739 -554h-32l-722 541v-541h-19zM592 -96l-122 -242h-19l122 242h19z" />
<glyph unicode="&#x139;" horiz-adv-x="1133" d="M286 1670h-27l229 228h27zM230 0v1470h19v-1454h842v-16h-861z" />
<glyph unicode="&#x13a;" d="M481 1898l-258 -258h-27l258 258h27zM200 0v1470h19v-1470h-19z" />
<glyph unicode="&#x13b;" horiz-adv-x="1133" d="M230 0v1470h19v-1454h842v-16h-861zM661 -96l-122 -242h-19l122 242h19z" />
<glyph unicode="&#x13c;" d="M200 0v1470h19v-1470h-19zM210 -96l-122 -242h-19l122 242h19z" />
<glyph unicode="&#x13d;" horiz-adv-x="1133" d="M654 1670h18v-328h-18v328zM230 0v1470h19v-1454h842v-16h-861z" />
<glyph unicode="&#x13e;" d="M200 0v1470h19v-1470h-19zM339 1470h18v-328h-18v328z" />
<glyph unicode="&#x13f;" horiz-adv-x="1133" d="M230 0v1470h19v-1454h842v-16h-861zM680 652h-19v182h19v-182z" />
<glyph unicode="&#x140;" d="M200 0v1470h19v-1470h-19zM359 644h-19v182h19v-182z" />
<glyph unicode="&#x143;" horiz-adv-x="1506" d="M799 1670h-27l229 228h27zM230 0v1470h19l1006 -1435h2v1435h19v-1470h-19l-1006 1436h-2v-1436h-19z" />
<glyph unicode="&#x144;" horiz-adv-x="1159" d="M866 1470l-258 -258h-27l258 258h27zM200 0v1042h19v-288q33 144 131.5 222.5t245.5 78.5q190 0 291.5 -109.5t101.5 -315.5v-630h-19v630q0 208 -101 308.5t-273 100.5q-180 0 -278.5 -120t-98.5 -323v-596h-19z" />
<glyph unicode="&#x145;" horiz-adv-x="1506" d="M230 0v1470h19l1006 -1435h2v1435h19v-1470h-19l-1006 1436h-2v-1436h-19zM753 -96l-122 -242h-19l122 242h19z" />
<glyph unicode="&#x146;" horiz-adv-x="1159" d="M200 0v1042h19v-288q33 144 131.5 222.5t245.5 78.5q190 0 291.5 -109.5t101.5 -315.5v-630h-19v630q0 208 -101 308.5t-273 100.5q-180 0 -278.5 -120t-98.5 -323v-596h-19zM595 -246l-122 -242h-19l122 242h19z" />
<glyph unicode="&#x147;" horiz-adv-x="1506" d="M485 1898h26l242 -254l242 254h26l-255 -268h-26zM230 0v1470h19l1006 -1435h2v1435h19v-1470h-19l-1006 1436h-2v-1436h-19z" />
<glyph unicode="&#x148;" horiz-adv-x="1159" d="M582 1212l-215 258h25l203 -243l202 243h25l-215 -258h-25zM200 0v1042h19v-288q33 144 131.5 222.5t245.5 78.5q190 0 291.5 -109.5t101.5 -315.5v-630h-19v630q0 208 -101 308.5t-273 100.5q-180 0 -278.5 -120t-98.5 -323v-596h-19z" />
<glyph unicode="&#x149;" horiz-adv-x="1159" d="M270 1470l-102 -327h-19l102 327h19zM200 0v1042h19v-288q33 144 131.5 222.5t245.5 78.5q190 0 291.5 -109.5t101.5 -315.5v-630h-19v630q0 208 -101 308.5t-273 100.5q-180 0 -278.5 -120t-98.5 -323v-596h-19z" />
<glyph unicode="&#x14c;" horiz-adv-x="1646" d="M548 1879v19h550v-19h-550zM823 -21q-204 0 -362.5 98t-244.5 269.5t-86 387.5v2q0 216 86 387.5t244.5 269.5t362.5 98t362.5 -98t244.5 -269.5t86 -387.5v-2q0 -216 -86 -387.5t-244.5 -269.5t-362.5 -98zM823 -5q196 0 350.5 95.5t239 264t84.5 379.5v2 q0 211 -84.5 379.5t-239 264t-350.5 95.5t-350.5 -95.5t-239 -264t-84.5 -379.5v-2q0 -211 84.5 -379.5t239 -264t350.5 -95.5z" />
<glyph unicode="&#x14d;" horiz-adv-x="1228" d="M339 1451v19h550v-19h-550zM614 -21q-98 0 -187 36.5t-157.5 103.5t-109 170t-40.5 227v2q0 124 40.5 227t109 170t157.5 103.5t187 36.5t187 -36.5t157.5 -103.5t109 -170t40.5 -227v-2q0 -124 -40.5 -227t-109 -170t-157.5 -103.5t-187 -36.5zM614 -5q94 0 179.5 35.5 t151.5 100.5t105 165t39 220v2q0 120 -39 220t-105 165t-151.5 100.5t-179.5 35.5t-179.5 -35.5t-151.5 -100.5t-105 -165t-39 -220v-2q0 -120 39 -220t105 -165t151.5 -100.5t179.5 -35.5z" />
<glyph unicode="&#x14e;" horiz-adv-x="1646" d="M592 1898h20q22 -69 77.5 -106t133.5 -37t133.5 37t77.5 106h20q-22 -75 -83 -118.5t-148 -43.5t-148 43.5t-83 118.5zM823 -21q-204 0 -362.5 98t-244.5 269.5t-86 387.5v2q0 216 86 387.5t244.5 269.5t362.5 98t362.5 -98t244.5 -269.5t86 -387.5v-2q0 -216 -86 -387.5 t-244.5 -269.5t-362.5 -98zM823 -5q196 0 350.5 95.5t239 264t84.5 379.5v2q0 211 -84.5 379.5t-239 264t-350.5 95.5t-350.5 -95.5t-239 -264t-84.5 -379.5v-2q0 -211 84.5 -379.5t239 -264t350.5 -95.5z" />
<glyph unicode="&#x14f;" horiz-adv-x="1228" d="M383 1470h20q22 -69 77.5 -106t133.5 -37t133.5 37t77.5 106h20q-22 -75 -83 -118.5t-148 -43.5t-148 43.5t-83 118.5zM614 -21q-98 0 -187 36.5t-157.5 103.5t-109 170t-40.5 227v2q0 124 40.5 227t109 170t157.5 103.5t187 36.5t187 -36.5t157.5 -103.5t109 -170 t40.5 -227v-2q0 -124 -40.5 -227t-109 -170t-157.5 -103.5t-187 -36.5zM614 -5q94 0 179.5 35.5t151.5 100.5t105 165t39 220v2q0 120 -39 220t-105 165t-151.5 100.5t-179.5 35.5t-179.5 -35.5t-151.5 -100.5t-105 -165t-39 -220v-2q0 -120 39 -220t105 -165t151.5 -100.5 t179.5 -35.5z" />
<glyph unicode="&#x150;" horiz-adv-x="1646" d="M635 1670h-27l229 228h27zM962 1670h-27l229 228h27zM823 -21q-204 0 -362.5 98t-244.5 269.5t-86 387.5v2q0 216 86 387.5t244.5 269.5t362.5 98t362.5 -98t244.5 -269.5t86 -387.5v-2q0 -216 -86 -387.5t-244.5 -269.5t-362.5 -98zM823 -5q196 0 350.5 95.5t239 264 t84.5 379.5v2q0 211 -84.5 379.5t-239 264t-350.5 95.5t-350.5 -95.5t-239 -264t-84.5 -379.5v-2q0 -211 84.5 -379.5t239 -264t350.5 -95.5z" />
<glyph unicode="&#x151;" horiz-adv-x="1228" d="M693 1470l-258 -258h-27l258 258h27zM1020 1470l-258 -258h-27l258 258h27zM614 -21q-98 0 -187 36.5t-157.5 103.5t-109 170t-40.5 227v2q0 124 40.5 227t109 170t157.5 103.5t187 36.5t187 -36.5t157.5 -103.5t109 -170t40.5 -227v-2q0 -124 -40.5 -227t-109 -170 t-157.5 -103.5t-187 -36.5zM614 -5q94 0 179.5 35.5t151.5 100.5t105 165t39 220v2q0 120 -39 220t-105 165t-151.5 100.5t-179.5 35.5t-179.5 -35.5t-151.5 -100.5t-105 -165t-39 -220v-2q0 -120 39 -220t105 -165t151.5 -100.5t179.5 -35.5z" />
<glyph unicode="&#x152;" horiz-adv-x="2478" d="M823 -21q-204 0 -362.5 98t-244.5 269.5t-86 387.5v2q0 216 86 387.5t244.5 269.5t362.5 98q260 0 440.5 -155t233.5 -410v544h881v-16h-862v-695h816v-16h-816v-727h862v-16h-881v544q-53 -255 -233.5 -410t-440.5 -155zM823 -5q196 0 350.5 95.5t239 264t84.5 379.5v2 q0 211 -84.5 379.5t-239 264t-350.5 95.5t-350.5 -95.5t-239 -264t-84.5 -379.5v-2q0 -211 84.5 -379.5t239 -264t350.5 -95.5z" />
<glyph unicode="&#x153;" horiz-adv-x="2171" d="M614 -21q-98 0 -187 36.5t-157.5 103.5t-109 170t-40.5 227v2q0 124 40.5 227t109 170t157.5 103.5t187 36.5q178 0 314 -113t170 -308q33 196 166 308.5t313 112.5q207 0 338.5 -143t135.5 -377v-1h-943v-16v-2q0 -121 38 -220.5t103 -164.5t152.5 -100.5t186.5 -35.5 q170 0 282.5 81t154.5 220h19q-43 -148 -160.5 -232.5t-295.5 -84.5q-187 0 -322 112t-168 309q-34 -195 -170 -308t-314 -113zM614 -5q94 0 179.5 35.5t151.5 100.5t105 165t39 220v2q0 120 -39 220t-105 165t-151.5 100.5t-179.5 35.5t-179.5 -35.5t-151.5 -100.5 t-105 -165t-39 -220v-2q0 -120 39 -220t105 -165t151.5 -100.5t179.5 -35.5zM1109 550h923v1q-7 216 -133 352t-322 136q-124 0 -227 -56.5t-169 -169t-72 -263.5z" />
<glyph unicode="&#x154;" horiz-adv-x="1344" d="M678 1670h-27l229 228h27zM230 0v1470h394q130 0 227 -18.5t173.5 -60.5t116 -117.5t39.5 -182.5v-2q0 -83 -24.5 -147t-68.5 -106.5t-110.5 -70.5t-143 -40.5t-173.5 -14.5l594 -710h-23l-594 710h-13h-375v-710h-19zM249 726h375q95 0 171 9.5t146.5 34t117 64.5 t74.5 104.5t28 150.5v2q0 86 -28 150.5t-74.5 104.5t-117 64.5t-146.5 34t-171 9.5h-375v-728z" />
<glyph unicode="&#x155;" horiz-adv-x="623" d="M667 1470l-258 -258h-27l258 258h27zM200 0v1042h19v-319q28 147 114 238t227 91h31v-16h-31q-74 0 -132.5 -28t-97 -75.5t-64 -113t-36.5 -137t-11 -150.5v-532h-19z" />
<glyph unicode="&#x156;" horiz-adv-x="1344" d="M230 0v1470h394q130 0 227 -18.5t173.5 -60.5t116 -117.5t39.5 -182.5v-2q0 -83 -24.5 -147t-68.5 -106.5t-110.5 -70.5t-143 -40.5t-173.5 -14.5l594 -710h-23l-594 710h-13h-375v-710h-19zM249 726h375q95 0 171 9.5t146.5 34t117 64.5t74.5 104.5t28 150.5v2 q0 86 -28 150.5t-74.5 104.5t-117 64.5t-146.5 34t-171 9.5h-375v-728zM742 -96l-122 -242h-19l122 242h19z" />
<glyph unicode="&#x157;" horiz-adv-x="623" d="M200 0v1042h19v-319q28 147 114 238t227 91h31v-16h-31q-74 0 -132.5 -28t-97 -75.5t-64 -113t-36.5 -137t-11 -150.5v-532h-19zM209 -96l-122 -242h-19l122 242h19z" />
<glyph unicode="&#x158;" horiz-adv-x="1344" d="M364 1898h26l242 -254l242 254h26l-255 -268h-26zM230 0v1470h394q130 0 227 -18.5t173.5 -60.5t116 -117.5t39.5 -182.5v-2q0 -83 -24.5 -147t-68.5 -106.5t-110.5 -70.5t-143 -40.5t-173.5 -14.5l594 -710h-23l-594 710h-13h-375v-710h-19zM249 726h375q95 0 171 9.5 t146.5 34t117 64.5t74.5 104.5t28 150.5v2q0 86 -28 150.5t-74.5 104.5t-117 64.5t-146.5 34t-171 9.5h-375v-728z" />
<glyph unicode="&#x159;" horiz-adv-x="623" d="M383 1212l-215 258h25l203 -243l202 243h25l-215 -258h-25zM200 0v1042h19v-319q28 147 114 238t227 91h31v-16h-31q-74 0 -132.5 -28t-97 -75.5t-64 -113t-36.5 -137t-11 -150.5v-532h-19z" />
<glyph unicode="&#x15a;" horiz-adv-x="1236" d="M670 1670h-27l229 228h27zM651 -21q-100 0 -184.5 22.5t-158.5 71t-125 134t-71 203.5h19q20 -111 68 -192.5t118 -129.5t153 -70.5t181 -22.5q89 0 169.5 21t148 64t108 116.5t40.5 169.5v2q0 68 -23.5 124t-61.5 94.5t-95.5 69t-115.5 49.5t-132 35l-184 40 q-72 16 -131 43t-109 69t-77.5 104.5t-27.5 140.5v2q0 108 65.5 190t165 122t212.5 40q197 0 326.5 -97t167.5 -287h-19q-38 180 -162.5 274t-312.5 94q-78 0 -153.5 -23t-136 -65t-97.5 -106.5t-37 -140.5v-2q0 -268 333 -340l184 -40q73 -16 131.5 -35t118 -51t100 -72.5 t65.5 -100t25 -131.5v-2q0 -182 -136.5 -284.5t-348.5 -102.5z" />
<glyph unicode="&#x15b;" horiz-adv-x="994" d="M768 1470l-258 -258h-27l258 258h27zM514 -21q-358 0 -415 319h19q58 -303 398 -303q100 0 179 27.5t129.5 89t50.5 149.5v2q0 40 -10.5 73.5t-27.5 58t-44.5 44.5t-53.5 33t-63 24t-66 17.5t-68 13.5l-134 24q-286 51 -286 252v2q0 113 104 181.5t259 68.5 q322 0 380 -268h-19q-61 252 -363 252q-84 0 -159.5 -24.5t-129 -80t-53.5 -131.5v-2q0 -183 272 -232l139 -25q56 -10 97.5 -20.5t90.5 -32.5t80.5 -50.5t52.5 -74t21 -103.5v-2q0 -135 -104 -208.5t-276 -73.5z" />
<glyph unicode="&#x15c;" horiz-adv-x="1236" d="M356 1630l255 268h26l255 -268h-26l-242 254l-242 -254h-26zM651 -21q-100 0 -184.5 22.5t-158.5 71t-125 134t-71 203.5h19q20 -111 68 -192.5t118 -129.5t153 -70.5t181 -22.5q89 0 169.5 21t148 64t108 116.5t40.5 169.5v2q0 68 -23.5 124t-61.5 94.5t-95.5 69 t-115.5 49.5t-132 35l-184 40q-72 16 -131 43t-109 69t-77.5 104.5t-27.5 140.5v2q0 108 65.5 190t165 122t212.5 40q197 0 326.5 -97t167.5 -287h-19q-38 180 -162.5 274t-312.5 94q-78 0 -153.5 -23t-136 -65t-97.5 -106.5t-37 -140.5v-2q0 -268 333 -340l184 -40 q73 -16 131.5 -35t118 -51t100 -72.5t65.5 -100t25 -131.5v-2q0 -182 -136.5 -284.5t-348.5 -102.5z" />
<glyph unicode="&#x15d;" horiz-adv-x="994" d="M269 1212l215 258h25l215 -258h-25l-202 243l-203 -243h-25zM514 -21q-358 0 -415 319h19q58 -303 398 -303q100 0 179 27.5t129.5 89t50.5 149.5v2q0 40 -10.5 73.5t-27.5 58t-44.5 44.5t-53.5 33t-63 24t-66 17.5t-68 13.5l-134 24q-286 51 -286 252v2q0 113 104 181.5 t259 68.5q322 0 380 -268h-19q-61 252 -363 252q-84 0 -159.5 -24.5t-129 -80t-53.5 -131.5v-2q0 -183 272 -232l139 -25q56 -10 97.5 -20.5t90.5 -32.5t80.5 -50.5t52.5 -74t21 -103.5v-2q0 -135 -104 -208.5t-276 -73.5z" />
<glyph unicode="&#x15e;" horiz-adv-x="1236" d="M651 -21q-100 0 -184.5 22.5t-158.5 71t-125 134t-71 203.5h19q20 -111 68 -192.5t118 -129.5t153 -70.5t181 -22.5q89 0 169.5 21t148 64t108 116.5t40.5 169.5v2q0 68 -23.5 124t-61.5 94.5t-95.5 69t-115.5 49.5t-132 35l-184 40q-72 16 -131 43t-109 69t-77.5 104.5 t-27.5 140.5v2q0 108 65.5 190t165 122t212.5 40q197 0 326.5 -97t167.5 -287h-19q-38 180 -162.5 274t-312.5 94q-78 0 -153.5 -23t-136 -65t-97.5 -106.5t-37 -140.5v-2q0 -268 333 -340l184 -40q73 -16 131.5 -35t118 -51t100 -72.5t65.5 -100t25 -131.5v-2 q0 -182 -136.5 -284.5t-348.5 -102.5zM488 -338l122 242h19l-122 -242h-19z" />
<glyph unicode="&#x15f;" horiz-adv-x="994" d="M514 -21q-358 0 -415 319h19q58 -303 398 -303q100 0 179 27.5t129.5 89t50.5 149.5v2q0 40 -10.5 73.5t-27.5 58t-44.5 44.5t-53.5 33t-63 24t-66 17.5t-68 13.5l-134 24q-286 51 -286 252v2q0 113 104 181.5t259 68.5q322 0 380 -268h-19q-61 252 -363 252 q-84 0 -159.5 -24.5t-129 -80t-53.5 -131.5v-2q0 -183 272 -232l139 -25q56 -10 97.5 -20.5t90.5 -32.5t80.5 -50.5t52.5 -74t21 -103.5v-2q0 -135 -104 -208.5t-276 -73.5zM361 -338l122 242h19l-122 -242h-19z" />
<glyph unicode="&#x160;" horiz-adv-x="1236" d="M356 1898h26l242 -254l242 254h26l-255 -268h-26zM651 -21q-100 0 -184.5 22.5t-158.5 71t-125 134t-71 203.5h19q20 -111 68 -192.5t118 -129.5t153 -70.5t181 -22.5q89 0 169.5 21t148 64t108 116.5t40.5 169.5v2q0 68 -23.5 124t-61.5 94.5t-95.5 69t-115.5 49.5 t-132 35l-184 40q-72 16 -131 43t-109 69t-77.5 104.5t-27.5 140.5v2q0 108 65.5 190t165 122t212.5 40q197 0 326.5 -97t167.5 -287h-19q-38 180 -162.5 274t-312.5 94q-78 0 -153.5 -23t-136 -65t-97.5 -106.5t-37 -140.5v-2q0 -268 333 -340l184 -40q73 -16 131.5 -35 t118 -51t100 -72.5t65.5 -100t25 -131.5v-2q0 -182 -136.5 -284.5t-348.5 -102.5z" />
<glyph unicode="&#x161;" horiz-adv-x="994" d="M484 1212l-215 258h25l203 -243l202 243h25l-215 -258h-25zM514 -21q-358 0 -415 319h19q58 -303 398 -303q100 0 179 27.5t129.5 89t50.5 149.5v2q0 40 -10.5 73.5t-27.5 58t-44.5 44.5t-53.5 33t-63 24t-66 17.5t-68 13.5l-134 24q-286 51 -286 252v2q0 113 104 181.5 t259 68.5q322 0 380 -268h-19q-61 252 -363 252q-84 0 -159.5 -24.5t-129 -80t-53.5 -131.5v-2q0 -183 272 -232l139 -25q56 -10 97.5 -20.5t90.5 -32.5t80.5 -50.5t52.5 -74t21 -103.5v-2q0 -135 -104 -208.5t-276 -73.5z" />
<glyph unicode="&#x162;" horiz-adv-x="1245" d="M613 0v1454h-593v16h1205v-16h-593v-1454h-19zM487 -338l122 242h19l-122 -242h-19z" />
<glyph unicode="&#x163;" horiz-adv-x="593" d="M458 0q-126 0 -175 67t-49 213v746h-189v16h189v231h19v-231h265v-16h-265v-744q0 -141 44.5 -203.5t160.5 -62.5h51v-16h-51zM282 -96l-122 -242h-19l122 242h19z" />
<glyph unicode="&#x164;" horiz-adv-x="1245" d="M355 1898h26l242 -254l242 254h26l-255 -268h-26zM613 0v1454h-593v16h1205v-16h-593v-1454h-19z" />
<glyph unicode="&#x165;" horiz-adv-x="593" d="M373 1670h18v-328h-18v328zM458 0q-126 0 -175 67t-49 213v746h-189v16h189v231h19v-231h265v-16h-265v-744q0 -141 44.5 -203.5t160.5 -62.5h51v-16h-51z" />
<glyph unicode="&#x166;" horiz-adv-x="1245" d="M613 0v906h-380v16h380v532h-593v16h1205v-16h-593v-532h380v-16h-380v-906h-19z" />
<glyph unicode="&#x167;" horiz-adv-x="593" d="M458 0q-126 0 -175 67t-49 213v233h-189v16h189v497h-189v16h189v231h19v-231h265v-16h-265v-497h265v-16h-265v-231q0 -141 44.5 -203.5t160.5 -62.5h51v-16h-51z" />
<glyph unicode="&#x168;" horiz-adv-x="1466" d="M1004 1898h19q0 -83 -37.5 -128t-107.5 -45q-40 0 -80 21.5t-68 48t-66.5 48t-75.5 21.5q-61 0 -93.5 -40t-32.5 -114h-19q0 83 37.5 128t107.5 45q40 0 80 -21.5t68 -48t66.5 -48t75.5 -21.5q61 0 93.5 40t32.5 114zM733 -21q-277 0 -400 141.5t-123 448.5v901h19v-903 q0 -297 117.5 -434.5t386.5 -137.5t386.5 137.5t117.5 434.5v903h19v-901q0 -307 -123 -448.5t-400 -141.5z" />
<glyph unicode="&#x169;" horiz-adv-x="1159" d="M836 1470h19q0 -83 -37.5 -128t-107.5 -45q-40 0 -80 21.5t-68 48t-66.5 48t-75.5 21.5q-61 0 -93.5 -40t-32.5 -114h-19q0 83 37.5 128t107.5 45q40 0 80 -21.5t68 -48t66.5 -48t75.5 -21.5q61 0 93.5 40t32.5 114zM563 -21q-190 0 -291.5 109.5t-101.5 315.5v638h19 v-638q0 -208 101 -308.5t273 -100.5q180 0 278.5 120t98.5 323v604h19v-1042h-19v280q-33 -144 -131.5 -222.5t-245.5 -78.5z" />
<glyph unicode="&#x16a;" horiz-adv-x="1466" d="M458 1879v19h550v-19h-550zM733 -21q-277 0 -400 141.5t-123 448.5v901h19v-903q0 -297 117.5 -434.5t386.5 -137.5t386.5 137.5t117.5 434.5v903h19v-901q0 -307 -123 -448.5t-400 -141.5z" />
<glyph unicode="&#x16b;" horiz-adv-x="1159" d="M290 1451v19h550v-19h-550zM563 -21q-190 0 -291.5 109.5t-101.5 315.5v638h19v-638q0 -208 101 -308.5t273 -100.5q180 0 278.5 120t98.5 323v604h19v-1042h-19v280q-33 -144 -131.5 -222.5t-245.5 -78.5z" />
<glyph unicode="&#x16c;" horiz-adv-x="1466" d="M502 1898h20q22 -69 77.5 -106t133.5 -37t133.5 37t77.5 106h20q-22 -75 -83 -118.5t-148 -43.5t-148 43.5t-83 118.5zM733 -21q-277 0 -400 141.5t-123 448.5v901h19v-903q0 -297 117.5 -434.5t386.5 -137.5t386.5 137.5t117.5 434.5v903h19v-901q0 -307 -123 -448.5 t-400 -141.5z" />
<glyph unicode="&#x16d;" horiz-adv-x="1159" d="M334 1470h20q22 -69 77.5 -106t133.5 -37t133.5 37t77.5 106h20q-22 -75 -83 -118.5t-148 -43.5t-148 43.5t-83 118.5zM563 -21q-190 0 -291.5 109.5t-101.5 315.5v638h19v-638q0 -208 101 -308.5t273 -100.5q180 0 278.5 120t98.5 323v604h19v-1042h-19v280 q-33 -144 -131.5 -222.5t-245.5 -78.5z" />
<glyph unicode="&#x16e;" horiz-adv-x="1466" d="M510 1853q0 91 66 153t157 62q92 0 157.5 -62t65.5 -153q0 -92 -66 -157t-157 -65t-157 65t-66 157zM530 1854q0 -82 59.5 -144.5t143.5 -62.5q85 0 144.5 62t59.5 145q0 81 -59.5 139.5t-144.5 58.5t-144 -58.5t-59 -139.5zM733 -21q-277 0 -400 141.5t-123 448.5v901 h19v-903q0 -297 117.5 -434.5t386.5 -137.5t386.5 137.5t117.5 434.5v903h19v-901q0 -307 -123 -448.5t-400 -141.5z" />
<glyph unicode="&#x16f;" horiz-adv-x="1159" d="M342 1425q0 91 66 153t157 62q92 0 157.5 -62t65.5 -153q0 -92 -66 -157t-157 -65t-157 65t-66 157zM362 1426q0 -82 59.5 -144.5t143.5 -62.5q85 0 144.5 62t59.5 145q0 81 -59.5 139.5t-144.5 58.5t-144 -58.5t-59 -139.5zM563 -21q-190 0 -291.5 109.5t-101.5 315.5 v638h19v-638q0 -208 101 -308.5t273 -100.5q180 0 278.5 120t98.5 323v604h19v-1042h-19v280q-33 -144 -131.5 -222.5t-245.5 -78.5z" />
<glyph unicode="&#x170;" horiz-adv-x="1466" d="M545 1670h-27l229 228h27zM872 1670h-27l229 228h27zM733 -21q-277 0 -400 141.5t-123 448.5v901h19v-903q0 -297 117.5 -434.5t386.5 -137.5t386.5 137.5t117.5 434.5v903h19v-901q0 -307 -123 -448.5t-400 -141.5z" />
<glyph unicode="&#x171;" horiz-adv-x="1159" d="M644 1470l-258 -258h-27l258 258h27zM971 1470l-258 -258h-27l258 258h27zM563 -21q-190 0 -291.5 109.5t-101.5 315.5v638h19v-638q0 -208 101 -308.5t273 -100.5q180 0 278.5 120t98.5 323v604h19v-1042h-19v280q-33 -144 -131.5 -222.5t-245.5 -78.5z" />
<glyph unicode="&#x172;" horiz-adv-x="1466" d="M1256 569q0 -148 -27 -254.5t-88 -184t-165 -115t-254 -36.5q-83 -89 -83 -166q0 -58 41 -95.5t108 -37.5q44 0 82 18l8 -17q-42 -20 -90 -20q-75 0 -121.5 43t-46.5 109q0 90 81 166q-260 8 -375.5 149.5t-115.5 440.5v901h19v-903q0 -293 114.5 -430.5t374.5 -141.5 q1 1 3 2.5t3 2.5h19l-5 -5q266 1 382.5 139t116.5 433v903h19v-901z" />
<glyph unicode="&#x173;" horiz-adv-x="1159" d="M563 -21q-190 0 -291.5 109.5t-101.5 315.5v638h19v-638q0 -208 101 -308.5t273 -100.5q180 0 278.5 120t98.5 323v604h19v-1042q-104 -101 -104 -187q0 -58 41 -95.5t108 -37.5q44 0 82 18l8 -17q-42 -20 -90 -20q-75 0 -121.5 43t-46.5 109q0 50 27.5 98.5t76.5 88.5 v280q-33 -144 -131.5 -222.5t-245.5 -78.5z" />
<glyph unicode="&#x174;" horiz-adv-x="1864" d="M664 1630l255 268h26l255 -268h-26l-242 254l-242 -254h-26zM515 -15l-450 1485h20l435 -1437l407 1446h10l408 -1446l434 1437h20l-449 -1485h-10l-408 1445l-407 -1445h-10z" />
<glyph unicode="&#x175;" horiz-adv-x="1564" d="M554 1212l215 258h25l215 -258h-25l-202 243l-203 -243h-25zM414 -10l-344 1052h20l329 -1008l358 1018h10l357 -1019l330 1009h20l-344 -1052h-10l-358 1020l-358 -1020h-10z" />
<glyph unicode="&#x176;" horiz-adv-x="1239" d="M352 1630l255 268h26l255 -268h-26l-242 254l-242 -254h-26zM611 0v695l-581 775h23l566 -757h2l565 757h23l-579 -775v-695h-19z" />
<glyph unicode="&#x177;" horiz-adv-x="1065" d="M305 1212l215 258h25l215 -258h-25l-202 243l-203 -243h-25zM327 -385l188 410l-455 1017h20l445 -992h2l457 992h21l-658 -1427h-20z" />
<glyph unicode="&#x178;" horiz-adv-x="1239" d="M381 1736h-19v162h19v-162zM878 1736h-19v162h19v-162zM611 0v695l-581 775h23l566 -757h2l565 757h23l-579 -775v-695h-19z" />
<glyph unicode="&#x179;" horiz-adv-x="1232" d="M725 1670h-27l229 228h27zM84 0v16l1017 1438h-939v16h961v-16l-1017 -1438h1046v-16h-1068z" />
<glyph unicode="&#x17a;" horiz-adv-x="961" d="M792 1470l-258 -258h-27l258 258h27zM85 0v16l759 1010h-715v16h738v-16l-759 -1010h768v-16h-791z" />
<glyph unicode="&#x17b;" horiz-adv-x="1232" d="M688 1736h-19v162h19v-162zM84 0v16l1017 1438h-939v16h961v-16l-1017 -1438h1046v-16h-1068z" />
<glyph unicode="&#x17c;" horiz-adv-x="961" d="M530 1288h-19v182h19v-182zM85 0v16l759 1010h-715v16h738v-16l-759 -1010h768v-16h-791z" />
<glyph unicode="&#x17d;" horiz-adv-x="1232" d="M411 1898h26l242 -254l242 254h26l-255 -268h-26zM84 0v16l1017 1438h-939v16h961v-16l-1017 -1438h1046v-16h-1068z" />
<glyph unicode="&#x17e;" horiz-adv-x="961" d="M508 1212l-215 258h25l203 -243l202 243h25l-215 -258h-25zM85 0v16l759 1010h-715v16h738v-16l-759 -1010h768v-16h-791z" />
<glyph unicode="&#x218;" horiz-adv-x="1236" d="M651 -21q-100 0 -184.5 22.5t-158.5 71t-125 134t-71 203.5h19q20 -111 68 -192.5t118 -129.5t153 -70.5t181 -22.5q89 0 169.5 21t148 64t108 116.5t40.5 169.5v2q0 68 -23.5 124t-61.5 94.5t-95.5 69t-115.5 49.5t-132 35l-184 40q-72 16 -131 43t-109 69t-77.5 104.5 t-27.5 140.5v2q0 108 65.5 190t165 122t212.5 40q197 0 326.5 -97t167.5 -287h-19q-38 180 -162.5 274t-312.5 94q-78 0 -153.5 -23t-136 -65t-97.5 -106.5t-37 -140.5v-2q0 -268 333 -340l184 -40q73 -16 131.5 -35t118 -51t100 -72.5t65.5 -100t25 -131.5v-2 q0 -182 -136.5 -284.5t-348.5 -102.5zM624 -96l-122 -242h-19l122 242h19z" />
<glyph unicode="&#x219;" horiz-adv-x="994" d="M514 -21q-358 0 -415 319h19q58 -303 398 -303q100 0 179 27.5t129.5 89t50.5 149.5v2q0 40 -10.5 73.5t-27.5 58t-44.5 44.5t-53.5 33t-63 24t-66 17.5t-68 13.5l-134 24q-286 51 -286 252v2q0 113 104 181.5t259 68.5q322 0 380 -268h-19q-61 252 -363 252 q-84 0 -159.5 -24.5t-129 -80t-53.5 -131.5v-2q0 -183 272 -232l139 -25q56 -10 97.5 -20.5t90.5 -32.5t80.5 -50.5t52.5 -74t21 -103.5v-2q0 -135 -104 -208.5t-276 -73.5zM497 -96l-122 -242h-19l122 242h19z" />
<glyph unicode="&#x21a;" horiz-adv-x="1245" d="M613 0v1454h-593v16h1205v-16h-593v-1454h-19zM623 -96l-122 -242h-19l122 242h19z" />
<glyph unicode="&#x21b;" horiz-adv-x="593" d="M458 0q-126 0 -175 67t-49 213v746h-189v16h189v231h19v-231h265v-16h-265v-744q0 -141 44.5 -203.5t160.5 -62.5h51v-16h-51zM282 -96l-122 -242h-19l122 242h19z" />
<glyph unicode="&#x2c6;" horiz-adv-x="555" d="M50 1212l215 258h25l215 -258h-25l-202 243l-203 -243h-25z" />
<glyph unicode="&#x2da;" horiz-adv-x="546" d="M50 1425q0 91 66 153t157 62q92 0 157.5 -62t65.5 -153q0 -92 -66 -157t-157 -65t-157 65t-66 157zM70 1426q0 -82 59.5 -144.5t143.5 -62.5q85 0 144.5 62t59.5 145q0 81 -59.5 139.5t-144.5 58.5t-144 -58.5t-59 -139.5z" />
<glyph unicode="&#x2dc;" horiz-adv-x="680" d="M611 1470h19q0 -83 -37.5 -128t-107.5 -45q-40 0 -80 21.5t-68 48t-66.5 48t-75.5 21.5q-61 0 -93.5 -40t-32.5 -114h-19q0 83 37.5 128t107.5 45q40 0 80 -21.5t68 -48t66.5 -48t75.5 -21.5q61 0 93.5 40t32.5 114z" />
<glyph unicode="&#x2000;" horiz-adv-x="1034" />
<glyph unicode="&#x2001;" horiz-adv-x="2068" />
<glyph unicode="&#x2002;" horiz-adv-x="1034" />
<glyph unicode="&#x2003;" horiz-adv-x="2068" />
<glyph unicode="&#x2004;" horiz-adv-x="689" />
<glyph unicode="&#x2005;" horiz-adv-x="517" />
<glyph unicode="&#x2006;" horiz-adv-x="344" />
<glyph unicode="&#x2007;" horiz-adv-x="344" />
<glyph unicode="&#x2008;" horiz-adv-x="258" />
<glyph unicode="&#x2009;" horiz-adv-x="413" />
<glyph unicode="&#x200a;" horiz-adv-x="114" />
<glyph unicode="&#x2010;" horiz-adv-x="760" d="M100 512v16h560v-16h-560z" />
<glyph unicode="&#x2011;" horiz-adv-x="760" d="M100 512v16h560v-16h-560z" />
<glyph unicode="&#x2012;" horiz-adv-x="760" d="M100 512v16h560v-16h-560z" />
<glyph unicode="&#x2013;" horiz-adv-x="1130" d="M100 512v16h930v-16h-930z" />
<glyph unicode="&#x2014;" horiz-adv-x="1930" d="M100 512v16h1730v-16h-1730z" />
<glyph unicode="&#x2018;" horiz-adv-x="407" d="M287 1470l-128 -410h-19l128 410h19z" />
<glyph unicode="&#x2019;" horiz-adv-x="407" d="M120 1060l128 410h19l-128 -410h-19z" />
<glyph unicode="&#x201a;" horiz-adv-x="407" d="M120 -228l128 410h19l-128 -410h-19z" />
<glyph unicode="&#x201c;" horiz-adv-x="769" d="M287 1470l-128 -410h-19l128 410h19zM649 1470l-128 -410h-19l128 410h19z" />
<glyph unicode="&#x201d;" horiz-adv-x="769" d="M482 1060l128 410h19l-128 -410h-19zM120 1060l128 410h19l-128 -410h-19z" />
<glyph unicode="&#x201e;" horiz-adv-x="769" d="M120 -228l128 410h19l-128 -410h-19zM482 -228l128 410h19l-128 -410h-19z" />
<glyph unicode="&#x2026;" horiz-adv-x="1389" d="M704 0h-19v182h19v-182zM1167 0h-19v182h19v-182zM241 0h-19v182h19v-182z" />
<glyph unicode="&#x202f;" horiz-adv-x="413" />
<glyph unicode="&#x2039;" horiz-adv-x="576" d="M356 192l-236 373l236 372h20l-236 -372l236 -373h-20z" />
<glyph unicode="&#x203a;" horiz-adv-x="576" d="M456 565l-236 -373h-20l236 373l-236 372h20z" />
<glyph unicode="&#x205f;" horiz-adv-x="517" />
<glyph unicode="&#x20ac;" horiz-adv-x="1505" d="M860 -21q-231 0 -378.5 164t-181.5 436h-260l9 16h249q-8 72 -8 139v2q0 65 6 125h-256l9 16h249q31 277 180 445.5t382 168.5q201 0 337.5 -114.5t177.5 -325.5h-19q-40 203 -173 313.5t-323 110.5q-225 0 -368.5 -164t-174.5 -434h538l-9 -16h-531q-6 -60 -6 -125v-2 q0 -67 8 -139h538l-9 -16h-527q34 -265 176.5 -424.5t364.5 -159.5q190 0 323 110.5t173 313.5h19q-41 -211 -177.5 -325.5t-337.5 -114.5z" />
<glyph unicode="&#x25fc;" horiz-adv-x="1040" d="M0 1040h1040v-1040h-1040v1040z" />
</font>
</defs>
</svg>
