<?xml version="1.0" standalone="no"?>
<!DOCTYPE svg PUBLIC "-//W3C//DTD SVG 1.1//EN" "http://www.w3.org/Graphics/SVG/1.1/DTD/svg11.dtd" >
<svg xmlns="http://www.w3.org/2000/svg" xmlns:xlink="http://www.w3.org/1999/xlink" version="1.1">
<metadata></metadata>
<defs>
<font id="antarctica_betalight" horiz-adv-x="1187" >
<font-face units-per-em="2000" ascent="1600" descent="-400" />
<missing-glyph horiz-adv-x="453" />
<glyph horiz-adv-x="1000" />
<glyph horiz-adv-x="1000" />
<glyph unicode="&#xd;" horiz-adv-x="0" />
<glyph unicode=" "  horiz-adv-x="453" />
<glyph unicode="&#x09;" horiz-adv-x="453" />
<glyph unicode="&#xa0;" horiz-adv-x="453" />
<glyph unicode="!" horiz-adv-x="611" d="M245 417l-22 583v470h165v-470l-22 -583h-121zM390 0h-169v232h169v-232z" />
<glyph unicode="&#x22;" horiz-adv-x="679" d="M414 1470h164v-79l-19 -392h-126l-19 392v79zM100 1470h164v-79l-19 -392h-127l-18 392v79z" />
<glyph unicode="#" horiz-adv-x="1458" d="M184 929l17 131h258l53 410h136l-54 -410h347l54 410h135l-53 -410h264l-19 -131h-262l-50 -377h263l-17 -131h-263l-55 -421h-134l54 421h-347l-55 -421h-135l55 421h-258l17 131h258l49 377h-258zM528 552h347l49 377h-347z" />
<glyph unicode="$" horiz-adv-x="1310" d="M581 -246v225q-206 22 -329 141t-153 314h171q62 -326 411 -326q161 0 263.5 67t102.5 198v2q0 53 -17.5 95.5t-45.5 71t-74 51.5t-90.5 37t-107.5 29l-190 45q-182 44 -285 140.5t-103 264.5v2q0 162 125.5 265t321.5 118v222h142v-224q186 -19 299 -123.5t142 -283.5 h-170q-66 277 -363 277q-140 0 -234.5 -65t-94.5 -180v-2q0 -105 65.5 -167t193.5 -93l190 -46q80 -19 141 -39.5t125 -55t104.5 -76t67 -104t26.5 -139.5v-3q0 -190 -135.5 -298t-356.5 -119v-221h-142z" />
<glyph unicode="%" horiz-adv-x="1899" d="M460 664q-157 0 -248.5 110t-91.5 305v2q0 196 91.5 305.5t248.5 109.5q159 0 250 -109.5t91 -305.5v-2q0 -195 -91.5 -305t-249.5 -110zM556 0l633 1470h153l-633 -1470h-153zM460 778q98 0 151 75.5t53 225.5v2q0 152 -53 227.5t-151 75.5q-97 0 -150 -75.5t-53 -227.5 v-2q0 -150 53 -225.5t150 -75.5zM1438 -26q-158 0 -249 109.5t-91 305.5v2q0 195 91 305t249 110t249.5 -110t91.5 -305v-2q0 -196 -91 -305.5t-250 -109.5zM1438 87q97 0 150.5 75.5t53.5 226.5v2q0 151 -53.5 226.5t-150.5 75.5t-150 -75.5t-53 -226.5v-2 q0 -151 53 -226.5t150 -75.5z" />
<glyph unicode="&#x26;" horiz-adv-x="1539" d="M1288 0l-199 208q-111 -120 -232 -177t-272 -57q-215 0 -344 111.5t-129 294.5v2q0 147 95 257t285 193q-84 91 -131 173t-47 174v3q0 137 101 225.5t263 88.5q167 0 267.5 -84t100.5 -225v-4q0 -121 -79 -212.5t-239 -168.5l362 -378q113 156 191 311h165 q-99 -201 -260 -411l310 -324h-208zM637 896q129 56 189 124t60 159v3q0 87 -59 139t-149 52q-89 0 -146.5 -51t-57.5 -141v-3q0 -68 44 -136t119 -146zM995 305l-412 432q-159 -66 -233 -153.5t-74 -199.5v-1q0 -122 90.5 -201.5t232.5 -79.5q112 0 208 50.5t188 152.5z " />
<glyph unicode="'" horiz-adv-x="364" d="M100 1470h164v-79l-19 -392h-127l-18 392v79z" />
<glyph unicode="(" horiz-adv-x="543" d="M493 1531q-116 -185 -183 -430.5t-67 -487.5t67 -487.5t183 -431.5h-140q-110 160 -181.5 418.5t-71.5 500.5q0 241 71.5 499.5t181.5 418.5h140z" />
<glyph unicode=")" horiz-adv-x="543" d="M50 1531h139q111 -159 182.5 -417.5t71.5 -500.5t-71.5 -501t-182.5 -418h-139q116 186 182.5 431.5t66.5 487.5t-66.5 487.5t-182.5 430.5z" />
<glyph unicode="*" horiz-adv-x="810" d="M274 890l-93 67l131 180l-212 70l36 109l212 -69v223h115v-223l212 69l35 -109l-212 -70l131 -180l-92 -67l-132 180z" />
<glyph unicode="+" horiz-adv-x="1246" d="M552 805v453h139v-453h455v-139h-455v-454h-139v454h-452v139h452z" />
<glyph unicode="," horiz-adv-x="507" d="M90 -227l139 459h168l-166 -459h-141z" />
<glyph unicode="-" horiz-adv-x="788" d="M100 451v140h588v-140h-588z" />
<glyph unicode="." horiz-adv-x="531" d="M350 0h-169v232h169v-232z" />
<glyph unicode="/" horiz-adv-x="1007" d="M120 -206l611 1676h156l-611 -1676h-156z" />
<glyph unicode="0" horiz-adv-x="1387" d="M694 -26q-186 0 -316.5 96t-194 265.5t-63.5 398.5v2q0 229 63.5 398.5t194 265.5t316.5 96q185 0 315.5 -96t194.5 -265.5t64 -398.5v-2q0 -229 -64 -398.5t-194.5 -265.5t-315.5 -96zM694 115q192 0 297 159t105 460v2q0 301 -105 460t-297 159t-297 -159t-105 -460v-2 q0 -301 105 -460t297 -159z" />
<glyph unicode="1" horiz-adv-x="865" d="M409 0v1141h-320v143h100q55 0 87.5 3.5t63 13.5t48.5 31.5t33 54.5t27 85h126v-1472h-165z" />
<glyph unicode="2" horiz-adv-x="1260" d="M114 0v55q0 117 32 213.5t95 171t139.5 130.5t182.5 110l116 61q137 72 200 151.5t63 197.5v1q0 126 -83 196.5t-219 70.5q-304 0 -325 -313h-167q14 218 146 334.5t350 116.5q207 0 339.5 -103.5t132.5 -292.5v-2q0 -162 -87 -274.5t-266 -203.5l-113 -59 q-82 -43 -140.5 -83t-107.5 -90.5t-74 -111.5t-26 -133h836v-143h-1024z" />
<glyph unicode="3" horiz-adv-x="1295" d="M655 -26q-235 0 -383.5 116.5t-171.5 324.5h171q22 -153 124.5 -228t258.5 -75t253.5 76t97.5 218v2q0 138 -107.5 213.5t-291.5 75.5h-82v135h83q171 0 262.5 75t91.5 196v2q0 120 -84.5 186.5t-225.5 66.5q-293 0 -323 -290h-171q21 202 151.5 315t350.5 113 q211 0 339 -99.5t128 -275.5v-2q0 -127 -70.5 -218.5t-183.5 -125.5v-2q138 -37 221 -128.5t83 -241.5v-2q0 -134 -69 -232t-185.5 -146.5t-266.5 -48.5z" />
<glyph unicode="4" horiz-adv-x="1346" d="M852 0v362h-792v143l792 965h164v-965h272v-143h-272v-362h-164zM226 505h626v770h-1z" />
<glyph unicode="5" horiz-adv-x="1285" d="M642 -26q-223 0 -360.5 113.5t-162.5 320.5h170q25 -151 116 -223.5t234 -72.5q151 0 253.5 94.5t102.5 255.5v2q0 161 -99.5 261t-249.5 100q-115 0 -201.5 -47.5t-129.5 -130.5l-152 29l104 794h819v-143h-684l-67 -504q130 139 348 139q210 0 346.5 -137.5 t136.5 -357.5v-2q0 -147 -71 -260.5t-189.5 -172t-263.5 -58.5z" />
<glyph unicode="6" horiz-adv-x="1300" d="M660 -26q-255 0 -397.5 171t-142.5 489v2q0 264 63 455t192.5 298t316.5 107q194 0 310 -103.5t142 -262.5h-162q-24 112 -102.5 170t-197.5 58q-182 0 -284 -163t-111 -468q54 107 159 172.5t249 65.5q205 0 345.5 -140.5t140.5 -356.5v-2q0 -213 -146.5 -352.5 t-374.5 -139.5zM658 112q154 0 253.5 96.5t99.5 255.5v2q0 162 -99.5 261.5t-253.5 99.5t-254 -100t-100 -261v-2q0 -158 98.5 -255t255.5 -97z" />
<glyph unicode="7" horiz-adv-x="1132" d="M302 0q12 455 160.5 774.5t435.5 552.5h-840v143h1016v-143q-300 -235 -447 -549.5t-160 -777.5h-165z" />
<glyph unicode="8" horiz-adv-x="1298" d="M649 -26q-240 0 -384.5 116.5t-144.5 312.5v2q0 75 24 139t65.5 108.5t89 75t102.5 49.5v2q-103 39 -168.5 126.5t-65.5 209.5v2q0 169 133.5 274t348.5 105t349 -105t134 -274v-2q0 -122 -66 -209.5t-169 -126.5v-2q55 -19 102.5 -49.5t89 -75t65.5 -108.5t24 -139v-2 q0 -196 -144.5 -312.5t-384.5 -116.5zM649 840q137 0 225 69t88 189v1q0 120 -88 189.5t-225 69.5q-136 0 -224.5 -70t-88.5 -189v-1q0 -120 88 -189t225 -69zM649 112q163 0 260.5 78.5t97.5 215.5v2q0 137 -97.5 215.5t-260.5 78.5t-260 -78.5t-97 -215.5v-2 q0 -137 97 -215.5t260 -78.5z" />
<glyph unicode="9" horiz-adv-x="1300" d="M640 1496q255 0 398 -170.5t143 -489.5v-2q0 -264 -63 -455t-193 -298t-317 -107q-194 0 -310 103.5t-142 262.5h162q24 -112 102.5 -170t197.5 -58q182 0 284 163t111 468q-53 -107 -158.5 -172.5t-249.5 -65.5q-205 0 -345 140.5t-140 356.5v2q0 213 146 352.5 t374 139.5zM642 1358q-154 0 -253.5 -96.5t-99.5 -255.5v-2q0 -162 99.5 -261.5t253.5 -99.5t254 100t100 261v2q0 158 -98.5 255t-255.5 97z" />
<glyph unicode=":" horiz-adv-x="531" d="M350 809h-169v233h169v-233zM350 0h-169v232h169v-232z" />
<glyph unicode=";" horiz-adv-x="566" d="M386 809h-169v233h169v-233zM90 -227l139 459h168l-166 -459h-141z" />
<glyph unicode="&#x3c;" horiz-adv-x="1023" d="M100 796l823 434v-157l-653 -343v-1l653 -342v-157l-823 433v133z" />
<glyph unicode="=" horiz-adv-x="1246" d="M100 856v139h1046v-139h-1046zM100 477v139h1046v-139h-1046z" />
<glyph unicode="&#x3e;" horiz-adv-x="1023" d="M100 1230l823 -434v-133l-823 -433v157l653 342v1l-653 343v157z" />
<glyph unicode="?" horiz-adv-x="1068" d="M513 1364q-130 0 -210 -77t-80 -206h-167q1 186 127.5 300.5t330.5 114.5q215 0 337 -101t122 -275v-1q0 -195 -171 -339l-75 -64q-92 -77 -123 -135t-31 -164h-151q0 141 33 214.5t133 156.5l77 67q69 58 101.5 117.5t32.5 139.5v1q0 117 -75.5 184t-210.5 67zM583 0 h-169v232h169v-232z" />
<glyph unicode="@" horiz-adv-x="1774" d="M762 239q-130 0 -215.5 92t-85.5 266v2q0 122 50.5 231t149.5 179.5t224 70.5q97 0 163 -51t87 -137l22 151h104l-67 -476q-31 -231 113 -231q97 0 167 110.5t69 296.5v2q0 176 -80 303t-217.5 189t-318.5 62q-199 0 -357.5 -93t-245 -251t-86.5 -350v-2 q-1 -274 169 -442t451 -168q220 0 400 90l42 -100q-92 -46 -210 -71.5t-232 -25.5q-218 0 -386 90.5t-260 254.5t-92 375v2q0 165 62.5 312t170 252.5t257.5 166.5t319 61q157 0 287.5 -40.5t229 -119t153.5 -204t55 -286.5v-2q0 -121 -30.5 -221t-81.5 -164t-114.5 -98.5 t-131.5 -34.5q-93 0 -147 59.5t-56 160.5q-45 -94 -130 -152.5t-201 -58.5zM794 346q90 0 160.5 56.5t106 143.5t35.5 186v2q0 113 -54.5 175t-153.5 62q-88 0 -158 -54t-106.5 -139t-36.5 -181v-2q0 -120 55 -184.5t152 -64.5z" />
<glyph unicode="A" horiz-adv-x="1420" d="M38 0l581 1474h182l581 -1474h-172l-170 440h-670l-169 -440h-163zM424 582h561l-280 723h-3z" />
<glyph unicode="B" horiz-adv-x="1366" d="M192 0v1470h522q215 0 333 -101.5t118 -269.5v-2q0 -118 -60.5 -202t-158.5 -120v-1q65 -17 117.5 -44.5t95.5 -70.5t67 -106.5t24 -142.5v-2q0 -201 -138 -304.5t-380 -103.5h-540zM355 824h347q136 0 217 68t81 186v2q0 118 -81 185.5t-217 67.5h-347v-509zM355 137 h373q175 0 262 72t87 205v1q0 130 -87.5 201.5t-261.5 71.5h-373v-551z" />
<glyph unicode="C" horiz-adv-x="1576" d="M822 -26q-215 0 -381 98t-255 270.5t-89 391.5v2q0 219 89 391.5t255 270.5t381 98q253 0 426.5 -125.5t231.5 -350.5h-171q-48 162 -180 248t-308 86q-167 0 -293 -79.5t-192 -219t-66 -319.5v-2q0 -180 66 -319.5t192 -219t293 -79.5q176 0 308 86t180 248h171 q-58 -225 -231.5 -350.5t-426.5 -125.5z" />
<glyph unicode="D" horiz-adv-x="1496" d="M192 0v1470h420q172 0 316 -48.5t249 -140t163.5 -231.5t58.5 -316v-2q0 -175 -58.5 -314.5t-163.5 -230.5t-249 -139t-316 -48h-420zM355 141h254q136 0 248.5 37t195 109t128 185.5t45.5 259.5v2q0 194 -80 329.5t-217 200.5t-320 65h-254v-1188z" />
<glyph unicode="E" horiz-adv-x="1251" d="M192 0v1470h932v-143h-769v-510h700v-142h-700v-532h770v-143h-933z" />
<glyph unicode="F" horiz-adv-x="1185" d="M192 0v1470h940v-143h-777v-510h709v-142h-709v-675h-163z" />
<glyph unicode="G" horiz-adv-x="1680" d="M818 -26q-160 0 -295 57t-228.5 157t-145.5 241t-52 305v2q0 219 89 391.5t255 270.5t381 98q252 0 425.5 -120.5t232.5 -335.5h-171q-48 151 -180 232.5t-306 81.5q-252 0 -402.5 -172t-150.5 -446v-2q0 -181 66.5 -321t192.5 -219t294 -79q103 0 193.5 29.5t160.5 85 t111 143t41 196.5v49h-517v137h673v-755h-135l-2 261q-61 -127 -199.5 -207t-330.5 -80z" />
<glyph unicode="H" horiz-adv-x="1510" d="M192 0v1470h163v-654h799v654h164v-1470h-164v669h-799v-669h-163z" />
<glyph unicode="I" horiz-adv-x="547" d="M192 0v1470h163v-1470h-163z" />
<glyph unicode="J" horiz-adv-x="1101" d="M483 -26q-91 0 -169 26.5t-138 78t-95 135t-36 191.5h170q1 -149 75.5 -221t193.5 -72q121 0 196.5 73.5t75.5 227.5v1057h164v-1057q0 -110 -34 -195t-94.5 -137.5t-138.5 -79.5t-170 -27z" />
<glyph unicode="K" horiz-adv-x="1356" d="M192 0v1470h163v-667l743 667h214l-800 -723l815 -747h-230l-742 671v-671h-163z" />
<glyph unicode="L" horiz-adv-x="1136" d="M192 0v1470h163v-1327h728v-143h-891z" />
<glyph unicode="M" horiz-adv-x="1831" d="M192 0v1470h258l465 -1301h2l464 1301h258v-1470h-157v734l1 574h-2l-474 -1311h-182l-475 1311h-2l1 -574v-734h-157z" />
<glyph unicode="N" horiz-adv-x="1510" d="M192 0v1470h213l754 -1261h2l-1 526v735h158v-1470h-215l-752 1261h-2l1 -526v-735h-158z" />
<glyph unicode="O" horiz-adv-x="1653" d="M826 -26q-215 0 -382 98t-257 271t-90 392v2q0 219 90 391.5t256.5 270t382.5 97.5t382.5 -97.5t257 -270t90.5 -391.5v-2q0 -219 -90.5 -392t-257.5 -271t-382 -98zM826 117q168 0 295 79.5t194 219.5t67 319v2q0 273 -151.5 444.5t-404.5 171.5t-404.5 -171.5 t-151.5 -444.5v-2q0 -179 67 -319t194 -219.5t295 -79.5z" />
<glyph unicode="P" horiz-adv-x="1281" d="M192 0v1470h483q268 0 407 -111t139 -319v-2q0 -208 -139 -319t-407 -111h-320v-608h-163zM355 750h315q378 0 378 288v2q0 289 -378 289h-315v-579z" />
<glyph unicode="Q" horiz-adv-x="1652" d="M826 -26q-215 0 -382 98t-257 271t-90 392v2q0 219 90 391.5t256.5 270t382.5 97.5t382.5 -97.5t257 -270t90.5 -391.5v-2q0 -205 -81 -371t-226 -266l367 -316h-213l-285 246q-134 -54 -292 -54zM826 116q167 0 294.5 79.5t194.5 219.5t67 320v2q0 273 -151.5 445 t-404.5 172t-404.5 -172t-151.5 -445v-2q0 -180 67 -320t194.5 -219.5t294.5 -79.5z" />
<glyph unicode="R" horiz-adv-x="1365" d="M192 0v1470h475q269 0 408 -108t139 -314v-2q0 -172 -100 -276.5t-292 -133.5l469 -636h-193l-458 625h-285v-625h-163zM355 766h310q185 0 280.5 67.5t95.5 212.5v2q0 146 -95.5 213.5t-280.5 67.5h-310v-563z" />
<glyph unicode="S" horiz-adv-x="1310" d="M675 -26q-247 0 -395 122t-181 338h171q62 -326 411 -326q161 0 263.5 67t102.5 198v2q0 53 -17.5 95.5t-45.5 71t-74 51.5t-90.5 37t-107.5 29l-190 45q-182 44 -285 140.5t-103 264.5v2q0 116 67 204.5t181.5 134.5t256.5 46q222 0 357.5 -106.5t167.5 -304.5h-170 q-66 277 -363 277q-140 0 -234.5 -65t-94.5 -180v-2q0 -105 65.5 -167t193.5 -93l190 -46q80 -19 141 -39.5t125 -55t104.5 -76t67 -104t26.5 -139.5v-3q0 -134 -71 -229.5t-191.5 -142t-277.5 -46.5z" />
<glyph unicode="T" horiz-adv-x="1275" d="M555 0v1327h-518v143h1201v-143h-519v-1327h-164z" />
<glyph unicode="U" horiz-adv-x="1483" d="M740 -26q-274 0 -417.5 139.5t-143.5 446.5v910h164v-910q0 -235 100.5 -339.5t296.5 -104.5q198 0 299 104.5t101 339.5v910h163v-910q0 -307 -144 -446.5t-419 -139.5z" />
<glyph unicode="V" horiz-adv-x="1481" d="M650 -4l-602 1474h176l521 -1292l522 1292h166l-601 -1474h-182z" />
<glyph unicode="W" horiz-adv-x="1983" d="M461 -4l-402 1474h169l344 -1277l317 1279h204l321 -1278l340 1276h170l-398 -1474h-205l-329 1305l-326 -1305h-205z" />
<glyph unicode="X" horiz-adv-x="1458" d="M76 0l561 744l-526 726h199l424 -592l427 592h184l-524 -716l562 -754h-200l-459 620l-464 -620h-184z" />
<glyph unicode="Y" horiz-adv-x="1379" d="M608 0v616l-565 854h186l393 -605l68 -107h2l68 107l390 605h186l-564 -854v-616h-164z" />
<glyph unicode="Z" horiz-adv-x="1266" d="M94 0v138l860 1189h-814v143h1014v-138l-862 -1189h881v-143h-1079z" />
<glyph unicode="[" horiz-adv-x="679" d="M100 -306v1838h479v-124h-336v-1590h336v-124h-479z" />
<glyph unicode="\" horiz-adv-x="1007" d="M276 1470l611 -1676h-156l-611 1676h156z" />
<glyph unicode="]" horiz-adv-x="679" d="M579 1532v-1838h-479v124h336v1590h-336v124h479z" />
<glyph unicode="_" horiz-adv-x="1051" d="M50 -266v139h951v-139h-951z" />
<glyph unicode="`" horiz-adv-x="575" d="M352 1212l-302 258h211l264 -258h-173z" />
<glyph unicode="a" horiz-adv-x="1133" d="M458 -26q-156 0 -262.5 80t-106.5 216v2q0 77 35 135.5t96 97.5t157 66.5t202.5 42t247.5 23.5v30q0 144 -68 211.5t-190 67.5q-124 0 -192 -59t-73 -163h-160q11 156 126.5 250t301.5 94q203 0 308.5 -101.5t104.5 -320.5l-2 -292q-1 -229 25 -354h-150q-11 63 -14 170 q-116 -196 -386 -196zM831 520q-302 -19 -438.5 -71.5t-136.5 -170.5v-2q0 -86 66.5 -134.5t175.5 -48.5q68 0 126.5 19.5t105.5 59.5t74 107t27 154v87z" />
<glyph unicode="b" horiz-adv-x="1268" d="M697 -26q-129 0 -226.5 56.5t-144.5 151.5v-182h-157v1470h157v-612q47 95 144.5 151.5t226.5 56.5q92 0 175.5 -37t148.5 -105t103 -172.5t38 -230.5v-2q0 -126 -38 -230.5t-103 -172.5t-148.5 -105t-175.5 -37zM657 104q146 0 242.5 111t96.5 304v2q0 193 -96.5 304 t-242.5 111q-144 0 -240 -111.5t-96 -303.5v-2q0 -192 96 -303.5t240 -111.5z" />
<glyph unicode="c" horiz-adv-x="1198" d="M615 -26q-226 0 -367 151t-141 395v2q0 244 141 394.5t367 150.5q191 0 317.5 -96.5t164.5 -259.5h-161q-30 107 -114 167t-205 60q-150 0 -247 -112t-97 -304v-2q0 -193 97 -305t247 -112q121 0 205 60t114 167h161q-38 -163 -164.5 -259.5t-317.5 -96.5z" />
<glyph unicode="d" horiz-adv-x="1268" d="M571 -26q-92 0 -175.5 37t-148 105t-103 172.5t-38.5 230.5v2q0 126 38.5 230.5t103 172.5t148 105t175.5 37q129 0 226.5 -56.5t144.5 -151.5v612h158v-1470h-158v182q-47 -95 -144.5 -151.5t-226.5 -56.5zM611 104q144 0 240.5 111.5t96.5 303.5v2q0 192 -96.5 303.5 t-240.5 111.5q-146 0 -242 -111t-96 -304v-2q0 -193 96 -304t242 -111z" />
<glyph unicode="e" horiz-adv-x="1232" d="M628 -26q-237 0 -379 152.5t-142 396.5v2q0 243 146 392.5t368 149.5q236 0 373 -163.5t131 -423.5v-1h-852q10 -172 108 -274.5t251 -102.5q248 0 320 195h160q-44 -148 -168.5 -235.5t-315.5 -87.5zM276 608h682v1q-8 147 -99.5 240t-238.5 93q-141 0 -233.5 -86 t-110.5 -248z" />
<glyph unicode="f" horiz-adv-x="694" d="M225 0v908h-165v134h165v92q0 163 92 249.5t267 86.5h49v-132h-35q-110 0 -162.5 -51t-52.5 -156v-89h248v-134h-248v-908h-158z" />
<glyph unicode="g" horiz-adv-x="1269" d="M573 32q-92 0 -176 35t-149 99t-103.5 163t-38.5 219v2q0 119 38.5 218t103.5 163.5t149 99.5t176 35q128 0 226 -52.5t145 -143.5v172h157v-956q0 -132 -38 -229.5t-106 -153.5t-153.5 -82t-189.5 -26q-193 0 -321.5 95.5t-152.5 263.5h159q16 -105 100.5 -170 t218.5 -65q68 0 124 17.5t102.5 56t73 108.5t26.5 166v160q-47 -91 -145.5 -143t-225.5 -52zM611 161q145 0 241.5 103t96.5 284v2q0 180 -96.5 283t-241.5 103q-146 0 -242.5 -102.5t-96.5 -283.5v-2q0 -181 96.5 -284t242.5 -103z" />
<glyph unicode="h" horiz-adv-x="1182" d="M169 0v1470h157v-576q109 172 329 172q188 0 287 -116t99 -326v-624h-157v593q0 168 -72 254.5t-207 86.5q-138 0 -208.5 -91.5t-70.5 -259.5v-583h-157z" />
<glyph unicode="i" horiz-adv-x="495" d="M169 1248v222h157v-222h-157zM169 0v1042h157v-1042h-157z" />
<glyph unicode="j" horiz-adv-x="495" d="M169 1248v222h157v-222h-157zM-22 -385v134h30q96 0 128.5 40t32.5 149v1104h157v-1109q0 -168 -70.5 -243t-234.5 -75h-43z" />
<glyph unicode="k" horiz-adv-x="1128" d="M170 0v1470h157v-874l544 446h201l-594 -495l627 -547h-222l-556 476v-476h-157z" />
<glyph unicode="l" horiz-adv-x="495" d="M169 0v1470h157v-1470h-157z" />
<glyph unicode="m" horiz-adv-x="1903" d="M169 0v1042h157v-148q109 172 329 172q259 0 345 -213q120 213 371 213q188 0 287 -116t99 -326v-624h-158v593q0 168 -71.5 254.5t-207.5 86.5q-137 0 -208 -91.5t-71 -259.5v-583h-157v593q0 168 -72 254.5t-207 86.5q-138 0 -208.5 -91.5t-70.5 -259.5v-583h-157z" />
<glyph unicode="n" d="M169 0v1042h157v-148q109 172 329 172q188 0 287 -116t99 -326v-624h-157v593q0 168 -72 254.5t-207 86.5q-138 0 -208.5 -91.5t-70.5 -259.5v-583h-157z" />
<glyph unicode="o" horiz-adv-x="1251" d="M625 -26q-232 0 -375 152t-143 394v2q0 242 143 393.5t375 151.5t375.5 -151.5t143.5 -393.5v-2q0 -242 -143.5 -394t-375.5 -152zM625 103q162 0 257.5 114t95.5 303v2q0 189 -95.5 302.5t-257.5 113.5t-257 -113.5t-95 -302.5v-2q0 -189 95 -303t257 -114z" />
<glyph unicode="p" horiz-adv-x="1268" d="M697 -26q-129 0 -226.5 56.5t-144.5 151.5v-567h-157v1427h157v-184q47 95 144.5 151.5t226.5 56.5q92 0 175.5 -37t148.5 -105t103 -172.5t38 -230.5v-2q0 -126 -38 -230.5t-103 -172.5t-148.5 -105t-175.5 -37zM657 104q146 0 242.5 111t96.5 304v2q0 193 -96.5 304 t-242.5 111q-144 0 -240 -111.5t-96 -303.5v-2q0 -192 96 -303.5t240 -111.5z" />
<glyph unicode="q" horiz-adv-x="1268" d="M571 -26q-92 0 -175.5 37t-148 105t-103 172.5t-38.5 230.5v2q0 126 38.5 230.5t103 172.5t148 105t175.5 37q129 0 226.5 -56.5t144.5 -151.5v184h158v-1427h-158v567q-47 -95 -144.5 -151.5t-226.5 -56.5zM611 104q144 0 240.5 111.5t96.5 303.5v2q0 192 -96.5 303.5 t-240.5 111.5q-146 0 -242 -111t-96 -304v-2q0 -193 96 -304t242 -111z" />
<glyph unicode="r" horiz-adv-x="729" d="M169 0v1042h156v-199q43 96 129 153t209 57h22v-153h-49q-153 0 -231.5 -92t-78.5 -267v-541h-157z" />
<glyph unicode="s" horiz-adv-x="1059" d="M545 -26q-195 0 -310.5 93.5t-139.5 245.5h158q46 -220 297 -220q115 0 185.5 44t70.5 129v2q0 37 -13.5 65.5t-34 47t-55 33.5t-65.5 23.5t-77 17.5l-148 31q-136 29 -217 100t-81 191v2q0 127 114.5 207.5t286.5 80.5q170 0 279 -77t137 -220h-158q-47 178 -264 178 q-100 0 -169 -43.5t-69 -118.5v-2q0 -67 48.5 -106.5t140.5 -58.5l149 -31q62 -13 109 -27t95.5 -38t79.5 -54.5t50.5 -76.5t19.5 -104v-2q0 -147 -117 -229.5t-302 -82.5z" />
<glyph unicode="t" horiz-adv-x="730" d="M534 0q-168 0 -240.5 72t-72.5 242v594h-168v134h168v260h157v-260h249v-134h-249v-578q0 -112 43 -154t144 -42h53v-134h-84z" />
<glyph unicode="u" d="M532 -26q-188 0 -287 116t-99 326v626h157v-595q0 -168 72 -254.5t207 -86.5q138 0 208.5 91.5t70.5 259.5v585h158v-1042h-158v146q-109 -172 -329 -172z" />
<glyph unicode="v" horiz-adv-x="1125" d="M476 -3l-428 1045h172l347 -882l354 882h156l-427 -1045h-174z" />
<glyph unicode="w" horiz-adv-x="1699" d="M391 -3l-326 1045h163l262 -870l277 873h165l284 -874l267 871h151l-327 -1045h-174l-289 872l-278 -872h-175z" />
<glyph unicode="x" horiz-adv-x="1141" d="M67 0l417 532l-396 510h179l306 -396l309 396h170l-397 -503l419 -539h-179l-330 426l-334 -426h-164z" />
<glyph unicode="y" horiz-adv-x="1153" d="M313 -385l175 395l-440 1032h170l355 -850h2l369 850h161l-631 -1427h-161z" />
<glyph unicode="z" horiz-adv-x="1023" d="M87 0v128l650 780h-614v134h799v-128l-652 -780h665v-134h-848z" />
<glyph unicode="{" horiz-adv-x="672" d="M75 576v74q87 29 121.5 78t34.5 154v337q0 163 70.5 238.5t218.5 74.5h52v-124h-22q-99 0 -137.5 -42.5t-38.5 -152.5v-310q0 -123 -34.5 -188t-129.5 -101v-2q95 -35 129.5 -100.5t34.5 -188.5v-310q0 -111 38 -153t138 -42h22v-124h-52q-148 -1 -218.5 74.5 t-70.5 238.5v337q0 105 -34.5 154t-121.5 78z" />
<glyph unicode="|" horiz-adv-x="383" d="M120 -205v1851h143v-1851h-143z" />
<glyph unicode="}" horiz-adv-x="672" d="M597 650v-74q-87 -29 -121.5 -78t-34.5 -154v-337q0 -163 -70.5 -238.5t-218.5 -74.5h-52v124h22q100 0 138 42t38 153v310q0 123 34.5 188.5t129.5 100.5v2q-95 36 -129.5 101t-34.5 188v310q0 110 -38.5 152.5t-137.5 42.5h-22v124h52q148 1 218.5 -74.5t70.5 -238.5 v-337q0 -105 34.5 -154t121.5 -78z" />
<glyph unicode="&#xa2;" horiz-adv-x="1204" d="M542 223v184q-197 25 -316 172t-119 370v2q0 222 119 369t316 171v185h155v-185q158 -20 262.5 -113.5t137.5 -237.5h-161q-30 107 -114 167t-205 60q-150 0 -247 -112t-97 -304v-2q0 -193 97 -305t247 -112q121 0 205 60t114 167h161q-33 -144 -137.5 -237.5 t-262.5 -113.5v-185h-155z" />
<glyph unicode="&#xa3;" horiz-adv-x="1256" d="M99 648v134h206l-3 7q-27 65 -40.5 102.5t-27 95.5t-13.5 110v2q0 183 126 290t328 107q96 0 175 -22.5t142.5 -68.5t104.5 -123.5t53 -181.5h-167q-35 258 -311 258q-128 0 -203.5 -68t-75.5 -193v-2q0 -109 66 -275l16 -38h386v-134h-334q33 -101 33 -182v-4 q0 -101 -43.5 -187.5t-118.5 -131.5h739v-143h-998v135q119 23 184 112t65 218v2q0 85 -31 181h-258z" />
<glyph unicode="&#xa8;" horiz-adv-x="734" d="M205 1263h-152v207h152v-207zM680 1263h-152v207h152v-207z" />
<glyph unicode="&#xab;" horiz-adv-x="1075" d="M337 192l-236 373l236 372h166l-231 -372l231 -373h-166zM758 192l-236 373l236 372h166l-231 -372l231 -373h-166z" />
<glyph unicode="&#xad;" horiz-adv-x="788" d="M100 451v140h588v-140h-588z" />
<glyph unicode="&#xb4;" horiz-adv-x="575" d="M525 1470l-302 -258h-173l264 258h211z" />
<glyph unicode="&#xb8;" horiz-adv-x="383" d="M333 -96l-122 -242h-160l143 242h139z" />
<glyph unicode="&#xbb;" horiz-adv-x="1075" d="M974 565l-236 -373h-166l231 373l-231 372h166zM553 565l-236 -373h-166l231 373l-231 372h166z" />
<glyph unicode="&#xc2;" horiz-adv-x="1420" d="M368 1630l269 268h145l270 -268h-162l-180 174l-181 -174h-161zM38 0l581 1474h182l581 -1474h-172l-170 440h-670l-169 -440h-163zM424 582h561l-280 723h-3z" />
<glyph unicode="&#xce;" horiz-adv-x="547" d="M-68 1630l269 268h146l269 -268h-161l-181 174l-180 -174h-162zM192 0v1470h163v-1470h-163z" />
<glyph unicode="&#xe2;" horiz-adv-x="1133" d="M257 1212l229 258h145l230 -258h-153l-149 176l-149 -176h-153zM458 -26q-156 0 -262.5 80t-106.5 216v2q0 77 35 135.5t96 97.5t157 66.5t202.5 42t247.5 23.5v30q0 144 -68 211.5t-190 67.5q-124 0 -192 -59t-73 -163h-160q11 156 126.5 250t301.5 94 q203 0 308.5 -101.5t104.5 -320.5l-2 -292q-1 -229 25 -354h-150q-11 63 -14 170q-116 -196 -386 -196zM831 520q-302 -19 -438.5 -71.5t-136.5 -170.5v-2q0 -86 66.5 -134.5t175.5 -48.5q68 0 126.5 19.5t105.5 59.5t74 107t27 154v87z" />
<glyph unicode="&#xee;" horiz-adv-x="495" d="M-55 1212l230 258h145l230 -258h-153l-149 176l-149 -176h-154zM169 0v1042h157v-1042h-157z" />
<glyph unicode="&#x100;" horiz-adv-x="1420" d="M418 1787v111h583v-111h-583zM38 0l581 1474h182l581 -1474h-172l-170 440h-670l-169 -440h-163zM424 582h561l-280 723h-3z" />
<glyph unicode="&#x101;" horiz-adv-x="1133" d="M267 1359v111h583v-111h-583zM458 -26q-156 0 -262.5 80t-106.5 216v2q0 77 35 135.5t96 97.5t157 66.5t202.5 42t247.5 23.5v30q0 144 -68 211.5t-190 67.5q-124 0 -192 -59t-73 -163h-160q11 156 126.5 250t301.5 94q203 0 308.5 -101.5t104.5 -320.5l-2 -292 q-1 -229 25 -354h-150q-11 63 -14 170q-116 -196 -386 -196zM831 520q-302 -19 -438.5 -71.5t-136.5 -170.5v-2q0 -86 66.5 -134.5t175.5 -48.5q68 0 126.5 19.5t105.5 59.5t74 107t27 154v87z" />
<glyph unicode="&#x102;" horiz-adv-x="1420" d="M433 1898h122q12 -57 52.5 -88.5t102.5 -31.5q61 0 101.5 31.5t52.5 88.5h123q-17 -107 -89.5 -165.5t-187.5 -58.5q-116 0 -188.5 58.5t-88.5 165.5zM38 0l581 1474h182l581 -1474h-172l-170 440h-670l-169 -440h-163zM424 582h561l-280 723h-3z" />
<glyph unicode="&#x103;" horiz-adv-x="1133" d="M282 1470h122q12 -57 52.5 -88.5t102.5 -31.5q61 0 101.5 31.5t52.5 88.5h123q-17 -107 -89.5 -165.5t-187.5 -58.5q-116 0 -188.5 58.5t-88.5 165.5zM458 -26q-156 0 -262.5 80t-106.5 216v2q0 77 35 135.5t96 97.5t157 66.5t202.5 42t247.5 23.5v30q0 144 -68 211.5 t-190 67.5q-124 0 -192 -59t-73 -163h-160q11 156 126.5 250t301.5 94q203 0 308.5 -101.5t104.5 -320.5l-2 -292q-1 -229 25 -354h-150q-11 63 -14 170q-116 -196 -386 -196zM831 520q-302 -19 -438.5 -71.5t-136.5 -170.5v-2q0 -86 66.5 -134.5t175.5 -48.5 q68 0 126.5 19.5t105.5 59.5t74 107t27 154v87z" />
<glyph unicode="&#x104;" horiz-adv-x="1420" d="M38 0l581 1474h182l581 -1474q-42 -27 -69 -68t-27 -84q0 -42 27.5 -68.5t70.5 -26.5q32 0 67 13l58 -106q-65 -38 -153 -38q-96 0 -155.5 52t-59.5 138q0 97 91 188h-22l-170 440h-670l-169 -440h-163zM424 582h561l-280 723h-3z" />
<glyph unicode="&#x105;" horiz-adv-x="1133" d="M458 -26q-156 0 -262.5 80t-106.5 216v2q0 77 35 135.5t96 97.5t157 66.5t202.5 42t247.5 23.5v30q0 144 -68 211.5t-190 67.5q-124 0 -192 -59t-73 -163h-160q11 156 126.5 250t301.5 94q203 0 308.5 -101.5t104.5 -320.5l-2 -292q-1 -229 25 -354q-42 -27 -68.5 -68 t-26.5 -84q0 -42 27 -68.5t70 -26.5q32 0 68 13l57 -106q-65 -38 -153 -38q-96 0 -155 52t-59 138q0 98 90 188q-11 63 -14 170q-116 -196 -386 -196zM831 520q-302 -19 -438.5 -71.5t-136.5 -170.5v-2q0 -86 66.5 -134.5t175.5 -48.5q68 0 126.5 19.5t105.5 59.5t74 107 t27 154v87z" />
<glyph unicode="&#x106;" horiz-adv-x="1576" d="M908 1670h-174l229 228h216zM822 -26q-215 0 -381 98t-255 270.5t-89 391.5v2q0 219 89 391.5t255 270.5t381 98q253 0 426.5 -125.5t231.5 -350.5h-171q-48 162 -180 248t-308 86q-167 0 -293 -79.5t-192 -219t-66 -319.5v-2q0 -180 66 -319.5t192 -219t293 -79.5 q176 0 308 86t180 248h171q-58 -225 -231.5 -350.5t-426.5 -125.5z" />
<glyph unicode="&#x107;" horiz-adv-x="1198" d="M984 1470l-301 -258h-173l264 258h210zM615 -26q-226 0 -367 151t-141 395v2q0 244 141 394.5t367 150.5q191 0 317.5 -96.5t164.5 -259.5h-161q-30 107 -114 167t-205 60q-150 0 -247 -112t-97 -304v-2q0 -193 97 -305t247 -112q121 0 205 60t114 167h161 q-38 -163 -164.5 -259.5t-317.5 -96.5z" />
<glyph unicode="&#x108;" horiz-adv-x="1576" d="M447 1630l269 268h146l269 -268h-161l-181 174l-180 -174h-162zM822 -26q-215 0 -381 98t-255 270.5t-89 391.5v2q0 219 89 391.5t255 270.5t381 98q253 0 426.5 -125.5t231.5 -350.5h-171q-48 162 -180 248t-308 86q-167 0 -293 -79.5t-192 -219t-66 -319.5v-2 q0 -180 66 -319.5t192 -219t293 -79.5q176 0 308 86t180 248h171q-58 -225 -231.5 -350.5t-426.5 -125.5z" />
<glyph unicode="&#x109;" horiz-adv-x="1198" d="M297 1212l229 258h145l230 -258h-153l-149 176l-149 -176h-153zM615 -26q-226 0 -367 151t-141 395v2q0 244 141 394.5t367 150.5q191 0 317.5 -96.5t164.5 -259.5h-161q-30 107 -114 167t-205 60q-150 0 -247 -112t-97 -304v-2q0 -193 97 -305t247 -112q121 0 205 60 t114 167h161q-38 -163 -164.5 -259.5t-317.5 -96.5z" />
<glyph unicode="&#x10a;" horiz-adv-x="1576" d="M870 1703h-160v195h160v-195zM822 -26q-215 0 -381 98t-255 270.5t-89 391.5v2q0 219 89 391.5t255 270.5t381 98q253 0 426.5 -125.5t231.5 -350.5h-171q-48 162 -180 248t-308 86q-167 0 -293 -79.5t-192 -219t-66 -319.5v-2q0 -180 66 -319.5t192 -219t293 -79.5 q176 0 308 86t180 248h171q-58 -225 -231.5 -350.5t-426.5 -125.5z" />
<glyph unicode="&#x10b;" horiz-adv-x="1198" d="M676 1263h-152v207h152v-207zM615 -26q-226 0 -367 151t-141 395v2q0 244 141 394.5t367 150.5q191 0 317.5 -96.5t164.5 -259.5h-161q-30 107 -114 167t-205 60q-150 0 -247 -112t-97 -304v-2q0 -193 97 -305t247 -112q121 0 205 60t114 167h161q-38 -163 -164.5 -259.5 t-317.5 -96.5z" />
<glyph unicode="&#x10c;" horiz-adv-x="1576" d="M447 1898h162l180 -174l181 174h161l-269 -268h-146zM822 -26q-215 0 -381 98t-255 270.5t-89 391.5v2q0 219 89 391.5t255 270.5t381 98q253 0 426.5 -125.5t231.5 -350.5h-171q-48 162 -180 248t-308 86q-167 0 -293 -79.5t-192 -219t-66 -319.5v-2q0 -180 66 -319.5 t192 -219t293 -79.5q176 0 308 86t180 248h171q-58 -225 -231.5 -350.5t-426.5 -125.5z" />
<glyph unicode="&#x10d;" horiz-adv-x="1198" d="M526 1212l-229 258h153l149 -176l149 176h153l-230 -258h-145zM615 -26q-226 0 -367 151t-141 395v2q0 244 141 394.5t367 150.5q191 0 317.5 -96.5t164.5 -259.5h-161q-30 107 -114 167t-205 60q-150 0 -247 -112t-97 -304v-2q0 -193 97 -305t247 -112q121 0 205 60 t114 167h161q-38 -163 -164.5 -259.5t-317.5 -96.5z" />
<glyph unicode="&#x10e;" horiz-adv-x="1496" d="M209 1898h162l180 -174l180 174h162l-270 -268h-145zM192 0v1470h420q172 0 316 -48.5t249 -140t163.5 -231.5t58.5 -316v-2q0 -175 -58.5 -314.5t-163.5 -230.5t-249 -139t-316 -48h-420zM355 141h254q136 0 248.5 37t195 109t128 185.5t45.5 259.5v2q0 194 -80 329.5 t-217 200.5t-320 65h-254v-1188z" />
<glyph unicode="&#x10f;" horiz-adv-x="1378" d="M571 -26q-92 0 -175.5 37t-148 105t-103 172.5t-38.5 230.5v2q0 126 38.5 230.5t103 172.5t148 105t175.5 37q129 0 226.5 -56.5t144.5 -151.5v612h158v-1470h-158v182q-47 -95 -144.5 -151.5t-226.5 -56.5zM1246 1470h134v-328h-134v328zM611 104q144 0 240.5 111.5 t96.5 303.5v2q0 192 -96.5 303.5t-240.5 111.5q-146 0 -242 -111t-96 -304v-2q0 -193 96 -304t242 -111z" />
<glyph unicode="&#x110;" horiz-adv-x="1496" d="M192 0v672h-179v125h179v673h420q172 0 316 -48.5t249 -140t163.5 -231.5t58.5 -316v-2q0 -175 -58.5 -314.5t-163.5 -230.5t-249 -139t-316 -48h-420zM355 141h254q136 0 248.5 37t195 109t128 185.5t45.5 259.5v2q0 194 -80 329.5t-217 200.5t-320 65h-254v-532h400 v-125h-400v-531z" />
<glyph unicode="&#x111;" horiz-adv-x="1268" d="M571 -26q-92 0 -175.5 37t-148 105t-103 172.5t-38.5 230.5v2q0 126 38.5 230.5t103 172.5t148 105t175.5 37q129 0 226.5 -56.5t144.5 -151.5v361h-365v97h365v154h158v-154h120v-97h-120v-1219h-158v182q-47 -95 -144.5 -151.5t-226.5 -56.5zM611 104 q144 0 240.5 111.5t96.5 303.5v2q0 192 -96.5 303.5t-240.5 111.5q-146 0 -242 -111t-96 -304v-2q0 -193 96 -304t242 -111z" />
<glyph unicode="&#x112;" horiz-adv-x="1251" d="M367 1787v111h583v-111h-583zM192 0v1470h932v-143h-769v-510h700v-142h-700v-532h770v-143h-933z" />
<glyph unicode="&#x113;" horiz-adv-x="1232" d="M321 1359v111h584v-111h-584zM628 -26q-237 0 -379 152.5t-142 396.5v2q0 243 146 392.5t368 149.5q236 0 373 -163.5t131 -423.5v-1h-852q10 -172 108 -274.5t251 -102.5q248 0 320 195h160q-44 -148 -168.5 -235.5t-315.5 -87.5zM276 608h682v1q-8 147 -99.5 240 t-238.5 93q-141 0 -233.5 -86t-110.5 -248z" />
<glyph unicode="&#x114;" horiz-adv-x="1251" d="M382 1898h122q12 -57 52.5 -88.5t102.5 -31.5q61 0 101.5 31.5t52.5 88.5h123q-17 -107 -89.5 -165.5t-187.5 -58.5q-116 0 -188.5 58.5t-88.5 165.5zM192 0v1470h932v-143h-769v-510h700v-142h-700v-532h770v-143h-933z" />
<glyph unicode="&#x115;" horiz-adv-x="1232" d="M336 1470h122q13 -57 53.5 -88.5t101.5 -31.5t101.5 31.5t53.5 88.5h122q-17 -107 -89.5 -165.5t-187.5 -58.5t-187.5 58.5t-89.5 165.5zM628 -26q-237 0 -379 152.5t-142 396.5v2q0 243 146 392.5t368 149.5q236 0 373 -163.5t131 -423.5v-1h-852q10 -172 108 -274.5 t251 -102.5q248 0 320 195h160q-44 -148 -168.5 -235.5t-315.5 -87.5zM276 608h682v1q-8 147 -99.5 240t-238.5 93q-141 0 -233.5 -86t-110.5 -248z" />
<glyph unicode="&#x116;" horiz-adv-x="1251" d="M739 1703h-160v195h160v-195zM192 0v1470h932v-143h-769v-510h700v-142h-700v-532h770v-143h-933z" />
<glyph unicode="&#x117;" horiz-adv-x="1232" d="M689 1263h-152v207h152v-207zM628 -26q-237 0 -379 152.5t-142 396.5v2q0 243 146 392.5t368 149.5q236 0 373 -163.5t131 -423.5v-1h-852q10 -172 108 -274.5t251 -102.5q248 0 320 195h160q-44 -148 -168.5 -235.5t-315.5 -87.5zM276 608h682v1q-8 147 -99.5 240 t-238.5 93q-141 0 -233.5 -86t-110.5 -248z" />
<glyph unicode="&#x118;" horiz-adv-x="1251" d="M192 0v1470h932v-143h-769v-510h700v-142h-700v-532h770v-143h-224q-42 -27 -69 -68t-27 -84q0 -42 27.5 -68.5t70.5 -26.5q32 0 67 13l57 -106q-65 -38 -153 -38q-96 0 -155 52t-59 138q0 96 90 188h-558z" />
<glyph unicode="&#x119;" horiz-adv-x="1232" d="M628 -26q-237 0 -379 152.5t-142 396.5v2q0 243 146 392.5t368 149.5q236 0 373 -163.5t131 -423.5v-1h-852q10 -172 108 -274.5t251 -102.5q248 0 320 195h160q-32 -107 -107.5 -184.5t-189.5 -112.5q-41 -27 -68 -68t-27 -84q0 -42 27.5 -68.5t70.5 -26.5q32 0 67 13 l57 -106q-65 -38 -153 -38q-96 0 -155 52t-59 138q0 82 66 162h-13zM276 608h682v1q-8 147 -99.5 240t-238.5 93q-141 0 -233.5 -86t-110.5 -248z" />
<glyph unicode="&#x11a;" horiz-adv-x="1251" d="M317 1898h161l181 -174l180 174h162l-270 -268h-145zM192 0v1470h932v-143h-769v-510h700v-142h-700v-532h770v-143h-933z" />
<glyph unicode="&#x11b;" horiz-adv-x="1232" d="M540 1212l-229 258h153l149 -176l149 176h153l-230 -258h-145zM628 -26q-237 0 -379 152.5t-142 396.5v2q0 243 146 392.5t368 149.5q236 0 373 -163.5t131 -423.5v-1h-852q10 -172 108 -274.5t251 -102.5q248 0 320 195h160q-44 -148 -168.5 -235.5t-315.5 -87.5z M276 608h682v1q-8 147 -99.5 240t-238.5 93q-141 0 -233.5 -86t-110.5 -248z" />
<glyph unicode="&#x11c;" horiz-adv-x="1680" d="M451 1630l269 268h145l270 -268h-162l-180 174l-181 -174h-161zM818 -26q-160 0 -295 57t-228.5 157t-145.5 241t-52 305v2q0 219 89 391.5t255 270.5t381 98q252 0 425.5 -120.5t232.5 -335.5h-171q-48 151 -180 232.5t-306 81.5q-252 0 -402.5 -172t-150.5 -446v-2 q0 -181 66.5 -321t192.5 -219t294 -79q103 0 193.5 29.5t160.5 85t111 143t41 196.5v49h-517v137h673v-755h-135l-2 261q-61 -127 -199.5 -207t-330.5 -80z" />
<glyph unicode="&#x11d;" horiz-adv-x="1269" d="M302 1212l229 258h145l230 -258h-153l-149 176l-149 -176h-153zM573 32q-92 0 -176 35t-149 99t-103.5 163t-38.5 219v2q0 119 38.5 218t103.5 163.5t149 99.5t176 35q128 0 226 -52.5t145 -143.5v172h157v-956q0 -132 -38 -229.5t-106 -153.5t-153.5 -82t-189.5 -26 q-193 0 -321.5 95.5t-152.5 263.5h159q16 -105 100.5 -170t218.5 -65q68 0 124 17.5t102.5 56t73 108.5t26.5 166v160q-47 -91 -145.5 -143t-225.5 -52zM611 161q145 0 241.5 103t96.5 284v2q0 180 -96.5 283t-241.5 103q-146 0 -242.5 -102.5t-96.5 -283.5v-2 q0 -181 96.5 -284t242.5 -103z" />
<glyph unicode="&#x11e;" horiz-adv-x="1680" d="M516 1898h122q12 -57 52.5 -88.5t102.5 -31.5q61 0 101.5 31.5t52.5 88.5h123q-17 -107 -89.5 -165.5t-187.5 -58.5q-116 0 -188.5 58.5t-88.5 165.5zM818 -26q-160 0 -295 57t-228.5 157t-145.5 241t-52 305v2q0 219 89 391.5t255 270.5t381 98q252 0 425.5 -120.5 t232.5 -335.5h-171q-48 151 -180 232.5t-306 81.5q-252 0 -402.5 -172t-150.5 -446v-2q0 -181 66.5 -321t192.5 -219t294 -79q103 0 193.5 29.5t160.5 85t111 143t41 196.5v49h-517v137h673v-755h-135l-2 261q-61 -127 -199.5 -207t-330.5 -80z" />
<glyph unicode="&#x11f;" horiz-adv-x="1269" d="M327 1470h122q13 -57 53.5 -88.5t101.5 -31.5t101.5 31.5t53.5 88.5h122q-17 -107 -89.5 -165.5t-187.5 -58.5t-187.5 58.5t-89.5 165.5zM573 32q-92 0 -176 35t-149 99t-103.5 163t-38.5 219v2q0 119 38.5 218t103.5 163.5t149 99.5t176 35q128 0 226 -52.5t145 -143.5 v172h157v-956q0 -132 -38 -229.5t-106 -153.5t-153.5 -82t-189.5 -26q-193 0 -321.5 95.5t-152.5 263.5h159q16 -105 100.5 -170t218.5 -65q68 0 124 17.5t102.5 56t73 108.5t26.5 166v160q-47 -91 -145.5 -143t-225.5 -52zM611 161q145 0 241.5 103t96.5 284v2 q0 180 -96.5 283t-241.5 103q-146 0 -242.5 -102.5t-96.5 -283.5v-2q0 -181 96.5 -284t242.5 -103z" />
<glyph unicode="&#x120;" horiz-adv-x="1680" d="M873 1703h-160v195h160v-195zM818 -26q-160 0 -295 57t-228.5 157t-145.5 241t-52 305v2q0 219 89 391.5t255 270.5t381 98q252 0 425.5 -120.5t232.5 -335.5h-171q-48 151 -180 232.5t-306 81.5q-252 0 -402.5 -172t-150.5 -446v-2q0 -181 66.5 -321t192.5 -219t294 -79 q103 0 193.5 29.5t160.5 85t111 143t41 196.5v49h-517v137h673v-755h-135l-2 261q-61 -127 -199.5 -207t-330.5 -80z" />
<glyph unicode="&#x121;" horiz-adv-x="1269" d="M681 1263h-153v207h153v-207zM573 32q-92 0 -176 35t-149 99t-103.5 163t-38.5 219v2q0 119 38.5 218t103.5 163.5t149 99.5t176 35q128 0 226 -52.5t145 -143.5v172h157v-956q0 -132 -38 -229.5t-106 -153.5t-153.5 -82t-189.5 -26q-193 0 -321.5 95.5t-152.5 263.5h159 q16 -105 100.5 -170t218.5 -65q68 0 124 17.5t102.5 56t73 108.5t26.5 166v160q-47 -91 -145.5 -143t-225.5 -52zM611 161q145 0 241.5 103t96.5 284v2q0 180 -96.5 283t-241.5 103q-146 0 -242.5 -102.5t-96.5 -283.5v-2q0 -181 96.5 -284t242.5 -103z" />
<glyph unicode="&#x122;" horiz-adv-x="1680" d="M818 -26q-160 0 -295 57t-228.5 157t-145.5 241t-52 305v2q0 219 89 391.5t255 270.5t381 98q252 0 425.5 -120.5t232.5 -335.5h-171q-48 151 -180 232.5t-306 81.5q-252 0 -402.5 -172t-150.5 -446v-2q0 -181 66.5 -321t192.5 -219t294 -79q103 0 193.5 29.5t160.5 85 t111 143t41 196.5v49h-517v137h673v-755h-135l-2 261q-61 -127 -199.5 -207t-330.5 -80zM873 -96l-143 -242h-139l122 242h160z" />
<glyph unicode="&#x123;" horiz-adv-x="1269" d="M856 1470l-122 -242h-161l144 242h139zM573 32q-92 0 -176 35t-149 99t-103.5 163t-38.5 219v2q0 119 38.5 218t103.5 163.5t149 99.5t176 35q128 0 226 -52.5t145 -143.5v172h157v-956q0 -132 -38 -229.5t-106 -153.5t-153.5 -82t-189.5 -26q-193 0 -321.5 95.5 t-152.5 263.5h159q16 -105 100.5 -170t218.5 -65q68 0 124 17.5t102.5 56t73 108.5t26.5 166v160q-47 -91 -145.5 -143t-225.5 -52zM611 161q145 0 241.5 103t96.5 284v2q0 180 -96.5 283t-241.5 103q-146 0 -242.5 -102.5t-96.5 -283.5v-2q0 -181 96.5 -284t242.5 -103z " />
<glyph unicode="&#x124;" horiz-adv-x="1510" d="M413 1630l269 268h146l269 -268h-161l-181 174l-180 -174h-162zM192 0v1470h163v-654h799v654h164v-1470h-164v669h-799v-669h-163z" />
<glyph unicode="&#x125;" horiz-adv-x="1182" d="M-55 1640l229 258h145l230 -258h-153l-149 176l-149 -176h-153zM169 0v1470h157v-576q109 172 329 172q188 0 287 -116t99 -326v-624h-157v593q0 168 -72 254.5t-207 86.5q-138 0 -208.5 -91.5t-70.5 -259.5v-583h-157z" />
<glyph unicode="&#x126;" horiz-adv-x="1510" d="M192 0v1081h-150v125h150v264h163v-264h799v264h164v-264h150v-125h-150v-1081h-164v669h-799v-669h-163zM355 816h799v265h-799v-265z" />
<glyph unicode="&#x127;" horiz-adv-x="1182" d="M169 0v1222h-120v96h120v152h157v-152h365v-96h-365v-328q109 172 329 172q188 0 287 -116t99 -326v-624h-157v593q0 168 -72 254.5t-207 86.5q-138 0 -208.5 -91.5t-70.5 -259.5v-583h-157z" />
<glyph unicode="&#x128;" horiz-adv-x="547" d="M485 1898h104q0 -97 -47 -155.5t-125 -58.5q-37 0 -78 15t-70.5 33.5t-64 33.5t-60.5 15q-80 0 -80 -105h-106q0 97 47.5 155.5t125.5 58.5q47 0 98 -24t96.5 -48t77.5 -24q80 0 82 104zM192 0v1470h163v-1470h-163z" />
<glyph unicode="&#x129;" horiz-adv-x="495" d="M459 1472h104q0 -97 -47.5 -155.5t-125.5 -58.5q-46 0 -97.5 24t-97.5 48.5t-78 24.5q-80 0 -80 -104h-105q0 97 47 155.5t126 58.5q37 0 77.5 -15t70 -33.5t64 -33.5t60.5 -15q80 0 82 104zM169 0v1042h157v-1042h-157z" />
<glyph unicode="&#x12a;" horiz-adv-x="547" d="M-18 1787v111h584v-111h-584zM192 0v1470h163v-1470h-163z" />
<glyph unicode="&#x12b;" horiz-adv-x="495" d="M-44 1359v111h583v-111h-583zM169 0v1042h157v-1042h-157z" />
<glyph unicode="&#x12e;" horiz-adv-x="547" d="M192 0v1470h163v-1470h-6q-42 -27 -69 -68t-27 -84q0 -42 27.5 -68.5t70.5 -26.5q32 0 67 13l57 -106q-65 -38 -153 -38q-96 0 -155 52t-59 138q0 96 90 188h-6z" />
<glyph unicode="&#x12f;" horiz-adv-x="495" d="M169 1248v222h157v-222h-157zM169 0v1042h157v-1042h-3q-42 -27 -69 -68t-27 -84q0 -42 27.5 -68.5t70.5 -26.5q32 0 67 13l57 -106q-65 -38 -153 -38q-96 0 -155 52t-59 138q0 96 90 188h-3z" />
<glyph unicode="&#x130;" horiz-adv-x="547" d="M355 1703h-160v195h160v-195zM192 0v1470h163v-1470h-163z" />
<glyph unicode="&#x131;" horiz-adv-x="495" d="M169 0v1042h157v-1042h-157z" />
<glyph unicode="&#x132;" horiz-adv-x="1648" d="M192 0v1470h163v-1470h-163zM1031 -26q-92 0 -169.5 26.5t-138 78t-95.5 135t-36 191.5h170q2 -149 76 -221t193 -72q122 0 197 73.5t75 227.5v1057h164v-1057q0 -110 -34 -195t-94 -137.5t-138 -79.5t-170 -27z" />
<glyph unicode="&#x133;" horiz-adv-x="989" d="M169 1248v222h157v-222h-157zM663 1248v222h158v-222h-158zM169 0v1042h157v-1042h-157zM472 -385v134h30q97 0 129 40t32 149v1104h158v-1109q0 -168 -70.5 -243t-235.5 -75h-43z" />
<glyph unicode="&#x134;" horiz-adv-x="1101" d="M496 1630l269 268h145l270 -268h-162l-180 174l-180 -174h-162zM483 -26q-91 0 -169 26.5t-138 78t-95 135t-36 191.5h170q1 -149 75.5 -221t193.5 -72q121 0 196.5 73.5t75.5 227.5v1057h164v-1057q0 -110 -34 -195t-94.5 -137.5t-138.5 -79.5t-170 -27z" />
<glyph unicode="&#x135;" horiz-adv-x="495" d="M-55 1212l229 258h145l230 -258h-153l-149 176l-149 -176h-153zM-22 -385v134h30q96 0 128.5 40t32.5 149v1104h157v-1109q0 -168 -70.5 -243t-234.5 -75h-43z" />
<glyph unicode="&#x136;" horiz-adv-x="1356" d="M192 0v1470h163v-667l743 667h214l-800 -723l815 -747h-230l-742 671v-671h-163zM840 -96l-144 -242h-138l122 242h160z" />
<glyph unicode="&#x137;" horiz-adv-x="1128" d="M170 0v1470h157v-874l544 446h201l-594 -495l627 -547h-222l-556 476v-476h-157zM718 -96l-143 -242h-139l122 242h160z" />
<glyph unicode="&#x139;" horiz-adv-x="1136" d="M393 1670h-174l229 228h216zM192 0v1470h163v-1327h728v-143h-891z" />
<glyph unicode="&#x13a;" horiz-adv-x="495" d="M632 1898l-301 -258h-173l264 258h210zM169 0v1470h157v-1470h-157z" />
<glyph unicode="&#x13b;" horiz-adv-x="1136" d="M192 0v1470h163v-1327h728v-143h-891zM718 -96l-143 -242h-139l122 242h160z" />
<glyph unicode="&#x13c;" horiz-adv-x="495" d="M169 0v1470h157v-1470h-157zM328 -96l-144 -242h-138l122 242h160z" />
<glyph unicode="&#x13d;" horiz-adv-x="1136" d="M661 1670h133v-328h-133v328zM192 0v1470h163v-1327h728v-143h-891z" />
<glyph unicode="&#x13e;" horiz-adv-x="605" d="M169 0v1470h157v-1470h-157zM473 1470h133v-328h-133v328z" />
<glyph unicode="&#x13f;" horiz-adv-x="1136" d="M192 0v1470h163v-1327h728v-143h-891zM803 691h-169v232h169v-232z" />
<glyph unicode="&#x140;" horiz-adv-x="636" d="M169 0v1470h157v-1470h-157zM642 619h-169v233h169v-233z" />
<glyph unicode="&#x143;" horiz-adv-x="1510" d="M874 1670h-174l228 228h217zM192 0v1470h213l754 -1261h2l-1 526v735h158v-1470h-215l-752 1261h-2l1 -526v-735h-158z" />
<glyph unicode="&#x144;" d="M990 1470l-302 -258h-173l264 258h211zM169 0v1042h157v-148q109 172 329 172q188 0 287 -116t99 -326v-624h-157v593q0 168 -72 254.5t-207 86.5q-138 0 -208.5 -91.5t-70.5 -259.5v-583h-157z" />
<glyph unicode="&#x145;" horiz-adv-x="1510" d="M192 0v1470h213l754 -1261h2l-1 526v735h158v-1470h-215l-752 1261h-2l1 -526v-735h-158zM836 -96l-144 -242h-138l122 242h160z" />
<glyph unicode="&#x146;" d="M169 0v1042h157v-148q109 172 329 172q188 0 287 -116t99 -326v-624h-157v593q0 168 -72 254.5t-207 86.5q-138 0 -208.5 -91.5t-70.5 -259.5v-583h-157zM686 -146l-144 -242h-138l122 242h160z" />
<glyph unicode="&#x147;" horiz-adv-x="1510" d="M413 1898h161l181 -174l180 174h162l-270 -268h-145zM192 0v1470h213l754 -1261h2l-1 526v735h158v-1470h-215l-752 1261h-2l1 -526v-735h-158z" />
<glyph unicode="&#x148;" d="M532 1212l-229 258h153l149 -176l149 176h153l-230 -258h-145zM169 0v1042h157v-148q109 172 329 172q188 0 287 -116t99 -326v-624h-157v593q0 168 -72 254.5t-207 86.5q-138 0 -208.5 -91.5t-70.5 -259.5v-583h-157z" />
<glyph unicode="&#x149;" d="M354 1470l-105 -328h-165l123 328h147zM169 0v1042h157v-148q109 172 329 172q188 0 287 -116t99 -326v-624h-157v593q0 168 -72 254.5t-207 86.5q-138 0 -208.5 -91.5t-70.5 -259.5v-583h-157z" />
<glyph unicode="&#x14c;" horiz-adv-x="1653" d="M535 1787v111h583v-111h-583zM826 -26q-215 0 -382 98t-257 271t-90 392v2q0 219 90 391.5t256.5 270t382.5 97.5t382.5 -97.5t257 -270t90.5 -391.5v-2q0 -219 -90.5 -392t-257.5 -271t-382 -98zM826 117q168 0 295 79.5t194 219.5t67 319v2q0 273 -151.5 444.5 t-404.5 171.5t-404.5 -171.5t-151.5 -444.5v-2q0 -179 67 -319t194 -219.5t295 -79.5z" />
<glyph unicode="&#x14d;" horiz-adv-x="1251" d="M334 1359v111h583v-111h-583zM625 -26q-232 0 -375 152t-143 394v2q0 242 143 393.5t375 151.5t375.5 -151.5t143.5 -393.5v-2q0 -242 -143.5 -394t-375.5 -152zM625 103q162 0 257.5 114t95.5 303v2q0 189 -95.5 302.5t-257.5 113.5t-257 -113.5t-95 -302.5v-2 q0 -189 95 -303t257 -114z" />
<glyph unicode="&#x14e;" horiz-adv-x="1653" d="M549 1898h123q12 -57 52.5 -88.5t101.5 -31.5q62 0 102.5 31.5t52.5 88.5h122q-16 -107 -88.5 -165.5t-188.5 -58.5q-115 0 -187.5 58.5t-89.5 165.5zM826 -26q-215 0 -382 98t-257 271t-90 392v2q0 219 90 391.5t256.5 270t382.5 97.5t382.5 -97.5t257 -270t90.5 -391.5 v-2q0 -219 -90.5 -392t-257.5 -271t-382 -98zM826 117q168 0 295 79.5t194 219.5t67 319v2q0 273 -151.5 444.5t-404.5 171.5t-404.5 -171.5t-151.5 -444.5v-2q0 -179 67 -319t194 -219.5t295 -79.5z" />
<glyph unicode="&#x14f;" horiz-adv-x="1251" d="M348 1470h123q12 -57 52.5 -88.5t101.5 -31.5q62 0 102.5 31.5t52.5 88.5h122q-16 -107 -88.5 -165.5t-188.5 -58.5q-115 0 -187.5 58.5t-89.5 165.5zM625 -26q-232 0 -375 152t-143 394v2q0 242 143 393.5t375 151.5t375.5 -151.5t143.5 -393.5v-2q0 -242 -143.5 -394 t-375.5 -152zM625 103q162 0 257.5 114t95.5 303v2q0 189 -95.5 302.5t-257.5 113.5t-257 -113.5t-95 -302.5v-2q0 -189 95 -303t257 -114z" />
<glyph unicode="&#x150;" horiz-adv-x="1653" d="M664 1670h-174l228 228h217zM1108 1670h-174l228 228h217zM826 -26q-215 0 -382 98t-257 271t-90 392v2q0 219 90 391.5t256.5 270t382.5 97.5t382.5 -97.5t257 -270t90.5 -391.5v-2q0 -219 -90.5 -392t-257.5 -271t-382 -98zM826 117q168 0 295 79.5t194 219.5t67 319v2 q0 273 -151.5 444.5t-404.5 171.5t-404.5 -171.5t-151.5 -444.5v-2q0 -179 67 -319t194 -219.5t295 -79.5z" />
<glyph unicode="&#x151;" horiz-adv-x="1251" d="M767 1470l-301 -258h-173l264 258h210zM1211 1470l-301 -258h-173l264 258h210zM625 -26q-232 0 -375 152t-143 394v2q0 242 143 393.5t375 151.5t375.5 -151.5t143.5 -393.5v-2q0 -242 -143.5 -394t-375.5 -152zM625 103q162 0 257.5 114t95.5 303v2q0 189 -95.5 302.5 t-257.5 113.5t-257 -113.5t-95 -302.5v-2q0 -189 95 -303t257 -114z" />
<glyph unicode="&#x152;" horiz-adv-x="2448" d="M826 -26q-215 0 -382 98t-257 271t-90 392v2q0 219 90 391.5t256.5 270t382.5 97.5q176 0 320 -66t243 -186v226h932v-143h-769v-509v-1h700v-142h-698q0 -4 -1 -11.5t-1 -10.5v-510h770v-143h-933v227q-99 -121 -243 -187t-320 -66zM826 117q168 0 295 79.5t194 219.5 t67 319v2q0 273 -151.5 444.5t-404.5 171.5t-404.5 -171.5t-151.5 -444.5v-2q0 -179 67 -319t194 -219.5t295 -79.5z" />
<glyph unicode="&#x153;" horiz-adv-x="2098" d="M625 -26q-232 0 -375 152t-143 394v2q0 242 143 393.5t375 151.5q144 0 257 -61t180 -171q68 110 181 171t251 61q236 0 373 -163.5t131 -423.5v-1h-852q10 -172 108 -274.5t251 -102.5q249 0 320 195h160q-44 -148 -168.5 -235.5t-315.5 -87.5q-147 0 -260 61t-179 171 q-68 -110 -180.5 -171t-256.5 -61zM1149 608h682v1q-8 147 -99.5 240t-238.5 93q-141 0 -233.5 -86t-110.5 -248zM625 103q162 0 257.5 114t95.5 303v2q0 189 -95.5 302.5t-257.5 113.5t-257 -113.5t-95 -302.5v-2q0 -189 95 -303t257 -114z" />
<glyph unicode="&#x154;" horiz-adv-x="1365" d="M756 1670h-174l228 228h217zM192 0v1470h475q269 0 408 -108t139 -314v-2q0 -172 -100 -276.5t-292 -133.5l469 -636h-193l-458 625h-285v-625h-163zM355 766h310q185 0 280.5 67.5t95.5 212.5v2q0 146 -95.5 213.5t-280.5 67.5h-310v-563z" />
<glyph unicode="&#x155;" horiz-adv-x="729" d="M812 1470l-301 -258h-173l264 258h210zM169 0v1042h156v-199q43 96 129 153t209 57h22v-153h-49q-153 0 -231.5 -92t-78.5 -267v-541h-157z" />
<glyph unicode="&#x156;" horiz-adv-x="1365" d="M192 0v1470h475q269 0 408 -108t139 -314v-2q0 -172 -100 -276.5t-292 -133.5l469 -636h-193l-458 625h-285v-625h-163zM355 766h310q185 0 280.5 67.5t95.5 212.5v2q0 146 -95.5 213.5t-280.5 67.5h-310v-563zM823 -96l-144 -242h-139l122 242h161z" />
<glyph unicode="&#x157;" horiz-adv-x="729" d="M169 0v1042h156v-199q43 96 129 153t209 57h22v-153h-49q-153 0 -231.5 -92t-78.5 -267v-541h-157zM328 -96l-144 -242h-138l122 242h160z" />
<glyph unicode="&#x158;" horiz-adv-x="1365" d="M295 1898h162l180 -174l180 174h162l-270 -268h-145zM192 0v1470h475q269 0 408 -108t139 -314v-2q0 -172 -100 -276.5t-292 -133.5l469 -636h-193l-458 625h-285v-625h-163zM355 766h310q185 0 280.5 67.5t95.5 212.5v2q0 146 -95.5 213.5t-280.5 67.5h-310v-563z" />
<glyph unicode="&#x159;" horiz-adv-x="729" d="M354 1212l-229 258h153l149 -176l149 176h153l-230 -258h-145zM169 0v1042h156v-199q43 96 129 153t209 57h22v-153h-49q-153 0 -231.5 -92t-78.5 -267v-541h-157z" />
<glyph unicode="&#x15a;" horiz-adv-x="1310" d="M776 1670h-174l228 228h217zM675 -26q-247 0 -395 122t-181 338h171q62 -326 411 -326q161 0 263.5 67t102.5 198v2q0 53 -17.5 95.5t-45.5 71t-74 51.5t-90.5 37t-107.5 29l-190 45q-182 44 -285 140.5t-103 264.5v2q0 116 67 204.5t181.5 134.5t256.5 46 q222 0 357.5 -106.5t167.5 -304.5h-170q-66 277 -363 277q-140 0 -234.5 -65t-94.5 -180v-2q0 -105 65.5 -167t193.5 -93l190 -46q80 -19 141 -39.5t125 -55t104.5 -76t67 -104t26.5 -139.5v-3q0 -134 -71 -229.5t-191.5 -142t-277.5 -46.5z" />
<glyph unicode="&#x15b;" horiz-adv-x="1059" d="M914 1470l-301 -258h-173l264 258h210zM545 -26q-195 0 -310.5 93.5t-139.5 245.5h158q46 -220 297 -220q115 0 185.5 44t70.5 129v2q0 37 -13.5 65.5t-34 47t-55 33.5t-65.5 23.5t-77 17.5l-148 31q-136 29 -217 100t-81 191v2q0 127 114.5 207.5t286.5 80.5 q170 0 279 -77t137 -220h-158q-47 178 -264 178q-100 0 -169 -43.5t-69 -118.5v-2q0 -67 48.5 -106.5t140.5 -58.5l149 -31q62 -13 109 -27t95.5 -38t79.5 -54.5t50.5 -76.5t19.5 -104v-2q0 -147 -117 -229.5t-302 -82.5z" />
<glyph unicode="&#x15c;" horiz-adv-x="1310" d="M315 1630l269 268h145l270 -268h-162l-180 174l-180 -174h-162zM675 -26q-247 0 -395 122t-181 338h171q62 -326 411 -326q161 0 263.5 67t102.5 198v2q0 53 -17.5 95.5t-45.5 71t-74 51.5t-90.5 37t-107.5 29l-190 45q-182 44 -285 140.5t-103 264.5v2q0 116 67 204.5 t181.5 134.5t256.5 46q222 0 357.5 -106.5t167.5 -304.5h-170q-66 277 -363 277q-140 0 -234.5 -65t-94.5 -180v-2q0 -105 65.5 -167t193.5 -93l190 -46q80 -19 141 -39.5t125 -55t104.5 -76t67 -104t26.5 -139.5v-3q0 -134 -71 -229.5t-191.5 -142t-277.5 -46.5z" />
<glyph unicode="&#x15d;" horiz-adv-x="1059" d="M227 1212l229 258h145l230 -258h-153l-149 176l-149 -176h-153zM545 -26q-195 0 -310.5 93.5t-139.5 245.5h158q46 -220 297 -220q115 0 185.5 44t70.5 129v2q0 37 -13.5 65.5t-34 47t-55 33.5t-65.5 23.5t-77 17.5l-148 31q-136 29 -217 100t-81 191v2 q0 127 114.5 207.5t286.5 80.5q170 0 279 -77t137 -220h-158q-47 178 -264 178q-100 0 -169 -43.5t-69 -118.5v-2q0 -67 48.5 -106.5t140.5 -58.5l149 -31q62 -13 109 -27t95.5 -38t79.5 -54.5t50.5 -76.5t19.5 -104v-2q0 -147 -117 -229.5t-302 -82.5z" />
<glyph unicode="&#x15e;" horiz-adv-x="1310" d="M675 -26q-247 0 -395 122t-181 338h171q62 -326 411 -326q161 0 263.5 67t102.5 198v2q0 53 -17.5 95.5t-45.5 71t-74 51.5t-90.5 37t-107.5 29l-190 45q-182 44 -285 140.5t-103 264.5v2q0 116 67 204.5t181.5 134.5t256.5 46q222 0 357.5 -106.5t167.5 -304.5h-170 q-66 277 -363 277q-140 0 -234.5 -65t-94.5 -180v-2q0 -105 65.5 -167t193.5 -93l190 -46q80 -19 141 -39.5t125 -55t104.5 -76t67 -104t26.5 -139.5v-3q0 -134 -71 -229.5t-191.5 -142t-277.5 -46.5zM731 -96l-122 -242h-160l144 242h138z" />
<glyph unicode="&#x15f;" horiz-adv-x="1059" d="M545 -26q-195 0 -310.5 93.5t-139.5 245.5h158q46 -220 297 -220q115 0 185.5 44t70.5 129v2q0 37 -13.5 65.5t-34 47t-55 33.5t-65.5 23.5t-77 17.5l-148 31q-136 29 -217 100t-81 191v2q0 127 114.5 207.5t286.5 80.5q170 0 279 -77t137 -220h-158q-47 178 -264 178 q-100 0 -169 -43.5t-69 -118.5v-2q0 -67 48.5 -106.5t140.5 -58.5l149 -31q62 -13 109 -27t95.5 -38t79.5 -54.5t50.5 -76.5t19.5 -104v-2q0 -147 -117 -229.5t-302 -82.5zM604 -96l-122 -242h-160l144 242h138z" />
<glyph unicode="&#x160;" horiz-adv-x="1310" d="M315 1898h162l180 -174l180 174h162l-270 -268h-145zM675 -26q-247 0 -395 122t-181 338h171q62 -326 411 -326q161 0 263.5 67t102.5 198v2q0 53 -17.5 95.5t-45.5 71t-74 51.5t-90.5 37t-107.5 29l-190 45q-182 44 -285 140.5t-103 264.5v2q0 116 67 204.5t181.5 134.5 t256.5 46q222 0 357.5 -106.5t167.5 -304.5h-170q-66 277 -363 277q-140 0 -234.5 -65t-94.5 -180v-2q0 -105 65.5 -167t193.5 -93l190 -46q80 -19 141 -39.5t125 -55t104.5 -76t67 -104t26.5 -139.5v-3q0 -134 -71 -229.5t-191.5 -142t-277.5 -46.5z" />
<glyph unicode="&#x161;" horiz-adv-x="1059" d="M456 1212l-229 258h153l149 -176l149 176h153l-230 -258h-145zM545 -26q-195 0 -310.5 93.5t-139.5 245.5h158q46 -220 297 -220q115 0 185.5 44t70.5 129v2q0 37 -13.5 65.5t-34 47t-55 33.5t-65.5 23.5t-77 17.5l-148 31q-136 29 -217 100t-81 191v2q0 127 114.5 207.5 t286.5 80.5q170 0 279 -77t137 -220h-158q-47 178 -264 178q-100 0 -169 -43.5t-69 -118.5v-2q0 -67 48.5 -106.5t140.5 -58.5l149 -31q62 -13 109 -27t95.5 -38t79.5 -54.5t50.5 -76.5t19.5 -104v-2q0 -147 -117 -229.5t-302 -82.5z" />
<glyph unicode="&#x162;" horiz-adv-x="1275" d="M555 0v1327h-518v143h1201v-143h-519v-1327h-164zM712 -96l-122 -242h-160l144 242h138z" />
<glyph unicode="&#x163;" horiz-adv-x="730" d="M534 0q-168 0 -240.5 72t-72.5 242v594h-168v134h168v260h157v-260h249v-134h-249v-578q0 -112 43 -154t144 -42h53v-134h-84zM421 -96l-144 -242h-138l122 242h160z" />
<glyph unicode="&#x164;" horiz-adv-x="1275" d="M296 1898h162l180 -174l180 174h162l-270 -268h-145zM555 0v1327h-518v143h1201v-143h-519v-1327h-164z" />
<glyph unicode="&#x165;" horiz-adv-x="730" d="M498 1670h133v-328h-133v328zM534 0q-168 0 -240.5 72t-72.5 242v594h-168v134h168v260h157v-260h249v-134h-249v-578q0 -112 43 -154t144 -42h53v-134h-84z" />
<glyph unicode="&#x166;" horiz-adv-x="1275" d="M555 0v797h-319v125h319v405h-518v143h1201v-143h-519v-405h319v-125h-319v-797h-164z" />
<glyph unicode="&#x167;" horiz-adv-x="730" d="M534 0q-168 0 -240.5 72t-72.5 242v159h-168v96h168v339h-168v134h168v260h157v-260h249v-134h-249v-339h249v-96h-249v-143q0 -112 43 -154t144 -42h53v-134h-84z" />
<glyph unicode="&#x168;" horiz-adv-x="1483" d="M952 1898h104q0 -97 -47 -155.5t-125 -58.5q-37 0 -78 15t-70.5 33.5t-64 33.5t-60.5 15q-80 0 -80 -105h-106q0 97 47.5 155.5t125.5 58.5q47 0 98 -24t96.5 -48t77.5 -24q80 0 82 104zM740 -26q-274 0 -417.5 139.5t-143.5 446.5v910h164v-910q0 -235 100.5 -339.5 t296.5 -104.5q198 0 299 104.5t101 339.5v910h163v-910q0 -307 -144 -446.5t-419 -139.5z" />
<glyph unicode="&#x169;" d="M794 1472h104q0 -97 -47.5 -155.5t-125.5 -58.5q-46 0 -97.5 24t-97.5 48.5t-78 24.5q-80 0 -80 -104h-105q0 97 47 155.5t126 58.5q37 0 77.5 -15t70 -33.5t64 -33.5t60.5 -15q80 0 82 104zM532 -26q-188 0 -287 116t-99 326v626h157v-595q0 -168 72 -254.5t207 -86.5 q138 0 208.5 91.5t70.5 259.5v585h158v-1042h-158v146q-109 -172 -329 -172z" />
<glyph unicode="&#x16a;" horiz-adv-x="1483" d="M450 1787v111h583v-111h-583zM740 -26q-274 0 -417.5 139.5t-143.5 446.5v910h164v-910q0 -235 100.5 -339.5t296.5 -104.5q198 0 299 104.5t101 339.5v910h163v-910q0 -307 -144 -446.5t-419 -139.5z" />
<glyph unicode="&#x16b;" d="M291 1359v111h584v-111h-584zM532 -26q-188 0 -287 116t-99 326v626h157v-595q0 -168 72 -254.5t207 -86.5q138 0 208.5 91.5t70.5 259.5v585h158v-1042h-158v146q-109 -172 -329 -172z" />
<glyph unicode="&#x16c;" horiz-adv-x="1483" d="M464 1898h123q12 -57 52.5 -88.5t101.5 -31.5q62 0 102.5 31.5t52.5 88.5h122q-16 -107 -88.5 -165.5t-188.5 -58.5q-115 0 -187.5 58.5t-89.5 165.5zM740 -26q-274 0 -417.5 139.5t-143.5 446.5v910h164v-910q0 -235 100.5 -339.5t296.5 -104.5q198 0 299 104.5 t101 339.5v910h163v-910q0 -307 -144 -446.5t-419 -139.5z" />
<glyph unicode="&#x16d;" d="M306 1470h122q13 -57 53.5 -88.5t101.5 -31.5t101.5 31.5t53.5 88.5h122q-17 -107 -89.5 -165.5t-187.5 -58.5t-187.5 58.5t-89.5 165.5zM532 -26q-188 0 -287 116t-99 326v626h157v-595q0 -168 72 -254.5t207 -86.5q138 0 208.5 91.5t70.5 259.5v585h158v-1042h-158v146 q-109 -172 -329 -172z" />
<glyph unicode="&#x16e;" horiz-adv-x="1483" d="M518 1848q0 89 67.5 154.5t155.5 65.5q91 0 157 -65t66 -155q0 -92 -65.5 -158t-157.5 -66q-90 0 -156.5 66.5t-66.5 157.5zM601 1849q0 -61 40 -101.5t101 -40.5t99 39t38 103q0 58 -38.5 97.5t-98.5 39.5t-100.5 -40t-40.5 -97zM740 -26q-274 0 -417.5 139.5 t-143.5 446.5v910h164v-910q0 -235 100.5 -339.5t296.5 -104.5q198 0 299 104.5t101 339.5v910h163v-910q0 -307 -144 -446.5t-419 -139.5z" />
<glyph unicode="&#x16f;" d="M360 1423q0 88 67 153.5t156 65.5q90 0 156.5 -65t66.5 -154q0 -92 -65.5 -158t-157.5 -66q-91 0 -157 66t-66 158zM443 1424q0 -62 40 -102.5t101 -40.5t99 39.5t38 103.5q0 58 -38.5 97t-98.5 39t-100.5 -40t-40.5 -96zM532 -26q-188 0 -287 116t-99 326v626h157v-595 q0 -168 72 -254.5t207 -86.5q138 0 208.5 91.5t70.5 259.5v585h158v-1042h-158v146q-109 -172 -329 -172z" />
<glyph unicode="&#x170;" horiz-adv-x="1483" d="M579 1670h-174l228 228h217zM1023 1670h-174l228 228h217zM740 -26q-274 0 -417.5 139.5t-143.5 446.5v910h164v-910q0 -235 100.5 -339.5t296.5 -104.5q198 0 299 104.5t101 339.5v910h163v-910q0 -307 -144 -446.5t-419 -139.5z" />
<glyph unicode="&#x171;" d="M725 1470l-302 -258h-173l264 258h211zM1169 1470l-302 -258h-173l264 258h211zM532 -26q-188 0 -287 116t-99 326v626h157v-595q0 -168 72 -254.5t207 -86.5q138 0 208.5 91.5t70.5 259.5v585h158v-1042h-158v146q-109 -172 -329 -172z" />
<glyph unicode="&#x172;" horiz-adv-x="1483" d="M886 -234l57 -106q-65 -38 -153 -38q-96 0 -155 52t-59 138q0 85 70 166q-229 22 -348 162.5t-119 419.5v910h164v-910q0 -235 100.5 -339.5t296.5 -104.5q198 0 299 104.5t101 339.5v910h163v-910q0 -295 -132.5 -435t-386.5 -150q-63 -60 -63 -127q0 -42 27.5 -68.5 t70.5 -26.5q32 0 67 13z" />
<glyph unicode="&#x173;" d="M532 -26q-188 0 -287 116t-99 326v626h157v-595q0 -168 72 -254.5t207 -86.5q138 0 208.5 91.5t70.5 259.5v585h158v-1042h-4q-42 -27 -68.5 -68t-26.5 -84q0 -42 27 -68.5t70 -26.5q32 0 68 13l57 -106q-65 -38 -153 -38q-96 0 -155 52t-59 138q0 98 90 188h-4v146 q-109 -172 -329 -172z" />
<glyph unicode="&#x174;" horiz-adv-x="1983" d="M650 1630l269 268h145l270 -268h-162l-180 174l-181 -174h-161zM461 -4l-402 1474h169l344 -1277l317 1279h204l321 -1278l340 1276h170l-398 -1474h-205l-329 1305l-326 -1305h-205z" />
<glyph unicode="&#x175;" horiz-adv-x="1699" d="M547 1212l229 258h145l230 -258h-153l-149 176l-149 -176h-153zM391 -3l-326 1045h163l262 -870l277 873h165l284 -874l267 871h151l-327 -1045h-174l-289 872l-278 -872h-175z" />
<glyph unicode="&#x176;" horiz-adv-x="1379" d="M348 1630l269 268h145l270 -268h-162l-180 174l-180 -174h-162zM608 0v616l-565 854h186l393 -605l68 -107h2l68 107l390 605h186l-564 -854v-616h-164z" />
<glyph unicode="&#x177;" horiz-adv-x="1153" d="M275 1212l229 258h145l230 -258h-153l-149 176l-149 -176h-153zM313 -385l175 395l-440 1032h170l355 -850h2l369 850h161l-631 -1427h-161z" />
<glyph unicode="&#x178;" horiz-adv-x="1379" d="M537 1704h-160v195h160v-195zM1004 1704h-160v195h160v-195zM608 0v616l-565 854h186l393 -605l68 -107h2l68 107l390 605h186l-564 -854v-616h-164z" />
<glyph unicode="&#x179;" horiz-adv-x="1266" d="M817 1670h-174l228 228h217zM94 0v138l860 1189h-814v143h1014v-138l-862 -1189h881v-143h-1079z" />
<glyph unicode="&#x17a;" horiz-adv-x="1023" d="M927 1470l-302 -258h-173l264 258h211zM87 0v128l650 780h-614v134h799v-128l-652 -780h665v-134h-848z" />
<glyph unicode="&#x17b;" horiz-adv-x="1266" d="M778 1703h-160v195h160v-195zM94 0v138l860 1189h-814v143h1014v-138l-862 -1189h881v-143h-1079z" />
<glyph unicode="&#x17c;" horiz-adv-x="1023" d="M618 1263h-152v207h152v-207zM87 0v128l650 780h-614v134h799v-128l-652 -780h665v-134h-848z" />
<glyph unicode="&#x17d;" horiz-adv-x="1266" d="M356 1898h162l180 -174l180 174h162l-270 -268h-145zM94 0v138l860 1189h-814v143h1014v-138l-862 -1189h881v-143h-1079z" />
<glyph unicode="&#x17e;" horiz-adv-x="1023" d="M469 1212l-230 258h154l149 -176l148 176h154l-230 -258h-145zM87 0v128l650 780h-614v134h799v-128l-652 -780h665v-134h-848z" />
<glyph unicode="&#x218;" horiz-adv-x="1310" d="M675 -26q-247 0 -395 122t-181 338h171q62 -326 411 -326q161 0 263.5 67t102.5 198v2q0 53 -17.5 95.5t-45.5 71t-74 51.5t-90.5 37t-107.5 29l-190 45q-182 44 -285 140.5t-103 264.5v2q0 116 67 204.5t181.5 134.5t256.5 46q222 0 357.5 -106.5t167.5 -304.5h-170 q-66 277 -363 277q-140 0 -234.5 -65t-94.5 -180v-2q0 -105 65.5 -167t193.5 -93l190 -46q80 -19 141 -39.5t125 -55t104.5 -76t67 -104t26.5 -139.5v-3q0 -134 -71 -229.5t-191.5 -142t-277.5 -46.5zM738 -96l-144 -242h-139l122 242h161z" />
<glyph unicode="&#x219;" horiz-adv-x="1059" d="M545 -26q-195 0 -310.5 93.5t-139.5 245.5h158q46 -220 297 -220q115 0 185.5 44t70.5 129v2q0 37 -13.5 65.5t-34 47t-55 33.5t-65.5 23.5t-77 17.5l-148 31q-136 29 -217 100t-81 191v2q0 127 114.5 207.5t286.5 80.5q170 0 279 -77t137 -220h-158q-47 178 -264 178 q-100 0 -169 -43.5t-69 -118.5v-2q0 -67 48.5 -106.5t140.5 -58.5l149 -31q62 -13 109 -27t95.5 -38t79.5 -54.5t50.5 -76.5t19.5 -104v-2q0 -147 -117 -229.5t-302 -82.5zM611 -96l-144 -242h-139l122 242h161z" />
<glyph unicode="&#x21a;" horiz-adv-x="1275" d="M555 0v1327h-518v143h1201v-143h-519v-1327h-164zM719 -96l-144 -242h-139l122 242h161z" />
<glyph unicode="&#x21b;" horiz-adv-x="730" d="M534 0q-168 0 -240.5 72t-72.5 242v594h-168v134h168v260h157v-260h249v-134h-249v-578q0 -112 43 -154t144 -42h53v-134h-84zM421 -96l-144 -242h-138l122 242h160z" />
<glyph unicode="&#x2c6;" horiz-adv-x="704" d="M50 1212l229 258h145l230 -258h-153l-149 176l-149 -176h-153z" />
<glyph unicode="&#x2da;" horiz-adv-x="546" d="M50 1423q0 88 67 153.5t156 65.5q90 0 156.5 -65t66.5 -154q0 -92 -65.5 -158t-157.5 -66q-91 0 -157 66t-66 158zM133 1424q0 -62 40 -102.5t101 -40.5t99 39.5t38 103.5q0 58 -38.5 97t-98.5 39t-100.5 -40t-40.5 -96z" />
<glyph unicode="&#x2dc;" horiz-adv-x="731" d="M577 1472h104q0 -97 -47.5 -155.5t-125.5 -58.5q-46 0 -97.5 24t-97.5 48.5t-78 24.5q-80 0 -80 -104h-105q0 97 47 155.5t126 58.5q37 0 77.5 -15t70 -33.5t64 -33.5t60.5 -15q80 0 82 104z" />
<glyph unicode="&#x2000;" horiz-adv-x="1034" />
<glyph unicode="&#x2001;" horiz-adv-x="2068" />
<glyph unicode="&#x2002;" horiz-adv-x="1034" />
<glyph unicode="&#x2003;" horiz-adv-x="2068" />
<glyph unicode="&#x2004;" horiz-adv-x="689" />
<glyph unicode="&#x2005;" horiz-adv-x="517" />
<glyph unicode="&#x2006;" horiz-adv-x="344" />
<glyph unicode="&#x2007;" horiz-adv-x="344" />
<glyph unicode="&#x2008;" horiz-adv-x="258" />
<glyph unicode="&#x2009;" horiz-adv-x="413" />
<glyph unicode="&#x200a;" horiz-adv-x="114" />
<glyph unicode="&#x2010;" horiz-adv-x="788" d="M100 451v140h588v-140h-588z" />
<glyph unicode="&#x2011;" horiz-adv-x="788" d="M100 451v140h588v-140h-588z" />
<glyph unicode="&#x2012;" horiz-adv-x="788" d="M100 451v140h588v-140h-588z" />
<glyph unicode="&#x2013;" horiz-adv-x="1151" d="M100 451v140h951v-140h-951z" />
<glyph unicode="&#x2014;" horiz-adv-x="1951" d="M100 451v140h1751v-140h-1751z" />
<glyph unicode="&#x2018;" horiz-adv-x="507" d="M417 1470l-139 -459h-169l167 459h141z" />
<glyph unicode="&#x2019;" horiz-adv-x="507" d="M90 1011l139 459h168l-166 -459h-141z" />
<glyph unicode="&#x201a;" horiz-adv-x="507" d="M90 -227l139 459h168l-166 -459h-141z" />
<glyph unicode="&#x201c;" horiz-adv-x="889" d="M417 1470l-139 -459h-169l167 459h141zM799 1470l-139 -459h-168l166 459h141z" />
<glyph unicode="&#x201d;" horiz-adv-x="889" d="M473 1011l139 459h168l-166 -459h-141zM90 1011l139 459h168l-166 -459h-141z" />
<glyph unicode="&#x201e;" horiz-adv-x="889" d="M90 -227l139 459h168l-166 -459h-141zM473 -227l139 459h168l-166 -459h-141z" />
<glyph unicode="&#x2026;" horiz-adv-x="1589" d="M880 0h-169v232h169v-232zM1410 0h-169v232h169v-232zM350 0h-169v232h169v-232z" />
<glyph unicode="&#x202f;" horiz-adv-x="413" />
<glyph unicode="&#x2039;" horiz-adv-x="654" d="M337 192l-236 373l236 372h166l-231 -372l231 -373h-166z" />
<glyph unicode="&#x203a;" horiz-adv-x="654" d="M553 565l-236 -373h-166l231 373l-231 372h166z" />
<glyph unicode="&#x205f;" horiz-adv-x="517" />
<glyph unicode="&#x20ac;" horiz-adv-x="1502" d="M853 -26q-231 0 -377 141.5t-185 413.5h-255l58 118h186q-2 54 -2 82v12q0 12 0.5 35.5t0.5 34.5h-243l58 118h196q37 277 183.5 422t379.5 145q216 0 359 -120t172 -356h-165q-13 91 -49 157.5t-87 104t-108 55t-122 17.5q-154 0 -255 -108t-132 -317h423l-57 -118h-377 q-2 -44 -2 -68v-16q0 -28 2 -80h434l-57 -118h-364q32 -203 132.5 -308t252.5 -105q65 0 122 17.5t108 55t87 104t49 157.5h165q-29 -236 -172 -356t-359 -120z" />
<glyph unicode="&#x25fc;" horiz-adv-x="1040" d="M0 1040h1040v-1040h-1040v1040z" />
</font>
</defs>
</svg>
