<?xml version="1.0" standalone="no"?>
<!DOCTYPE svg PUBLIC "-//W3C//DTD SVG 1.1//EN" "http://www.w3.org/Graphics/SVG/1.1/DTD/svg11.dtd" >
<svg xmlns="http://www.w3.org/2000/svg" xmlns:xlink="http://www.w3.org/1999/xlink" version="1.1">
<metadata></metadata>
<defs>
<font id="antarctica_betamedium" horiz-adv-x="1217" >
<font-face units-per-em="2000" ascent="1600" descent="-400" />
<missing-glyph horiz-adv-x="438" />
<glyph horiz-adv-x="1000" />
<glyph horiz-adv-x="1000" />
<glyph unicode="&#xd;" horiz-adv-x="0" />
<glyph unicode=" "  horiz-adv-x="438" />
<glyph unicode="&#x09;" horiz-adv-x="438" />
<glyph unicode="&#xa0;" horiz-adv-x="438" />
<glyph unicode="!" horiz-adv-x="672" d="M237 458l-34 592l1 420h265v-420l-35 -592h-197zM470 0h-267v283h267v-283z" />
<glyph unicode="&#x22;" horiz-adv-x="854" d="M490 1470h263v-88l-24 -405h-215l-24 405v88zM100 1470h264v-88l-25 -405h-215l-24 405v88z" />
<glyph unicode="#" horiz-adv-x="1478" d="M179 892l26 198h235l50 380h203l-50 -380h280l50 380h203l-50 -380h238l-28 -198h-236l-39 -302h236l-25 -199h-237l-51 -391h-202l51 391h-281l-51 -391h-202l51 391h-236l26 199h235l40 302h-236zM578 590h280l40 302h-281z" />
<glyph unicode="$" horiz-adv-x="1365" d="M570 -246v225q-213 30 -334 154.5t-148 311.5h272q56 -269 346 -269q138 0 221 52.5t83 152.5v2q0 43 -14 76.5t-36 56t-60.5 41.5t-76 31t-93.5 25l-199 46q-416 96 -416 429v3q0 163 125 272t330 131v222h212v-224q191 -25 303.5 -134.5t139.5 -288.5h-272 q-29 117 -102.5 170.5t-197.5 53.5q-119 0 -195 -51t-76 -141v-2q0 -82 53.5 -132.5t162.5 -76.5l200 -47q86 -20 152 -43t130 -58.5t105.5 -79.5t66.5 -107t25 -141v-3q0 -192 -135 -305.5t-360 -131.5v-220h-212z" />
<glyph unicode="%" horiz-adv-x="1991" d="M468 668q-167 0 -264.5 109.5t-97.5 305.5v2q0 196 97.5 305.5t264.5 109.5t265 -109.5t98 -305.5v-2q0 -196 -98 -305.5t-265 -109.5zM558 0l633 1470h242l-633 -1470h-242zM468 828q162 0 162 255v2q0 255 -162 255q-161 0 -161 -255v-2q0 -255 161 -255zM1523 -30 q-166 0 -264 109.5t-98 305.5v2q0 196 98 305.5t264 109.5q168 0 265.5 -109.5t97.5 -305.5v-2q0 -196 -97.5 -305.5t-265.5 -109.5zM1523 131q162 0 162 254v2q0 256 -162 256q-160 0 -160 -256v-2q0 -254 160 -254z" />
<glyph unicode="&#x26;" horiz-adv-x="1630" d="M1266 0l-171 175q-109 -106 -226.5 -155.5t-268.5 -49.5q-231 0 -365.5 115.5t-134.5 305.5v3q0 143 90 251t267 189q-74 82 -118.5 160.5t-44.5 165.5v4q0 144 112 240t296 96q192 0 301 -89.5t109 -240.5v-4q0 -115 -76 -204t-224 -164l284 -292q92 133 156 259h260 q-95 -199 -264 -415l342 -350h-324zM674 937q97 45 143 98.5t46 125.5v3q0 71 -45 112t-116 41t-114.5 -40.5t-43.5 -112.5v-3q0 -92 130 -224zM950 325l-356 365q-234 -110 -234 -292v-3q0 -100 73.5 -165.5t191.5 -65.5q88 0 166 39t159 122z" />
<glyph unicode="'" horiz-adv-x="463" d="M100 1470h264v-88l-25 -405h-215l-24 405v88z" />
<glyph unicode="(" horiz-adv-x="627" d="M577 1543q-119 -189 -186 -436t-67 -494q0 -246 67 -493.5t186 -436.5h-219q-114 162 -186 423t-72 507t72 507t186 423h219z" />
<glyph unicode=")" horiz-adv-x="627" d="M50 1543h219q113 -163 185.5 -424t72.5 -506t-72.5 -506t-185.5 -424h-219q118 190 185.5 437.5t67.5 492.5q0 246 -67 493t-186 437z" />
<glyph unicode="*" horiz-adv-x="880" d="M312 824l-133 97l127 175l-206 67l52 158l205 -67v216h166v-216l205 67l52 -157l-207 -68l128 -175l-133 -97l-128 175z" />
<glyph unicode="+" horiz-adv-x="1254" d="M515 846v416h220v-416h419v-221h-419v-417h-220v417h-415v221h415z" />
<glyph unicode="," horiz-adv-x="578" d="M75 -224l143 507h266l-182 -507h-227z" />
<glyph unicode="-" horiz-adv-x="818" d="M100 411v221h618v-221h-618z" />
<glyph unicode="." horiz-adv-x="577" d="M422 0h-267v283h267v-283z" />
<glyph unicode="/" horiz-adv-x="1103" d="M120 -206l611 1676h253l-611 -1676h-253z" />
<glyph unicode="0" horiz-adv-x="1447" d="M723 -30q-197 0 -337 94.5t-210.5 265.5t-70.5 404v2q0 233 70.5 404t210.5 265.5t337 94.5q296 0 457.5 -205t161.5 -559v-2q0 -354 -161.5 -559t-457.5 -205zM723 188q163 0 254 136t91 410v2q0 274 -91 410t-254 136q-162 0 -253 -136t-91 -410v-2q0 -274 91 -410 t253 -136z" />
<glyph unicode="1" horiz-adv-x="933" d="M402 0v1062h-319v224h53q154 0 220.5 34.5t105.5 149.5h205v-1470h-265z" />
<glyph unicode="2" horiz-adv-x="1293" d="M97 0v68q0 167 52.5 290t150.5 207.5t257 158.5l110 52q126 60 179.5 126t53.5 167v1q0 105 -65.5 162t-179.5 57q-118 0 -184 -60.5t-77 -203.5h-268q16 230 156.5 352.5t379.5 122.5q149 0 263.5 -45.5t183 -140.5t68.5 -229v-1q0 -171 -89.5 -286.5t-278.5 -202.5 l-106 -49q-154 -73 -223 -144.5t-72 -178.5h774v-223h-1085z" />
<glyph unicode="3" horiz-adv-x="1342" d="M680 -30q-255 0 -416 124t-183 345h273q20 -135 105.5 -196.5t217.5 -61.5q127 0 208.5 60.5t81.5 176.5v2q0 114 -89 176t-253 62h-85v206h86q146 0 222 60t76 160v1q0 98 -68.5 151t-184.5 53q-120 0 -187 -58.5t-79 -185.5h-272q21 214 165 334.5t386 120.5 q227 0 366 -101t139 -284v-2q0 -118 -58 -206.5t-155 -127.5v-2q123 -42 193 -131.5t70 -229.5v-2q0 -139 -74 -241t-199.5 -152.5t-285.5 -50.5z" />
<glyph unicode="4" horiz-adv-x="1384" d="M818 0v328h-767v224l767 918h264v-919h252v-223h-252v-328h-264zM308 551h510v625h-2l-110 -134z" />
<glyph unicode="5" horiz-adv-x="1333" d="M666 -30q-238 0 -388.5 120t-174.5 331h271q44 -240 288 -240q126 0 210.5 76t84.5 207v2q0 134 -83.5 214t-207.5 80q-100 0 -173 -40t-107 -111l-247 41l102 820h895v-223h-677l-52 -393q126 116 328 116q217 0 356 -137.5t139 -361.5v-2q0 -150 -75 -265 t-202.5 -174.5t-286.5 -59.5z" />
<glyph unicode="6" horiz-adv-x="1344" d="M686 -30q-282 0 -431.5 183t-149.5 515v1q0 181 37.5 330.5t110.5 262.5t191 175.5t270 62.5q107 0 195.5 -31.5t147.5 -87t95.5 -125.5t49.5 -151h-256q-20 93 -84 138.5t-161 45.5q-150 0 -235 -130t-95 -370q58 84 154 133t223 49q130 0 241 -59.5t180.5 -175.5 t69.5 -265v-2q0 -221 -156 -360t-397 -139zM680 181q129 0 210.5 76.5t81.5 208.5v2q0 133 -82 213t-210 80q-129 0 -211 -80t-82 -213v-2q0 -132 82 -208.5t211 -76.5z" />
<glyph unicode="7" horiz-adv-x="1179" d="M270 0q3 217 45 404.5t120.5 340t182 275t239.5 227.5h-803v223h1071v-223q-295 -224 -439 -522t-150 -725h-266z" />
<glyph unicode="8" horiz-adv-x="1338" d="M670 -30q-262 0 -413.5 122t-151.5 323v2q0 130 69.5 222t173.5 138v2q-88 44 -141.5 130t-53.5 199v2q0 175 140 282.5t377 107.5q236 0 376 -107.5t140 -282.5v-2q0 -113 -53.5 -199t-142.5 -130v-2q104 -46 173.5 -138t69.5 -222v-2q0 -200 -151.5 -322.5 t-411.5 -122.5zM670 870q110 0 178 56t68 152v2q0 97 -68 153t-178 56q-111 0 -179.5 -56t-68.5 -153v-2q0 -96 68.5 -152t179.5 -56zM670 181q134 0 212.5 64t78.5 176v1q0 112 -78.5 175.5t-212.5 63.5t-213 -63.5t-79 -175.5v-1q0 -112 79 -176t213 -64z" />
<glyph unicode="9" horiz-adv-x="1344" d="M658 1500q282 0 431.5 -182.5t149.5 -514.5v-2q0 -181 -37 -330.5t-110.5 -262.5t-191 -175.5t-270.5 -62.5q-209 0 -335 112.5t-153 282.5h256q20 -92 84.5 -138t161.5 -46q150 0 234.5 130.5t94.5 370.5q-58 -84 -154 -133.5t-223 -49.5q-130 0 -241 59.5t-180.5 175.5 t-69.5 265v2q0 146 71.5 260t197.5 176.5t284 62.5zM664 1289q-129 0 -210.5 -76.5t-81.5 -207.5v-2q0 -134 82 -214t210 -80q129 0 211 80t82 214v2q0 131 -81.5 207.5t-211.5 76.5z" />
<glyph unicode=":" horiz-adv-x="577" d="M422 759h-267v283h267v-283zM422 0h-267v283h267v-283z" />
<glyph unicode=";" horiz-adv-x="624" d="M469 759h-266v283h266v-283zM75 -224l143 507h266l-182 -507h-227z" />
<glyph unicode="&#x3c;" horiz-adv-x="1041" d="M100 830l841 446v-250l-570 -298v-1l570 -297v-249l-841 445v204z" />
<glyph unicode="=" horiz-adv-x="1254" d="M100 828v220h1054v-220h-1054zM100 422v220h1054v-220h-1054z" />
<glyph unicode="&#x3e;" horiz-adv-x="1041" d="M100 1276l841 -446v-204l-841 -445v249l570 297v1l-570 298v250z" />
<glyph unicode="?" horiz-adv-x="1127" d="M544 1296q-103 0 -162.5 -60.5t-59.5 -170.5h-269q3 197 137.5 316t355.5 119q232 0 362.5 -103t130.5 -281v-1q0 -103 -47.5 -189t-129.5 -145l-67 -55q-88 -66 -117.5 -118t-29.5 -150h-243q0 144 32.5 216t130.5 147l72 59q63 47 92.5 97t29.5 120v1q0 94 -56.5 146 t-161.5 52zM660 0h-266v283h266v-283z" />
<glyph unicode="@" horiz-adv-x="1799" d="M772 239q-61 0 -114.5 21.5t-96.5 64.5t-68 115t-25 165v2q0 120 51 228t150 178.5t223 70.5q86 0 148 -44t87 -114l17 121h142l-61 -453q-15 -113 7 -166.5t84 -53.5q86 0 144 99.5t58 268.5v2q0 168 -75 287.5t-204 178t-300 58.5q-188 0 -337.5 -88t-230.5 -238 t-81 -333v-2q0 -263 157 -419t426 -156q202 0 384 88l56 -136q-93 -47 -211 -72.5t-229 -25.5q-221 0 -389.5 90t-261 255.5t-92.5 381.5v2q0 164 63 310t170.5 251t258.5 166.5t320 61.5q156 0 286.5 -40t230 -118.5t155 -204.5t55.5 -288v-2q0 -122 -31.5 -222.5 t-83.5 -164.5t-117.5 -99t-135.5 -35q-86 0 -142.5 51.5t-66.5 144.5q-47 -90 -129 -138.5t-191 -48.5zM818 384q119 0 192 101t73 241v2q0 98 -48.5 152.5t-134.5 54.5q-76 0 -136.5 -47t-93 -122t-32.5 -161v-2q0 -109 47 -164t133 -55z" />
<glyph unicode="A" horiz-adv-x="1506" d="M30 0l565 1470h315l566 -1470h-277l-146 395h-612l-144 -395h-267zM521 615h451l-225 611h-2z" />
<glyph unicode="B" horiz-adv-x="1387" d="M167 0v1470h574q228 0 346.5 -104t118.5 -269v-2q0 -108 -53 -190.5t-133 -122.5v-1q271 -100 271 -361v-2q0 -202 -143 -310t-399 -108h-582zM430 860h282q109 0 170 53.5t61 144.5v2q0 90 -61 144t-170 54h-282v-398zM430 213h303q282 0 282 218v1q0 218 -282 218h-303 v-437z" />
<glyph unicode="C" horiz-adv-x="1588" d="M826 -30q-221 0 -391 97t-262 270.5t-92 396.5v2q0 223 92 396.5t262 270.5t391 97q268 0 448 -133t236 -372h-273q-43 139 -153.5 210.5t-258.5 71.5q-215 0 -340.5 -148t-125.5 -393v-2q0 -245 125.5 -393t340.5 -148q148 0 258.5 71.5t153.5 210.5h273 q-56 -239 -236 -372t-448 -133z" />
<glyph unicode="D" horiz-adv-x="1526" d="M167 0v1470h497q170 0 313 -49t247 -140.5t162 -231.5t58 -315v-2q0 -172 -58 -311t-162 -231t-247 -141t-313 -49h-497zM430 220h228q245 0 377.5 133.5t132.5 378.5v2q0 246 -132.5 381.5t-377.5 135.5h-228v-1031z" />
<glyph unicode="E" horiz-adv-x="1283" d="M167 0v1470h985v-223h-722v-393h649v-223h-649v-408h725v-223h-988z" />
<glyph unicode="F" horiz-adv-x="1218" d="M167 0v1470h999v-223h-736v-393h664v-223h-664v-631h-263z" />
<glyph unicode="G" horiz-adv-x="1685" d="M816 -30q-216 0 -383 95.5t-259.5 269.5t-92.5 399v2q0 223 92 396.5t262 270.5t391 97q265 0 446 -125.5t238 -349.5h-273q-41 123 -150.5 187.5t-255.5 64.5q-218 0 -345 -148t-127 -393v-2q0 -249 126.5 -397t346.5 -148q186 0 309.5 103.5t123.5 279.5v9h-474v208 h727v-789h-203l-4 207q-67 -103 -196 -170t-299 -67z" />
<glyph unicode="H" horiz-adv-x="1525" d="M167 0v1470h263v-613h665v613h264v-1470h-264v622h-665v-622h-263z" />
<glyph unicode="I" horiz-adv-x="596" d="M167 0v1470h263v-1470h-263z" />
<glyph unicode="J" horiz-adv-x="1142" d="M509 -30q-217 0 -348 122t-131 340h269q0 -124 57.5 -184.5t154.5 -60.5t155.5 61t58.5 184v1038h263v-1038q0 -218 -131.5 -340t-347.5 -122z" />
<glyph unicode="K" horiz-adv-x="1410" d="M167 0v1470h263v-631l609 631h330l-698 -719l717 -751h-349l-609 632v-632h-263z" />
<glyph unicode="L" horiz-adv-x="1150" d="M167 0v1470h263v-1247h666v-223h-929z" />
<glyph unicode="M" horiz-adv-x="1868" d="M167 0v1470h404l362 -1192h2l362 1192h404v-1470h-250v603l4 606h-2l-378 -1209h-282l-378 1209h-2l4 -606v-603h-250z" />
<glyph unicode="N" horiz-adv-x="1525" d="M167 0v1470h339l604 -1138h2l-4 334v804h251v-1470h-343l-601 1138h-2l5 -333v-805h-251z" />
<glyph unicode="O" horiz-adv-x="1671" d="M835 -30q-222 0 -394 97t-266 271t-94 397v2q0 167 55 308.5t153 241.5t239 156.5t307 56.5q167 0 308 -56.5t239 -156.5t153 -241.5t55 -308.5v-2q0 -223 -94 -397t-266 -271t-395 -97zM835 193q218 0 347.5 149t129.5 393v2q0 244 -129.5 392t-347.5 148t-347 -148 t-129 -392v-2q0 -245 129 -393.5t347 -148.5z" />
<glyph unicode="P" horiz-adv-x="1325" d="M167 0v1470h535q278 0 423 -117t145 -339v-2q0 -221 -145 -338t-423 -117h-272v-557h-263zM430 777h264q152 0 225 58.5t73 176.5v2q0 237 -298 237h-264v-474z" />
<glyph unicode="Q" horiz-adv-x="1670" d="M835 -30q-222 0 -394 97t-266 271t-94 397v2q0 167 55 308.5t153 241.5t239 156.5t307 56.5q167 0 308 -56.5t239 -156.5t153 -241.5t55 -308.5v-2q0 -194 -72 -351.5t-204 -259.5l368 -340h-312l-250 234q-133 -48 -285 -48zM835 193q218 0 347.5 149t129.5 393v2 q0 244 -129.5 392t-347.5 148t-347 -148t-129 -392v-2q0 -245 129 -393.5t347 -148.5z" />
<glyph unicode="R" horiz-adv-x="1401" d="M167 0v1470h532q279 0 423.5 -114t144.5 -332v-2q0 -164 -88 -271t-252 -149l412 -602h-303l-389 576h-217v-576h-263zM430 797h268q148 0 220.5 55.5t72.5 169.5v2q0 227 -293 227h-268v-454z" />
<glyph unicode="S" horiz-adv-x="1365" d="M699 -30q-139 0 -250 36t-184.5 101t-117.5 149.5t-59 188.5h272q56 -269 346 -269q138 0 221 52.5t83 152.5v2q0 43 -14 76.5t-36 56t-60.5 41.5t-76 31t-93.5 25l-199 46q-416 96 -416 429v3q0 183 154 296t396 113q243 0 386.5 -113t173.5 -318h-272 q-29 117 -102.5 170.5t-197.5 53.5q-119 0 -195 -51t-76 -141v-2q0 -82 53.5 -132.5t162.5 -76.5l200 -47q86 -20 152 -43t130 -58.5t105.5 -79.5t66.5 -107t25 -141v-3q0 -210 -159.5 -325.5t-418.5 -115.5z" />
<glyph unicode="T" horiz-adv-x="1310" d="M523 0v1247h-486v223h1236v-223h-487v-1247h-263z" />
<glyph unicode="U" horiz-adv-x="1500" d="M749 -30q-288 0 -440 141t-152 452v907h263v-906q0 -196 84 -283.5t245 -87.5q162 0 246.5 87.5t84.5 283.5v906h263v-907q0 -311 -152.5 -452t-441.5 -141z" />
<glyph unicode="V" horiz-adv-x="1556" d="M621 0l-577 1470h281l464 -1201l458 1201h265l-576 -1470h-315z" />
<glyph unicode="W" horiz-adv-x="2046" d="M421 0l-367 1470h270l281 -1183l262 1183h312l264 -1182l279 1182h270l-363 -1470h-329l-277 1223l-273 -1223h-329z" />
<glyph unicode="X" horiz-adv-x="1531" d="M72 0l546 742l-518 728h319l355 -512l360 512h292l-514 -712l547 -758h-319l-385 541l-390 -541h-293z" />
<glyph unicode="Y" horiz-adv-x="1486" d="M612 0v582l-568 888h294l325 -533l81 -131h2l402 664h294l-566 -888v-582h-264z" />
<glyph unicode="Z" horiz-adv-x="1301" d="M94 0v215l772 1032h-738v223h1063v-215l-774 -1032h790v-223h-1113z" />
<glyph unicode="[" horiz-adv-x="733" d="M100 -317v1860h533v-194h-309v-1472h309v-194h-533z" />
<glyph unicode="\" horiz-adv-x="1103" d="M372 1470l611 -1676h-252l-611 1676h252z" />
<glyph unicode="]" horiz-adv-x="733" d="M633 1543v-1860h-533v194h309v1472h-309v194h533z" />
<glyph unicode="_" horiz-adv-x="1089" d="M50 -315v220h989v-220h-989z" />
<glyph unicode="`" horiz-adv-x="685" d="M365 1212l-315 258h320l265 -258h-270z" />
<glyph unicode="a" horiz-adv-x="1167" d="M456 -30q-162 0 -271.5 83.5t-109.5 222.5v2q0 78 34 137.5t93.5 99t151.5 67.5t195.5 42.5t239.5 23.5v19q0 115 -53.5 173t-150.5 58q-96 0 -148.5 -46.5t-57.5 -133.5h-252q14 163 135.5 261t326.5 98q222 0 338 -108t115 -341l-2 -293q-1 -215 32 -335h-238 q-12 44 -15 142q-114 -172 -363 -172zM796 482q-241 -17 -348.5 -58t-107.5 -135v-2q0 -68 51 -106.5t137 -38.5q120 0 194 70.5t74 209.5v60z" />
<glyph unicode="b" horiz-adv-x="1296" d="M741 -30q-118 0 -207.5 46t-135.5 123v-139h-254v1470h254v-567q45 78 135 123.5t208 45.5q90 0 172.5 -37.5t147 -105.5t103 -174t38.5 -233v-2q0 -127 -38.5 -233t-103 -174t-147 -105.5t-172.5 -37.5zM662 166q121 0 197 94.5t76 259.5v2q0 165 -76 259.5t-197 94.5 q-120 0 -196.5 -94.5t-76.5 -259.5v-2q0 -165 76.5 -259.5t196.5 -94.5z" />
<glyph unicode="c" horiz-adv-x="1222" d="M624 -30q-241 0 -385.5 153t-144.5 399v2q0 246 144.5 398.5t385.5 152.5q209 0 342 -104.5t168 -278.5h-255q-22 91 -88 140.5t-163 49.5q-121 0 -195 -96t-74 -262v-2q0 -166 74.5 -262t194.5 -96q97 0 163 49.5t88 140.5h255q-35 -174 -168 -279t-342 -105z" />
<glyph unicode="d" horiz-adv-x="1296" d="M554 -30q-90 0 -172.5 37.5t-146.5 105.5t-102.5 174t-38.5 233v2q0 127 38.5 233t102.5 174t146.5 105.5t172.5 37.5q119 0 209 -45.5t135 -123.5v567h254v-1470h-254v139q-46 -77 -136 -123t-208 -46zM634 166q120 0 196 94.5t76 259.5v2q0 165 -76 259.5t-196 94.5 q-121 0 -197 -94.5t-76 -259.5v-2q0 -165 76 -259.5t197 -94.5z" />
<glyph unicode="e" horiz-adv-x="1259" d="M638 -30q-251 0 -397.5 154t-146.5 401v2q0 163 70.5 288.5t192 192.5t274.5 67q131 0 235 -46.5t170.5 -129t100 -196.5t27.5 -248v-1h-806q14 -136 90 -214t196 -78q195 0 253 143h252q-43 -151 -175 -243t-336 -92zM360 633h541v1q-7 113 -79 185.5t-190 72.5 q-111 0 -182.5 -64.5t-89.5 -194.5z" />
<glyph unicode="f" horiz-adv-x="747" d="M205 0v836h-154v206h154v74q0 177 103.5 265.5t301.5 88.5h80v-199h-49q-94 0 -138.5 -38.5t-44.5 -121.5v-69h232v-206h-232v-836h-253z" />
<glyph unicode="g" horiz-adv-x="1298" d="M560 27q-91 0 -174.5 35t-148.5 99.5t-104 165t-39 221.5v2q0 121 39 221.5t104 165.5t148.5 100t174.5 35q116 0 206 -43t135 -117v130h254v-940q0 -137 -40 -238t-113 -159t-165 -85.5t-207 -27.5q-205 0 -339 97t-163 266h250q16 -81 84 -130.5t174 -49.5 q120 0 192.5 70t72.5 224v116q-45 -72 -135 -115t-206 -43zM634 221q121 0 197.5 87t76.5 240v2q0 153 -76.5 239.5t-197.5 86.5q-120 0 -197 -86.5t-77 -239.5v-2q0 -153 77 -240t197 -87z" />
<glyph unicode="h" d="M144 0v1470h254v-550q113 152 317 152q187 0 282 -115.5t95 -325.5v-631h-254v580q0 290 -220 290t-220 -290v-580h-254z" />
<glyph unicode="i" horiz-adv-x="541" d="M144 1220v250h254v-250h-254zM144 0v1042h254v-1042h-254z" />
<glyph unicode="j" horiz-adv-x="541" d="M144 1220v250h254v-250h-254zM-32 -385v204h33q84 0 113.5 30t29.5 123v1070h254v-1082q0 -186 -86 -265.5t-284 -79.5h-60z" />
<glyph unicode="k" horiz-adv-x="1208" d="M144 0v1470h254v-852l451 424h304l-519 -498l554 -544h-336l-454 432v-432h-254z" />
<glyph unicode="l" horiz-adv-x="541" d="M144 0v1470h254v-1470h-254z" />
<glyph unicode="m" horiz-adv-x="1911" d="M144 0v1042h254v-122q113 152 317 152q241 0 329 -190q129 190 365 190q188 0 282.5 -115.5t94.5 -325.5v-631h-253v580q0 290 -221 290q-220 0 -220 -290v-580h-254v580q0 290 -220 290t-220 -290v-580h-254z" />
<glyph unicode="n" d="M144 0v1042h254v-122q113 152 317 152q187 0 282 -115.5t95 -325.5v-631h-254v580q0 290 -220 290t-220 -290v-580h-254z" />
<glyph unicode="o" horiz-adv-x="1272" d="M636 -30q-248 0 -395 153.5t-147 398.5v2q0 244 147 397.5t395 153.5q249 0 396 -153.5t147 -397.5v-2q0 -244 -147.5 -398t-395.5 -154zM636 164q135 0 206 97t71 261v2q0 164 -71 261t-206 97q-134 0 -205.5 -97t-71.5 -261v-2q0 -164 71.5 -261t205.5 -97z" />
<glyph unicode="p" horiz-adv-x="1296" d="M741 -30q-118 0 -207.5 46t-135.5 123v-524h-254v1427h254v-139q45 78 135 123.5t208 45.5q90 0 172.5 -37.5t147 -105.5t103 -174t38.5 -233v-2q0 -127 -38.5 -233t-103 -174t-147 -105.5t-172.5 -37.5zM662 166q121 0 197 94.5t76 259.5v2q0 165 -76 259.5t-197 94.5 q-120 0 -196.5 -94.5t-76.5 -259.5v-2q0 -165 76.5 -259.5t196.5 -94.5z" />
<glyph unicode="q" horiz-adv-x="1296" d="M554 -30q-90 0 -172.5 37.5t-146.5 105.5t-102.5 174t-38.5 233v2q0 127 38.5 233t102.5 174t146.5 105.5t172.5 37.5q119 0 209 -45.5t135 -123.5v139h254v-1427h-254v524q-46 -77 -136 -123t-208 -46zM634 166q120 0 196 94.5t76 259.5v2q0 165 -76 259.5t-196 94.5 q-121 0 -197 -94.5t-76 -259.5v-2q0 -165 76 -259.5t197 -94.5z" />
<glyph unicode="r" horiz-adv-x="789" d="M144 0v1042h250v-192q43 95 129 150t203 55h19v-245h-63q-139 0 -211.5 -67t-72.5 -220v-523h-254z" />
<glyph unicode="s" horiz-adv-x="1113" d="M571 -30q-211 0 -337 97t-147 253h251q36 -176 238 -176q90 0 144 32.5t54 94.5v2q0 63 -49 94t-151 52l-159 33q-145 31 -228.5 108t-83.5 201v2q0 138 123 225t312 87t308 -81.5t146 -232.5h-250q-40 142 -208 142q-78 0 -129 -34t-51 -90v-2q0 -53 38 -83t115 -46 l158 -33q66 -14 117.5 -30.5t99 -42.5t78 -58.5t48.5 -78.5t18 -103v-2q0 -153 -126.5 -241.5t-328.5 -88.5z" />
<glyph unicode="t" horiz-adv-x="799" d="M574 0q-199 0 -283 76.5t-84 258.5v501h-156v206h156v275h254v-275h232v-206h-232v-466q0 -97 39 -130.5t128 -33.5h59v-206h-113z" />
<glyph unicode="u" d="M502 -29q-187 0 -282 115.5t-95 325.5v630h253v-579q0 -290 221 -290q220 0 220 290v579h254v-1042h-254v125q-113 -154 -317 -154z" />
<glyph unicode="v" horiz-adv-x="1179" d="M447 0l-409 1042h272l287 -790l294 790h250l-408 -1042h-286z" />
<glyph unicode="w" horiz-adv-x="1770" d="M369 0l-314 1042h257l220 -784l227 784h252l236 -784l225 784h243l-314 -1042h-278l-244 788l-230 -788h-280z" />
<glyph unicode="x" horiz-adv-x="1205" d="M54 0l412 529l-393 513h283l250 -335l254 335h272l-396 -504l414 -538h-283l-271 363l-277 -363h-265z" />
<glyph unicode="y" horiz-adv-x="1214" d="M291 -385l170 388l-423 1039h267l298 -762h2l319 762h252l-629 -1427h-256z" />
<glyph unicode="z" horiz-adv-x="1070" d="M83 0v198l594 638h-567v206h860v-197l-600 -639h616v-206h-903z" />
<glyph unicode="{" horiz-adv-x="726" d="M79 558v110q59 19 89 41t46.5 65t16.5 118v304q0 184 80.5 266.5t250.5 81.5l64 -1v-194h-19q-90 0 -121 -35t-31 -135v-267q0 -131 -38.5 -196t-139.5 -102v-2q101 -37 139.5 -102t38.5 -196v-267q0 -102 30.5 -136t121.5 -34h19v-194l-64 -1q-170 -1 -250.5 81.5 t-80.5 266.5v304q0 75 -16.5 118t-46.5 65t-89 41z" />
<glyph unicode="|" horiz-adv-x="464" d="M120 -206v1852h224v-1852h-224z" />
<glyph unicode="}" horiz-adv-x="726" d="M647 668v-110q-59 -19 -89 -41t-46.5 -65t-16.5 -118v-304q0 -184 -80.5 -266.5t-251.5 -81.5l-63 1v194h19q91 0 121.5 34t30.5 136v267q0 131 38 196t139 102v2q-101 37 -139 102t-38 196v267q0 100 -31.5 135t-120.5 35h-19v194l63 1q171 1 251.5 -81.5t80.5 -266.5 v-304q0 -75 16.5 -118t46.5 -65t89 -41z" />
<glyph unicode="&#xa2;" horiz-adv-x="1228" d="M511 216v189q-194 35 -305.5 181t-111.5 361v2q0 214 111.5 360t305.5 181v190h242v-192q155 -29 253.5 -127.5t127.5 -243.5h-255q-22 91 -88 140.5t-163 49.5q-121 0 -195 -96t-74 -262v-2q0 -166 74.5 -262t194.5 -96q97 0 163 49.5t88 140.5h255 q-29 -145 -127.5 -243.5t-253.5 -128.5v-191h-242z" />
<glyph unicode="&#xa3;" horiz-adv-x="1317" d="M97 615v204h183q-65 154 -65 267v3q0 190 135.5 300.5t357.5 110.5q209 0 346 -100.5t167 -316.5h-267q-31 206 -250 206q-103 0 -161 -53t-58 -154v-2q0 -105 61 -249l5 -12h388v-204h-310q15 -58 15 -110v-4q0 -86 -38 -160t-102 -118h703v-223h-1070v213 q117 29 175.5 105.5t58.5 188.5v3q0 50 -13 105h-261z" />
<glyph unicode="&#xa8;" horiz-adv-x="803" d="M273 1247h-220v223h220v-223zM749 1247h-218v223h218v-223z" />
<glyph unicode="&#xab;" horiz-adv-x="1179" d="M324 192l-236 373l236 372h265l-229 -372l229 -373h-265zM785 192l-236 373l236 372h265l-229 -372l229 -373h-265z" />
<glyph unicode="&#xad;" horiz-adv-x="818" d="M100 411v221h618v-221h-618z" />
<glyph unicode="&#xb4;" horiz-adv-x="684" d="M634 1470l-314 -258h-270l265 258h319z" />
<glyph unicode="&#xb8;" horiz-adv-x="459" d="M409 -96l-122 -242h-236l157 242h201z" />
<glyph unicode="&#xbb;" horiz-adv-x="1179" d="M1091 565l-236 -373h-266l229 373l-229 372h266zM630 565l-236 -373h-266l229 373l-229 372h266z" />
<glyph unicode="&#xc2;" horiz-adv-x="1506" d="M362 1630l282 268h217l283 -268h-235l-156 143l-156 -143h-235zM30 0l565 1470h315l566 -1470h-277l-146 395h-612l-144 -395h-267zM521 615h451l-225 611h-2z" />
<glyph unicode="&#xce;" horiz-adv-x="596" d="M-92 1630l282 268h217l283 -268h-235l-156 143l-156 -143h-235zM167 0v1470h263v-1470h-263z" />
<glyph unicode="&#xe2;" horiz-adv-x="1167" d="M221 1212l245 258h214l245 -258h-225l-127 143l-126 -143h-226zM456 -30q-162 0 -271.5 83.5t-109.5 222.5v2q0 78 34 137.5t93.5 99t151.5 67.5t195.5 42.5t239.5 23.5v19q0 115 -53.5 173t-150.5 58q-96 0 -148.5 -46.5t-57.5 -133.5h-252q14 163 135.5 261t326.5 98 q222 0 338 -108t115 -341l-2 -293q-1 -215 32 -335h-238q-12 44 -15 142q-114 -172 -363 -172zM796 482q-241 -17 -348.5 -58t-107.5 -135v-2q0 -68 51 -106.5t137 -38.5q120 0 194 70.5t74 209.5v60z" />
<glyph unicode="&#xee;" horiz-adv-x="541" d="M-81 1212l245 258h213l246 -258h-225l-127 143l-126 -143h-226zM144 0v1042h254v-1042h-254z" />
<glyph unicode="&#x100;" horiz-adv-x="1506" d="M439 1738v160h627v-160h-627zM30 0l565 1470h315l566 -1470h-277l-146 395h-612l-144 -395h-267zM521 615h451l-225 611h-2z" />
<glyph unicode="&#x101;" horiz-adv-x="1167" d="M260 1310v160h627v-160h-627zM456 -30q-162 0 -271.5 83.5t-109.5 222.5v2q0 78 34 137.5t93.5 99t151.5 67.5t195.5 42.5t239.5 23.5v19q0 115 -53.5 173t-150.5 58q-96 0 -148.5 -46.5t-57.5 -133.5h-252q14 163 135.5 261t326.5 98q222 0 338 -108t115 -341l-2 -293 q-1 -215 32 -335h-238q-12 44 -15 142q-114 -172 -363 -172zM796 482q-241 -17 -348.5 -58t-107.5 -135v-2q0 -68 51 -106.5t137 -38.5q120 0 194 70.5t74 209.5v60z" />
<glyph unicode="&#x102;" horiz-adv-x="1506" d="M430 1898h179q13 -47 51 -73.5t93 -26.5t93 26.5t51 73.5h178q-17 -117 -102 -181.5t-220 -64.5t-220 64.5t-103 181.5zM30 0l565 1470h315l566 -1470h-277l-146 395h-612l-144 -395h-267zM521 615h451l-225 611h-2z" />
<glyph unicode="&#x103;" horiz-adv-x="1167" d="M251 1470h178q13 -47 51 -73.5t93 -26.5t93 26.5t51 73.5h179q-18 -117 -103 -181.5t-220 -64.5t-220 64.5t-102 181.5zM456 -30q-162 0 -271.5 83.5t-109.5 222.5v2q0 78 34 137.5t93.5 99t151.5 67.5t195.5 42.5t239.5 23.5v19q0 115 -53.5 173t-150.5 58 q-96 0 -148.5 -46.5t-57.5 -133.5h-252q14 163 135.5 261t326.5 98q222 0 338 -108t115 -341l-2 -293q-1 -215 32 -335h-238q-12 44 -15 142q-114 -172 -363 -172zM796 482q-241 -17 -348.5 -58t-107.5 -135v-2q0 -68 51 -106.5t137 -38.5q120 0 194 70.5t74 209.5v60z" />
<glyph unicode="&#x104;" horiz-adv-x="1506" d="M30 0l565 1470h315l566 -1470q-39 -24 -62 -60.5t-23 -73.5q0 -35 21 -54.5t57 -19.5q29 0 63 12l80 -141q-80 -51 -194 -51q-112 0 -179 55t-67 147q0 93 87 186h-60l-146 395h-612l-144 -395h-267zM521 615h451l-225 611h-2z" />
<glyph unicode="&#x105;" horiz-adv-x="1167" d="M456 -30q-162 0 -271.5 83.5t-109.5 222.5v2q0 78 34 137.5t93.5 99t151.5 67.5t195.5 42.5t239.5 23.5v19q0 115 -53.5 173t-150.5 58q-96 0 -148.5 -46.5t-57.5 -133.5h-252q14 163 135.5 261t326.5 98q222 0 338 -108t115 -341l-2 -293q-1 -215 32 -335 q-39 -24 -62 -60.5t-23 -73.5q0 -35 21 -54.5t57 -19.5q29 0 63 12l80 -141q-80 -51 -194 -51q-112 0 -178.5 55t-66.5 147q0 94 86 186h-21q-12 44 -15 142q-114 -172 -363 -172zM796 482q-241 -17 -348.5 -58t-107.5 -135v-2q0 -68 51 -106.5t137 -38.5q120 0 194 70.5 t74 209.5v60z" />
<glyph unicode="&#x106;" horiz-adv-x="1588" d="M964 1670h-271l228 228h327zM826 -30q-221 0 -391 97t-262 270.5t-92 396.5v2q0 223 92 396.5t262 270.5t391 97q268 0 448 -133t236 -372h-273q-43 139 -153.5 210.5t-258.5 71.5q-215 0 -340.5 -148t-125.5 -393v-2q0 -245 125.5 -393t340.5 -148q148 0 258.5 71.5 t153.5 210.5h273q-56 -239 -236 -372t-448 -133z" />
<glyph unicode="&#x107;" horiz-adv-x="1222" d="M1058 1470l-314 -258h-270l264 258h320zM624 -30q-241 0 -385.5 153t-144.5 399v2q0 246 144.5 398.5t385.5 152.5q209 0 342 -104.5t168 -278.5h-255q-22 91 -88 140.5t-163 49.5q-121 0 -195 -96t-74 -262v-2q0 -166 74.5 -262t194.5 -96q97 0 163 49.5t88 140.5h255 q-35 -174 -168 -279t-342 -105z" />
<glyph unicode="&#x108;" horiz-adv-x="1588" d="M406 1630l282 268h216l283 -268h-235l-156 143l-155 -143h-235zM826 -30q-221 0 -391 97t-262 270.5t-92 396.5v2q0 223 92 396.5t262 270.5t391 97q268 0 448 -133t236 -372h-273q-43 139 -153.5 210.5t-258.5 71.5q-215 0 -340.5 -148t-125.5 -393v-2 q0 -245 125.5 -393t340.5 -148q148 0 258.5 71.5t153.5 210.5h273q-56 -239 -236 -372t-448 -133z" />
<glyph unicode="&#x109;" horiz-adv-x="1222" d="M259 1212l245 258h214l246 -258h-226l-127 143l-126 -143h-226zM624 -30q-241 0 -385.5 153t-144.5 399v2q0 246 144.5 398.5t385.5 152.5q209 0 342 -104.5t168 -278.5h-255q-22 91 -88 140.5t-163 49.5q-121 0 -195 -96t-74 -262v-2q0 -166 74.5 -262t194.5 -96 q97 0 163 49.5t88 140.5h255q-35 -174 -168 -279t-342 -105z" />
<glyph unicode="&#x10a;" horiz-adv-x="1588" d="M912 1684h-231v214h231v-214zM826 -30q-221 0 -391 97t-262 270.5t-92 396.5v2q0 223 92 396.5t262 270.5t391 97q268 0 448 -133t236 -372h-273q-43 139 -153.5 210.5t-258.5 71.5q-215 0 -340.5 -148t-125.5 -393v-2q0 -245 125.5 -393t340.5 -148q148 0 258.5 71.5 t153.5 210.5h273q-56 -239 -236 -372t-448 -133z" />
<glyph unicode="&#x10b;" horiz-adv-x="1222" d="M721 1247h-219v223h219v-223zM624 -30q-241 0 -385.5 153t-144.5 399v2q0 246 144.5 398.5t385.5 152.5q209 0 342 -104.5t168 -278.5h-255q-22 91 -88 140.5t-163 49.5q-121 0 -195 -96t-74 -262v-2q0 -166 74.5 -262t194.5 -96q97 0 163 49.5t88 140.5h255 q-35 -174 -168 -279t-342 -105z" />
<glyph unicode="&#x10c;" horiz-adv-x="1588" d="M406 1898h235l155 -143l156 143h235l-283 -268h-216zM826 -30q-221 0 -391 97t-262 270.5t-92 396.5v2q0 223 92 396.5t262 270.5t391 97q268 0 448 -133t236 -372h-273q-43 139 -153.5 210.5t-258.5 71.5q-215 0 -340.5 -148t-125.5 -393v-2q0 -245 125.5 -393 t340.5 -148q148 0 258.5 71.5t153.5 210.5h273q-56 -239 -236 -372t-448 -133z" />
<glyph unicode="&#x10d;" horiz-adv-x="1222" d="M504 1212l-245 258h226l126 -143l127 143h226l-246 -258h-214zM624 -30q-241 0 -385.5 153t-144.5 399v2q0 246 144.5 398.5t385.5 152.5q209 0 342 -104.5t168 -278.5h-255q-22 91 -88 140.5t-163 49.5q-121 0 -195 -96t-74 -262v-2q0 -166 74.5 -262t194.5 -96 q97 0 163 49.5t88 140.5h255q-35 -174 -168 -279t-342 -105z" />
<glyph unicode="&#x10e;" horiz-adv-x="1526" d="M163 1898h235l156 -143l156 143h235l-283 -268h-217zM167 0v1470h497q170 0 313 -49t247 -140.5t162 -231.5t58 -315v-2q0 -172 -58 -311t-162 -231t-247 -141t-313 -49h-497zM430 220h228q245 0 377.5 133.5t132.5 378.5v2q0 246 -132.5 381.5t-377.5 135.5h-228v-1031z " />
<glyph unicode="&#x10f;" horiz-adv-x="1516" d="M554 -30q-90 0 -172.5 37.5t-146.5 105.5t-102.5 174t-38.5 233v2q0 127 38.5 233t102.5 174t146.5 105.5t172.5 37.5q119 0 209 -45.5t135 -123.5v567h254v-1470h-254v139q-46 -77 -136 -123t-208 -46zM1302 1470h212v-328h-212v328zM634 166q120 0 196 94.5t76 259.5v2 q0 165 -76 259.5t-196 94.5q-121 0 -197 -94.5t-76 -259.5v-2q0 -165 76 -259.5t197 -94.5z" />
<glyph unicode="&#x110;" horiz-adv-x="1526" d="M167 0v644h-179v182h179v644h497q170 0 313 -49t247 -140.5t162 -231.5t58 -315v-2q0 -172 -58 -311t-162 -231t-247 -141t-313 -49h-497zM430 220h228q245 0 377.5 133.5t132.5 378.5v2q0 246 -132.5 381.5t-377.5 135.5h-228v-425h367v-182h-367v-424z" />
<glyph unicode="&#x111;" horiz-adv-x="1296" d="M554 -30q-90 0 -172.5 37.5t-146.5 105.5t-102.5 174t-38.5 233v2q0 127 38.5 233t102.5 174t146.5 105.5t172.5 37.5q119 0 209 -45.5t135 -123.5v299h-345v138h345v130h254v-130h116v-138h-116v-1202h-254v139q-46 -77 -136 -123t-208 -46zM634 166q120 0 196 94.5 t76 259.5v2q0 165 -76 259.5t-196 94.5q-121 0 -197 -94.5t-76 -259.5v-2q0 -165 76 -259.5t197 -94.5z" />
<glyph unicode="&#x112;" horiz-adv-x="1283" d="M347 1738v160h627v-160h-627zM167 0v1470h985v-223h-722v-393h649v-223h-649v-408h725v-223h-988z" />
<glyph unicode="&#x113;" horiz-adv-x="1259" d="M312 1310v160h628v-160h-628zM638 -30q-251 0 -397.5 154t-146.5 401v2q0 163 70.5 288.5t192 192.5t274.5 67q131 0 235 -46.5t170.5 -129t100 -196.5t27.5 -248v-1h-806q14 -136 90 -214t196 -78q195 0 253 143h252q-43 -151 -175 -243t-336 -92zM360 633h541v1 q-7 113 -79 185.5t-190 72.5q-111 0 -182.5 -64.5t-89.5 -194.5z" />
<glyph unicode="&#x114;" horiz-adv-x="1283" d="M338 1898h179q13 -47 51 -73.5t93 -26.5t93 26.5t51 73.5h178q-17 -117 -102 -181.5t-220 -64.5t-220 64.5t-103 181.5zM167 0v1470h985v-223h-722v-393h649v-223h-649v-408h725v-223h-988z" />
<glyph unicode="&#x115;" horiz-adv-x="1259" d="M303 1470h179q13 -47 51 -73.5t93 -26.5t93 26.5t51 73.5h178q-17 -117 -102 -181.5t-220 -64.5t-220 64.5t-103 181.5zM638 -30q-251 0 -397.5 154t-146.5 401v2q0 163 70.5 288.5t192 192.5t274.5 67q131 0 235 -46.5t170.5 -129t100 -196.5t27.5 -248v-1h-806 q14 -136 90 -214t196 -78q195 0 253 143h252q-43 -151 -175 -243t-336 -92zM360 633h541v1q-7 113 -79 185.5t-190 72.5q-111 0 -182.5 -64.5t-89.5 -194.5z" />
<glyph unicode="&#x116;" horiz-adv-x="1283" d="M777 1684h-231v214h231v-214zM167 0v1470h985v-223h-722v-393h649v-223h-649v-408h725v-223h-988z" />
<glyph unicode="&#x117;" horiz-adv-x="1259" d="M736 1247h-219v223h219v-223zM638 -30q-251 0 -397.5 154t-146.5 401v2q0 163 70.5 288.5t192 192.5t274.5 67q131 0 235 -46.5t170.5 -129t100 -196.5t27.5 -248v-1h-806q14 -136 90 -214t196 -78q195 0 253 143h252q-43 -151 -175 -243t-336 -92zM360 633h541v1 q-7 113 -79 185.5t-190 72.5q-111 0 -182.5 -64.5t-89.5 -194.5z" />
<glyph unicode="&#x118;" horiz-adv-x="1283" d="M167 0v1470h985v-223h-722v-393h649v-223h-649v-408h725v-223h-210q-39 -24 -61.5 -60.5t-22.5 -73.5q0 -35 21 -54.5t57 -19.5q27 0 62 12l80 -141q-80 -51 -194 -51q-112 0 -178.5 55t-66.5 147t86 186h-561z" />
<glyph unicode="&#x119;" horiz-adv-x="1259" d="M899 -196l80 -141q-80 -51 -194 -51q-112 0 -178.5 55t-66.5 147q0 80 62 157q-236 12 -372 164.5t-136 389.5v2q0 163 70.5 288.5t192 192.5t274.5 67q131 0 235 -46.5t170.5 -129t100 -196.5t27.5 -248v-1h-806q14 -136 90 -214t196 -78q195 0 253 143h252 q-31 -108 -108.5 -188t-197.5 -117q-39 -24 -61.5 -60.5t-22.5 -73.5q0 -35 21 -54.5t57 -19.5q28 0 62 12zM360 633h541v1q-7 113 -79 185.5t-190 72.5q-111 0 -182.5 -64.5t-89.5 -194.5z" />
<glyph unicode="&#x11a;" horiz-adv-x="1283" d="M270 1898h235l156 -143l156 143h235l-283 -268h-217zM167 0v1470h985v-223h-722v-393h649v-223h-649v-408h725v-223h-988z" />
<glyph unicode="&#x11b;" horiz-adv-x="1259" d="M519 1212l-245 258h226l126 -143l126 143h226l-246 -258h-213zM638 -30q-251 0 -397.5 154t-146.5 401v2q0 163 70.5 288.5t192 192.5t274.5 67q131 0 235 -46.5t170.5 -129t100 -196.5t27.5 -248v-1h-806q14 -136 90 -214t196 -78q195 0 253 143h252q-43 -151 -175 -243 t-336 -92zM360 633h541v1q-7 113 -79 185.5t-190 72.5q-111 0 -182.5 -64.5t-89.5 -194.5z" />
<glyph unicode="&#x11c;" horiz-adv-x="1685" d="M410 1630l282 268h216l283 -268h-235l-156 143l-155 -143h-235zM816 -30q-216 0 -383 95.5t-259.5 269.5t-92.5 399v2q0 223 92 396.5t262 270.5t391 97q265 0 446 -125.5t238 -349.5h-273q-41 123 -150.5 187.5t-255.5 64.5q-218 0 -345 -148t-127 -393v-2 q0 -249 126.5 -397t346.5 -148q186 0 309.5 103.5t123.5 279.5v9h-474v208h727v-789h-203l-4 207q-67 -103 -196 -170t-299 -67z" />
<glyph unicode="&#x11d;" horiz-adv-x="1298" d="M272 1212l246 258h213l246 -258h-226l-126 143l-127 -143h-226zM560 27q-91 0 -174.5 35t-148.5 99.5t-104 165t-39 221.5v2q0 121 39 221.5t104 165.5t148.5 100t174.5 35q116 0 206 -43t135 -117v130h254v-940q0 -137 -40 -238t-113 -159t-165 -85.5t-207 -27.5 q-205 0 -339 97t-163 266h250q16 -81 84 -130.5t174 -49.5q120 0 192.5 70t72.5 224v116q-45 -72 -135 -115t-206 -43zM634 221q121 0 197.5 87t76.5 240v2q0 153 -76.5 239.5t-197.5 86.5q-120 0 -197 -86.5t-77 -239.5v-2q0 -153 77 -240t197 -87z" />
<glyph unicode="&#x11e;" horiz-adv-x="1685" d="M478 1898h179q13 -47 50.5 -73.5t92.5 -26.5t93 26.5t51 73.5h179q-17 -117 -102 -181.5t-221 -64.5q-135 0 -220 64.5t-102 181.5zM816 -30q-216 0 -383 95.5t-259.5 269.5t-92.5 399v2q0 223 92 396.5t262 270.5t391 97q265 0 446 -125.5t238 -349.5h-273 q-41 123 -150.5 187.5t-255.5 64.5q-218 0 -345 -148t-127 -393v-2q0 -249 126.5 -397t346.5 -148q186 0 309.5 103.5t123.5 279.5v9h-474v208h727v-789h-203l-4 207q-67 -103 -196 -170t-299 -67z" />
<glyph unicode="&#x11f;" horiz-adv-x="1298" d="M302 1470h179q13 -47 50.5 -73.5t92.5 -26.5t93 26.5t51 73.5h179q-17 -117 -102 -181.5t-221 -64.5q-135 0 -220 64.5t-102 181.5zM560 27q-91 0 -174.5 35t-148.5 99.5t-104 165t-39 221.5v2q0 121 39 221.5t104 165.5t148.5 100t174.5 35q116 0 206 -43t135 -117v130 h254v-940q0 -137 -40 -238t-113 -159t-165 -85.5t-207 -27.5q-205 0 -339 97t-163 266h250q16 -81 84 -130.5t174 -49.5q120 0 192.5 70t72.5 224v116q-45 -72 -135 -115t-206 -43zM634 221q121 0 197.5 87t76.5 240v2q0 153 -76.5 239.5t-197.5 86.5q-120 0 -197 -86.5 t-77 -239.5v-2q0 -153 77 -240t197 -87z" />
<glyph unicode="&#x120;" horiz-adv-x="1685" d="M916 1684h-231v214h231v-214zM816 -30q-216 0 -383 95.5t-259.5 269.5t-92.5 399v2q0 223 92 396.5t262 270.5t391 97q265 0 446 -125.5t238 -349.5h-273q-41 123 -150.5 187.5t-255.5 64.5q-218 0 -345 -148t-127 -393v-2q0 -249 126.5 -397t346.5 -148 q186 0 309.5 103.5t123.5 279.5v9h-474v208h727v-789h-203l-4 207q-67 -103 -196 -170t-299 -67z" />
<glyph unicode="&#x121;" horiz-adv-x="1298" d="M734 1247h-219v223h219v-223zM560 27q-91 0 -174.5 35t-148.5 99.5t-104 165t-39 221.5v2q0 121 39 221.5t104 165.5t148.5 100t174.5 35q116 0 206 -43t135 -117v130h254v-940q0 -137 -40 -238t-113 -159t-165 -85.5t-207 -27.5q-205 0 -339 97t-163 266h250 q16 -81 84 -130.5t174 -49.5q120 0 192.5 70t72.5 224v116q-45 -72 -135 -115t-206 -43zM634 221q121 0 197.5 87t76.5 240v2q0 153 -76.5 239.5t-197.5 86.5q-120 0 -197 -86.5t-77 -239.5v-2q0 -153 77 -240t197 -87z" />
<glyph unicode="&#x122;" horiz-adv-x="1685" d="M816 -30q-216 0 -383 95.5t-259.5 269.5t-92.5 399v2q0 223 92 396.5t262 270.5t391 97q265 0 446 -125.5t238 -349.5h-273q-41 123 -150.5 187.5t-255.5 64.5q-218 0 -345 -148t-127 -393v-2q0 -249 126.5 -397t346.5 -148q186 0 309.5 103.5t123.5 279.5v9h-474v208 h727v-789h-203l-4 207q-67 -103 -196 -170t-299 -67zM919 -96l-157 -242h-201l122 242h236z" />
<glyph unicode="&#x123;" horiz-adv-x="1298" d="M916 1470l-122 -242h-237l158 242h201zM560 27q-91 0 -174.5 35t-148.5 99.5t-104 165t-39 221.5v2q0 121 39 221.5t104 165.5t148.5 100t174.5 35q116 0 206 -43t135 -117v130h254v-940q0 -137 -40 -238t-113 -159t-165 -85.5t-207 -27.5q-205 0 -339 97t-163 266h250 q16 -81 84 -130.5t174 -49.5q120 0 192.5 70t72.5 224v116q-45 -72 -135 -115t-206 -43zM634 221q121 0 197.5 87t76.5 240v2q0 153 -76.5 239.5t-197.5 86.5q-120 0 -197 -86.5t-77 -239.5v-2q0 -153 77 -240t197 -87z" />
<glyph unicode="&#x124;" horiz-adv-x="1525" d="M372 1630l282 268h217l283 -268h-235l-156 143l-156 -143h-235zM167 0v1470h263v-613h665v613h264v-1470h-264v622h-665v-622h-263z" />
<glyph unicode="&#x125;" d="M-81 1640l245 258h213l246 -258h-226l-126 143l-127 -143h-225zM144 0v1470h254v-550q113 152 317 152q187 0 282 -115.5t95 -325.5v-631h-254v580q0 290 -220 290t-220 -290v-580h-254z" />
<glyph unicode="&#x126;" horiz-adv-x="1525" d="M167 0v1073h-150v181h150v216h263v-216h665v216h264v-216h150v-181h-150v-1073h-264v622h-665v-622h-263zM430 857h665v216h-665v-216z" />
<glyph unicode="&#x127;" d="M144 0v1201h-120v138h120v131h254v-131h341v-138h-341v-281q113 152 317 152q187 0 282 -115.5t95 -325.5v-631h-254v580q0 290 -220 290t-220 -290v-580h-254z" />
<glyph unicode="&#x128;" horiz-adv-x="596" d="M480 1902h154q0 -106 -53.5 -173t-138.5 -67q-45 0 -97 20t-96 40.5t-70 20.5q-62 0 -62 -82h-155q0 106 53 173t138 67q46 0 97.5 -20.5t95 -40.5t70.5 -20q62 0 64 82zM167 0v1470h263v-1470h-263z" />
<glyph unicode="&#x129;" horiz-adv-x="541" d="M452 1477h155q0 -106 -53.5 -173t-138.5 -67q-46 0 -98 20.5t-95.5 40.5t-69.5 20q-62 0 -63 -83h-155q0 106 53.5 173t138.5 67q59 0 146.5 -40t115.5 -40q63 0 64 82zM144 0v1042h254v-1042h-254z" />
<glyph unicode="&#x12a;" horiz-adv-x="596" d="M-15 1738v160h627v-160h-627zM167 0v1470h263v-1470h-263z" />
<glyph unicode="&#x12b;" horiz-adv-x="541" d="M-43 1310v160h628v-160h-628zM144 0v1042h254v-1042h-254z" />
<glyph unicode="&#x12e;" horiz-adv-x="596" d="M167 0v1470h263v-1470h-23q-39 -24 -62 -60.5t-23 -73.5q0 -35 21 -54.5t57 -19.5q28 0 63 12l80 -141q-80 -51 -194 -51q-112 0 -179 55t-67 147q0 93 87 186h-23z" />
<glyph unicode="&#x12f;" horiz-adv-x="541" d="M144 1220v250h254v-250h-254zM144 0v1042h254v-1042h-19q-39 -24 -61.5 -60.5t-22.5 -73.5q0 -35 21 -54.5t57 -19.5q27 0 62 12l80 -141q-80 -51 -194 -51q-112 0 -178.5 55t-66.5 147t86 186h-18z" />
<glyph unicode="&#x130;" horiz-adv-x="596" d="M415 1684h-231v214h231v-214zM167 0v1470h263v-1470h-263z" />
<glyph unicode="&#x131;" horiz-adv-x="541" d="M144 0v1042h254v-1042h-254z" />
<glyph unicode="&#x132;" horiz-adv-x="1738" d="M167 0v1470h263v-1470h-263zM1105 -30q-216 0 -347.5 122t-131.5 340h270q0 -123 57.5 -184t153.5 -61q97 0 155.5 61t58.5 184v1038h263v-1038q0 -218 -131.5 -340t-347.5 -122z" />
<glyph unicode="&#x133;" horiz-adv-x="1083" d="M144 1220v250h254v-250h-254zM685 1220v250h254v-250h-254zM144 0v1042h254v-1042h-254zM509 -385v204h33q85 0 114 30t29 123v1070h254v-1082q0 -186 -85.5 -265.5t-284.5 -79.5h-60z" />
<glyph unicode="&#x134;" horiz-adv-x="1142" d="M466 1630l282 268h217l282 -268h-235l-155 143l-156 -143h-235zM509 -30q-217 0 -348 122t-131 340h269q0 -124 57.5 -184.5t154.5 -60.5t155.5 61t58.5 184v1038h263v-1038q0 -218 -131.5 -340t-347.5 -122z" />
<glyph unicode="&#x135;" horiz-adv-x="541" d="M-81 1212l245 258h213l246 -258h-226l-126 143l-126 -143h-226zM-32 -385v204h33q84 0 113.5 30t29.5 123v1070h254v-1082q0 -186 -86 -265.5t-284 -79.5h-60z" />
<glyph unicode="&#x136;" horiz-adv-x="1410" d="M167 0v1470h263v-631l609 631h330l-698 -719l717 -751h-349l-609 632v-632h-263zM896 -96l-157 -242h-201l122 242h236z" />
<glyph unicode="&#x137;" horiz-adv-x="1208" d="M144 0v1470h254v-852l451 424h304l-519 -498l554 -544h-336l-454 432v-432h-254zM785 -96l-157 -242h-201l122 242h236z" />
<glyph unicode="&#x139;" horiz-adv-x="1150" d="M467 1670h-271l228 228h326zM167 0v1470h263v-1247h666v-223h-929z" />
<glyph unicode="&#x13a;" horiz-adv-x="541" d="M718 1898l-315 -258h-270l265 258h320zM144 0v1470h254v-1470h-254z" />
<glyph unicode="&#x13b;" horiz-adv-x="1150" d="M167 0v1470h263v-1247h666v-223h-929zM750 -96l-157 -242h-201l122 242h236z" />
<glyph unicode="&#x13c;" horiz-adv-x="541" d="M144 0v1470h254v-1470h-254zM390 -96l-158 -242h-201l122 242h237z" />
<glyph unicode="&#x13d;" horiz-adv-x="1150" d="M665 1670h212v-328h-212v328zM167 0v1470h263v-1247h666v-223h-929z" />
<glyph unicode="&#x13e;" horiz-adv-x="762" d="M144 0v1470h254v-1470h-254zM548 1470h211v-328h-211v328z" />
<glyph unicode="&#x13f;" horiz-adv-x="1157" d="M167 0v1470h263v-1247h666v-223h-929zM911 706h-267v282h267v-282z" />
<glyph unicode="&#x140;" horiz-adv-x="825" d="M144 0v1470h254v-1470h-254zM814 594h-266v283h266v-283z" />
<glyph unicode="&#x143;" horiz-adv-x="1525" d="M931 1670h-272l229 228h326zM167 0v1470h339l604 -1138h2l-4 334v804h251v-1470h-343l-601 1138h-2l5 -333v-805h-251z" />
<glyph unicode="&#x144;" d="M1065 1470l-315 -258h-270l265 258h320zM144 0v1042h254v-122q113 152 317 152q187 0 282 -115.5t95 -325.5v-631h-254v580q0 290 -220 290t-220 -290v-580h-254z" />
<glyph unicode="&#x145;" horiz-adv-x="1525" d="M167 0v1470h339l604 -1138h2l-4 334v804h251v-1470h-343l-601 1138h-2l5 -333v-805h-251zM882 -96l-157 -242h-201l122 242h236z" />
<glyph unicode="&#x146;" d="M144 0v1042h254v-122q113 152 317 152q187 0 282 -115.5t95 -325.5v-631h-254v580q0 290 -220 290t-220 -290v-580h-254zM737 -96l-157 -242h-201l122 242h236z" />
<glyph unicode="&#x147;" horiz-adv-x="1525" d="M372 1898h235l156 -143l155 143h235l-282 -268h-217zM167 0v1470h339l604 -1138h2l-4 334v804h251v-1470h-343l-601 1138h-2l5 -333v-805h-251z" />
<glyph unicode="&#x148;" d="M511 1212l-245 258h226l126 -143l126 143h226l-246 -258h-213zM144 0v1042h254v-122q113 152 317 152q187 0 282 -115.5t95 -325.5v-631h-254v580q0 290 -220 290t-220 -290v-580h-254z" />
<glyph unicode="&#x149;" d="M405 1470l-105 -328h-259l131 328h233zM144 0v1042h254v-122q113 152 317 152q187 0 282 -115.5t95 -325.5v-631h-254v580q0 290 -220 290t-220 -290v-580h-254z" />
<glyph unicode="&#x14c;" horiz-adv-x="1671" d="M522 1738v160h627v-160h-627zM835 -30q-222 0 -394 97t-266 271t-94 397v2q0 167 55 308.5t153 241.5t239 156.5t307 56.5q167 0 308 -56.5t239 -156.5t153 -241.5t55 -308.5v-2q0 -223 -94 -397t-266 -271t-395 -97zM835 193q218 0 347.5 149t129.5 393v2 q0 244 -129.5 392t-347.5 148t-347 -148t-129 -392v-2q0 -245 129 -393.5t347 -148.5z" />
<glyph unicode="&#x14d;" horiz-adv-x="1272" d="M323 1310v160h627v-160h-627zM636 -30q-248 0 -395 153.5t-147 398.5v2q0 244 147 397.5t395 153.5q249 0 396 -153.5t147 -397.5v-2q0 -244 -147.5 -398t-395.5 -154zM636 164q135 0 206 97t71 261v2q0 164 -71 261t-206 97q-134 0 -205.5 -97t-71.5 -261v-2 q0 -164 71.5 -261t205.5 -97z" />
<glyph unicode="&#x14e;" horiz-adv-x="1671" d="M513 1898h178q14 -47 51.5 -73.5t92.5 -26.5t93 26.5t51 73.5h179q-17 -117 -102 -181.5t-221 -64.5q-135 0 -220 64.5t-102 181.5zM835 -30q-222 0 -394 97t-266 271t-94 397v2q0 167 55 308.5t153 241.5t239 156.5t307 56.5q167 0 308 -56.5t239 -156.5t153 -241.5 t55 -308.5v-2q0 -223 -94 -397t-266 -271t-395 -97zM835 193q218 0 347.5 149t129.5 393v2q0 244 -129.5 392t-347.5 148t-347 -148t-129 -392v-2q0 -245 129 -393.5t347 -148.5z" />
<glyph unicode="&#x14f;" horiz-adv-x="1272" d="M314 1470h178q14 -47 51.5 -73.5t92.5 -26.5t93 26.5t51 73.5h179q-17 -117 -102 -181.5t-221 -64.5q-135 0 -220 64.5t-102 181.5zM636 -30q-248 0 -395 153.5t-147 398.5v2q0 244 147 397.5t395 153.5q249 0 396 -153.5t147 -397.5v-2q0 -244 -147.5 -398t-395.5 -154z M636 164q135 0 206 97t71 261v2q0 164 -71 261t-206 97q-134 0 -205.5 -97t-71.5 -261v-2q0 -164 71.5 -261t205.5 -97z" />
<glyph unicode="&#x150;" horiz-adv-x="1671" d="M699 1670h-271l228 228h327zM1197 1670h-271l228 228h327zM835 -30q-222 0 -394 97t-266 271t-94 397v2q0 167 55 308.5t153 241.5t239 156.5t307 56.5q167 0 308 -56.5t239 -156.5t153 -241.5t55 -308.5v-2q0 -223 -94 -397t-266 -271t-395 -97zM835 193 q218 0 347.5 149t129.5 393v2q0 244 -129.5 392t-347.5 148t-347 -148t-129 -392v-2q0 -245 129 -393.5t347 -148.5z" />
<glyph unicode="&#x151;" horiz-adv-x="1272" d="M804 1470l-304 -258h-257l261 258h300zM1282 1470l-304 -258h-257l261 258h300zM636 -30q-248 0 -395 153.5t-147 398.5v2q0 244 147 397.5t395 153.5q249 0 396 -153.5t147 -397.5v-2q0 -244 -147.5 -398t-395.5 -154zM636 164q135 0 206 97t71 261v2q0 164 -71 261 t-206 97q-134 0 -205.5 -97t-71.5 -261v-2q0 -164 71.5 -261t205.5 -97z" />
<glyph unicode="&#x152;" horiz-adv-x="2436" d="M835 -30q-222 0 -394 97t-266 271t-94 397v2q0 167 55 308.5t153 241.5t239 156.5t307 56.5q286 0 484 -157v127h985v-223h-721v-393h649v-223h-648q0 -2 -0.5 -6.5t-0.5 -7.5v-394h725v-223h-989v128q-199 -158 -484 -158zM835 193q218 0 347.5 149t129.5 393v2 q0 244 -129.5 392t-347.5 148t-347 -148t-129 -392v-2q0 -245 129 -393.5t347 -148.5z" />
<glyph unicode="&#x153;" horiz-adv-x="2074" d="M636 -30q-248 0 -395 153.5t-147 398.5v2q0 244 147 397.5t395 153.5q263 0 413 -172q73 83 177.5 127.5t227.5 44.5q174 0 298 -80.5t183 -220t51 -319.5v-1h-806q14 -136 90.5 -214t196.5 -78q195 0 252 143h253q-43 -151 -175 -243t-337 -92q-263 0 -413 171 q-150 -171 -411 -171zM1183 633h541v1q-7 113 -79 185.5t-191 72.5q-111 0 -182.5 -64.5t-88.5 -194.5zM636 164q135 0 206 97t71 261v2q0 164 -71 261t-206 97q-134 0 -205.5 -97t-71.5 -261v-2q0 -164 71.5 -261t205.5 -97z" />
<glyph unicode="&#x154;" horiz-adv-x="1401" d="M823 1670h-271l228 228h326zM167 0v1470h532q279 0 423.5 -114t144.5 -332v-2q0 -164 -88 -271t-252 -149l412 -602h-303l-389 576h-217v-576h-263zM430 797h268q148 0 220.5 55.5t72.5 169.5v2q0 227 -293 227h-268v-454z" />
<glyph unicode="&#x155;" horiz-adv-x="789" d="M892 1470l-315 -258h-270l265 258h320zM144 0v1042h250v-192q43 95 129 150t203 55h19v-245h-63q-139 0 -211.5 -67t-72.5 -220v-523h-254z" />
<glyph unicode="&#x156;" horiz-adv-x="1401" d="M167 0v1470h532q279 0 423.5 -114t144.5 -332v-2q0 -164 -88 -271t-252 -149l412 -602h-303l-389 576h-217v-576h-263zM430 797h268q148 0 220.5 55.5t72.5 169.5v2q0 227 -293 227h-268v-454zM872 -96l-157 -242h-201l122 242h236z" />
<glyph unicode="&#x157;" horiz-adv-x="789" d="M144 0v1042h250v-192q43 95 129 150t203 55h19v-245h-63q-139 0 -211.5 -67t-72.5 -220v-523h-254zM389 -96l-157 -242h-201l122 242h236z" />
<glyph unicode="&#x158;" horiz-adv-x="1401" d="M264 1898h235l156 -143l156 143h235l-283 -268h-217zM167 0v1470h532q279 0 423.5 -114t144.5 -332v-2q0 -164 -88 -271t-252 -149l412 -602h-303l-389 576h-217v-576h-263zM430 797h268q148 0 220.5 55.5t72.5 169.5v2q0 227 -293 227h-268v-454z" />
<glyph unicode="&#x159;" horiz-adv-x="789" d="M338 1212l-245 258h226l126 -143l126 143h226l-246 -258h-213zM144 0v1042h250v-192q43 95 129 150t203 55h19v-245h-63q-139 0 -211.5 -67t-72.5 -220v-523h-254z" />
<glyph unicode="&#x15a;" horiz-adv-x="1365" d="M851 1670h-271l228 228h326zM699 -30q-139 0 -250 36t-184.5 101t-117.5 149.5t-59 188.5h272q56 -269 346 -269q138 0 221 52.5t83 152.5v2q0 43 -14 76.5t-36 56t-60.5 41.5t-76 31t-93.5 25l-199 46q-416 96 -416 429v3q0 183 154 296t396 113q243 0 386.5 -113 t173.5 -318h-272q-29 117 -102.5 170.5t-197.5 53.5q-119 0 -195 -51t-76 -141v-2q0 -82 53.5 -132.5t162.5 -76.5l200 -47q86 -20 152 -43t130 -58.5t105.5 -79.5t66.5 -107t25 -141v-3q0 -210 -159.5 -325.5t-418.5 -115.5z" />
<glyph unicode="&#x15b;" horiz-adv-x="1113" d="M1003 1470l-315 -258h-269l264 258h320zM571 -30q-211 0 -337 97t-147 253h251q36 -176 238 -176q90 0 144 32.5t54 94.5v2q0 63 -49 94t-151 52l-159 33q-145 31 -228.5 108t-83.5 201v2q0 138 123 225t312 87t308 -81.5t146 -232.5h-250q-40 142 -208 142 q-78 0 -129 -34t-51 -90v-2q0 -53 38 -83t115 -46l158 -33q66 -14 117.5 -30.5t99 -42.5t78 -58.5t48.5 -78.5t18 -103v-2q0 -153 -126.5 -241.5t-328.5 -88.5z" />
<glyph unicode="&#x15c;" horiz-adv-x="1365" d="M292 1630l282 268h217l283 -268h-235l-156 143l-156 -143h-235zM699 -30q-139 0 -250 36t-184.5 101t-117.5 149.5t-59 188.5h272q56 -269 346 -269q138 0 221 52.5t83 152.5v2q0 43 -14 76.5t-36 56t-60.5 41.5t-76 31t-93.5 25l-199 46q-416 96 -416 429v3 q0 183 154 296t396 113q243 0 386.5 -113t173.5 -318h-272q-29 117 -102.5 170.5t-197.5 53.5q-119 0 -195 -51t-76 -141v-2q0 -82 53.5 -132.5t162.5 -76.5l200 -47q86 -20 152 -43t130 -58.5t105.5 -79.5t66.5 -107t25 -141v-3q0 -210 -159.5 -325.5t-418.5 -115.5z" />
<glyph unicode="&#x15d;" horiz-adv-x="1113" d="M204 1212l245 258h213l246 -258h-226l-126 143l-126 -143h-226zM571 -30q-211 0 -337 97t-147 253h251q36 -176 238 -176q90 0 144 32.5t54 94.5v2q0 63 -49 94t-151 52l-159 33q-145 31 -228.5 108t-83.5 201v2q0 138 123 225t312 87t308 -81.5t146 -232.5h-250 q-40 142 -208 142q-78 0 -129 -34t-51 -90v-2q0 -53 38 -83t115 -46l158 -33q66 -14 117.5 -30.5t99 -42.5t78 -58.5t48.5 -78.5t18 -103v-2q0 -153 -126.5 -241.5t-328.5 -88.5z" />
<glyph unicode="&#x15e;" horiz-adv-x="1365" d="M699 -30q-139 0 -250 36t-184.5 101t-117.5 149.5t-59 188.5h272q56 -269 346 -269q138 0 221 52.5t83 152.5v2q0 43 -14 76.5t-36 56t-60.5 41.5t-76 31t-93.5 25l-199 46q-416 96 -416 429v3q0 183 154 296t396 113q243 0 386.5 -113t173.5 -318h-272 q-29 117 -102.5 170.5t-197.5 53.5q-119 0 -195 -51t-76 -141v-2q0 -82 53.5 -132.5t162.5 -76.5l200 -47q86 -20 152 -43t130 -58.5t105.5 -79.5t66.5 -107t25 -141v-3q0 -210 -159.5 -325.5t-418.5 -115.5zM788 -96l-122 -242h-236l157 242h201z" />
<glyph unicode="&#x15f;" horiz-adv-x="1113" d="M571 -30q-211 0 -337 97t-147 253h251q36 -176 238 -176q90 0 144 32.5t54 94.5v2q0 63 -49 94t-151 52l-159 33q-145 31 -228.5 108t-83.5 201v2q0 138 123 225t312 87t308 -81.5t146 -232.5h-250q-40 142 -208 142q-78 0 -129 -34t-51 -90v-2q0 -53 38 -83t115 -46 l158 -33q66 -14 117.5 -30.5t99 -42.5t78 -58.5t48.5 -78.5t18 -103v-2q0 -153 -126.5 -241.5t-328.5 -88.5zM662 -96l-122 -242h-236l157 242h201z" />
<glyph unicode="&#x160;" horiz-adv-x="1365" d="M292 1898h235l156 -143l156 143h235l-283 -268h-217zM699 -30q-139 0 -250 36t-184.5 101t-117.5 149.5t-59 188.5h272q56 -269 346 -269q138 0 221 52.5t83 152.5v2q0 43 -14 76.5t-36 56t-60.5 41.5t-76 31t-93.5 25l-199 46q-416 96 -416 429v3q0 183 154 296t396 113 q243 0 386.5 -113t173.5 -318h-272q-29 117 -102.5 170.5t-197.5 53.5q-119 0 -195 -51t-76 -141v-2q0 -82 53.5 -132.5t162.5 -76.5l200 -47q86 -20 152 -43t130 -58.5t105.5 -79.5t66.5 -107t25 -141v-3q0 -210 -159.5 -325.5t-418.5 -115.5z" />
<glyph unicode="&#x161;" horiz-adv-x="1113" d="M449 1212l-245 258h226l126 -143l126 143h226l-246 -258h-213zM571 -30q-211 0 -337 97t-147 253h251q36 -176 238 -176q90 0 144 32.5t54 94.5v2q0 63 -49 94t-151 52l-159 33q-145 31 -228.5 108t-83.5 201v2q0 138 123 225t312 87t308 -81.5t146 -232.5h-250 q-40 142 -208 142q-78 0 -129 -34t-51 -90v-2q0 -53 38 -83t115 -46l158 -33q66 -14 117.5 -30.5t99 -42.5t78 -58.5t48.5 -78.5t18 -103v-2q0 -153 -126.5 -241.5t-328.5 -88.5z" />
<glyph unicode="&#x162;" horiz-adv-x="1310" d="M523 0v1247h-486v223h1236v-223h-487v-1247h-263zM761 -96l-122 -242h-237l158 242h201z" />
<glyph unicode="&#x163;" horiz-adv-x="799" d="M574 0q-199 0 -283 76.5t-84 258.5v501h-156v206h156v275h254v-275h232v-206h-232v-466q0 -97 39 -130.5t128 -33.5h59v-206h-113zM492 -96l-158 -242h-201l122 242h237z" />
<glyph unicode="&#x164;" horiz-adv-x="1310" d="M265 1898h235l155 -143l156 143h235l-283 -268h-216zM523 0v1247h-486v223h1236v-223h-487v-1247h-263z" />
<glyph unicode="&#x165;" horiz-adv-x="850" d="M584 1670h212v-328h-212v328zM574 0q-199 0 -283 76.5t-84 258.5v501h-156v206h156v275h254v-275h232v-206h-232v-466q0 -97 39 -130.5t128 -33.5h59v-206h-113z" />
<glyph unicode="&#x166;" horiz-adv-x="1310" d="M523 0v740h-286v182h286v325h-486v223h1236v-223h-487v-325h288v-182h-288v-740h-263z" />
<glyph unicode="&#x167;" horiz-adv-x="799" d="M574 0q-199 0 -283 76.5t-84 258.5v119h-156v135h156v247h-156v206h156v275h254v-275h232v-206h-232v-247h232v-135h-232v-84q0 -97 39 -130.5t128 -33.5h59v-206h-113z" />
<glyph unicode="&#x168;" horiz-adv-x="1500" d="M931 1902h154q0 -106 -53 -173t-138 -67q-46 0 -98 20t-96 40.5t-70 20.5q-62 0 -62 -82h-155q0 106 53.5 173t138.5 67q59 0 146 -40.5t116 -40.5q62 0 64 82zM749 -30q-288 0 -440 141t-152 452v907h263v-906q0 -196 84 -283.5t245 -87.5q162 0 246.5 87.5t84.5 283.5 v906h263v-907q0 -311 -152.5 -452t-441.5 -141z" />
<glyph unicode="&#x169;" d="M780 1477h155q0 -106 -53.5 -173t-138.5 -67q-45 0 -97 20.5t-96 40.5t-70 20q-62 0 -62 -83h-155q0 106 53 173t138 67q58 0 146 -40t117 -40q62 0 63 82zM502 -29q-187 0 -282 115.5t-95 325.5v630h253v-579q0 -290 221 -290q220 0 220 290v579h254v-1042h-254v125 q-113 -154 -317 -154z" />
<glyph unicode="&#x16a;" horiz-adv-x="1500" d="M436 1738v160h628v-160h-628zM749 -30q-288 0 -440 141t-152 452v907h263v-906q0 -196 84 -283.5t245 -87.5q162 0 246.5 87.5t84.5 283.5v906h263v-907q0 -311 -152.5 -452t-441.5 -141z" />
<glyph unicode="&#x16b;" d="M286 1310v160h627v-160h-627zM502 -29q-187 0 -282 115.5t-95 325.5v630h253v-579q0 -290 221 -290q220 0 220 290v579h254v-1042h-254v125q-113 -154 -317 -154z" />
<glyph unicode="&#x16c;" horiz-adv-x="1500" d="M427 1898h179q13 -47 51 -73.5t93 -26.5t93 26.5t51 73.5h179q-18 -117 -103 -181.5t-220 -64.5t-220 64.5t-103 181.5zM749 -30q-288 0 -440 141t-152 452v907h263v-906q0 -196 84 -283.5t245 -87.5q162 0 246.5 87.5t84.5 283.5v906h263v-907q0 -311 -152.5 -452 t-441.5 -141z" />
<glyph unicode="&#x16d;" d="M277 1470h178q13 -47 51 -73.5t93 -26.5t93 26.5t51 73.5h179q-18 -117 -103 -181.5t-220 -64.5t-220 64.5t-102 181.5zM502 -29q-187 0 -282 115.5t-95 325.5v630h253v-579q0 -290 221 -290q220 0 220 290v579h254v-1042h-254v125q-113 -154 -317 -154z" />
<glyph unicode="&#x16e;" horiz-adv-x="1500" d="M525 1847q0 88 68 155.5t157 67.5q91 0 158 -67t67 -156q0 -93 -66 -160t-159 -67q-91 0 -158 67.5t-67 159.5zM635 1848q0 -52 32.5 -84.5t83.5 -32.5t80.5 31t29.5 86q0 49 -30 80t-80 31t-83 -32.5t-33 -78.5zM749 -30q-288 0 -440 141t-152 452v907h263v-906 q0 -196 84 -283.5t245 -87.5q162 0 246.5 87.5t84.5 283.5v906h263v-907q0 -311 -152.5 -452t-441.5 -141z" />
<glyph unicode="&#x16f;" d="M374 1422q0 88 68 155.5t157 67.5q91 0 158.5 -67t67.5 -156q0 -93 -66.5 -160t-159.5 -67q-91 0 -158 67.5t-67 159.5zM484 1423q0 -52 32.5 -84.5t83.5 -32.5t81 31t30 86q0 49 -30.5 80t-80.5 31t-83 -32.5t-33 -78.5zM502 -29q-187 0 -282 115.5t-95 325.5v630h253 v-579q0 -290 221 -290q220 0 220 290v579h254v-1042h-254v125q-113 -154 -317 -154z" />
<glyph unicode="&#x170;" horiz-adv-x="1500" d="M614 1670h-271l228 228h326zM1112 1670h-271l228 228h326zM749 -30q-288 0 -440 141t-152 452v907h263v-906q0 -196 84 -283.5t245 -87.5q162 0 246.5 87.5t84.5 283.5v906h263v-907q0 -311 -152.5 -452t-441.5 -141z" />
<glyph unicode="&#x171;" d="M767 1470l-304 -258h-257l261 258h300zM1245 1470l-304 -258h-257l261 258h300zM502 -29q-187 0 -282 115.5t-95 325.5v630h253v-579q0 -290 221 -290q220 0 220 290v579h254v-1042h-254v125q-113 -154 -317 -154z" />
<glyph unicode="&#x172;" horiz-adv-x="1500" d="M914 -196l80 -141q-80 -51 -194 -51q-112 0 -178.5 55t-66.5 147q0 83 67 164q-227 28 -346 169t-119 416v907h263v-906q0 -196 84 -283.5t245 -87.5q162 0 246.5 87.5t84.5 283.5v906h263v-907q0 -291 -133.5 -432.5t-386.5 -157.5q-49 -47 -49 -107q0 -35 21 -54.5 t57 -19.5q28 0 62 12z" />
<glyph unicode="&#x173;" d="M502 -29q-187 0 -282 115.5t-95 325.5v630h253v-579q0 -290 221 -290q220 0 220 290v579h254v-1042h-19q-39 -24 -61.5 -60.5t-22.5 -73.5q0 -35 21 -54.5t57 -19.5q27 0 63 12l79 -141q-80 -51 -193 -51q-112 0 -179 55t-67 147q0 93 87 186h-19v125 q-113 -154 -317 -154z" />
<glyph unicode="&#x174;" horiz-adv-x="2046" d="M633 1630l282 268h217l282 -268h-235l-155 143l-156 -143h-235zM421 0l-367 1470h270l281 -1183l262 1183h312l264 -1182l279 1182h270l-363 -1470h-329l-277 1223l-273 -1223h-329z" />
<glyph unicode="&#x175;" horiz-adv-x="1770" d="M533 1212l245 258h214l246 -258h-226l-127 143l-126 -143h-226zM369 0l-314 1042h257l220 -784l227 784h252l236 -784l225 784h243l-314 -1042h-278l-244 788l-230 -788h-280z" />
<glyph unicode="&#x176;" horiz-adv-x="1486" d="M353 1630l282 268h217l283 -268h-235l-156 143l-156 -143h-235zM612 0v582l-568 888h294l325 -533l81 -131h2l402 664h294l-566 -888v-582h-264z" />
<glyph unicode="&#x177;" horiz-adv-x="1214" d="M255 1212l245 258h213l246 -258h-226l-126 143l-126 -143h-226zM291 -385l170 388l-423 1039h267l298 -762h2l319 762h252l-629 -1427h-256z" />
<glyph unicode="&#x178;" horiz-adv-x="1486" d="M625 1686h-231v214h231v-214zM1093 1686h-231v214h231v-214zM612 0v582l-568 888h294l325 -533l81 -131h2l402 664h294l-566 -888v-582h-264z" />
<glyph unicode="&#x179;" horiz-adv-x="1301" d="M876 1670h-271l228 228h326zM94 0v215l772 1032h-738v223h1063v-215l-774 -1032h790v-223h-1113z" />
<glyph unicode="&#x17a;" horiz-adv-x="1070" d="M1010 1470l-315 -258h-269l264 258h320zM83 0v198l594 638h-567v206h860v-197l-600 -639h616v-206h-903z" />
<glyph unicode="&#x17b;" horiz-adv-x="1301" d="M824 1684h-231v214h231v-214zM94 0v215l772 1032h-738v223h1063v-215l-774 -1032h790v-223h-1113z" />
<glyph unicode="&#x17c;" horiz-adv-x="1070" d="M673 1247h-219v223h219v-223zM83 0v198l594 638h-567v206h860v-197l-600 -639h616v-206h-903z" />
<glyph unicode="&#x17d;" horiz-adv-x="1301" d="M317 1898h235l156 -143l156 143h235l-283 -268h-217zM94 0v215l772 1032h-738v223h1063v-215l-774 -1032h790v-223h-1113z" />
<glyph unicode="&#x17e;" horiz-adv-x="1070" d="M456 1212l-245 258h226l126 -143l127 143h225l-246 -258h-213zM83 0v198l594 638h-567v206h860v-197l-600 -639h616v-206h-903z" />
<glyph unicode="&#x218;" horiz-adv-x="1365" d="M699 -30q-139 0 -250 36t-184.5 101t-117.5 149.5t-59 188.5h272q56 -269 346 -269q138 0 221 52.5t83 152.5v2q0 43 -14 76.5t-36 56t-60.5 41.5t-76 31t-93.5 25l-199 46q-416 96 -416 429v3q0 183 154 296t396 113q243 0 386.5 -113t173.5 -318h-272 q-29 117 -102.5 170.5t-197.5 53.5q-119 0 -195 -51t-76 -141v-2q0 -82 53.5 -132.5t162.5 -76.5l200 -47q86 -20 152 -43t130 -58.5t105.5 -79.5t66.5 -107t25 -141v-3q0 -210 -159.5 -325.5t-418.5 -115.5zM802 -96l-158 -242h-201l122 242h237z" />
<glyph unicode="&#x219;" horiz-adv-x="1113" d="M571 -30q-211 0 -337 97t-147 253h251q36 -176 238 -176q90 0 144 32.5t54 94.5v2q0 63 -49 94t-151 52l-159 33q-145 31 -228.5 108t-83.5 201v2q0 138 123 225t312 87t308 -81.5t146 -232.5h-250q-40 142 -208 142q-78 0 -129 -34t-51 -90v-2q0 -53 38 -83t115 -46 l158 -33q66 -14 117.5 -30.5t99 -42.5t78 -58.5t48.5 -78.5t18 -103v-2q0 -153 -126.5 -241.5t-328.5 -88.5zM676 -96l-158 -242h-201l122 242h237z" />
<glyph unicode="&#x21a;" horiz-adv-x="1310" d="M523 0v1247h-486v223h1236v-223h-487v-1247h-263zM774 -96l-157 -242h-201l122 242h236z" />
<glyph unicode="&#x21b;" horiz-adv-x="799" d="M574 0q-199 0 -283 76.5t-84 258.5v501h-156v206h156v275h254v-275h232v-206h-232v-466q0 -97 39 -130.5t128 -33.5h59v-206h-113zM492 -96l-158 -242h-201l122 242h237z" />
<glyph unicode="&#x2c6;" horiz-adv-x="804" d="M50 1212l245 258h214l245 -258h-225l-127 143l-126 -143h-226z" />
<glyph unicode="&#x2da;" horiz-adv-x="551" d="M50 1422q0 88 68 155.5t157 67.5q91 0 158.5 -67t67.5 -156q0 -93 -66.5 -160t-159.5 -67q-91 0 -158 67.5t-67 159.5zM160 1423q0 -52 32.5 -84.5t83.5 -32.5t81 31t30 86q0 49 -30.5 80t-80.5 31t-83 -32.5t-33 -78.5z" />
<glyph unicode="&#x2dc;" horiz-adv-x="772" d="M568 1477h154q0 -106 -53 -173t-138 -67q-59 0 -147.5 40.5t-116.5 40.5q-62 0 -62 -83h-155q0 107 53.5 173.5t138.5 66.5q59 0 146.5 -40t115.5 -40q63 0 64 82z" />
<glyph unicode="&#x2000;" horiz-adv-x="1035" />
<glyph unicode="&#x2001;" horiz-adv-x="2070" />
<glyph unicode="&#x2002;" horiz-adv-x="1035" />
<glyph unicode="&#x2003;" horiz-adv-x="2070" />
<glyph unicode="&#x2004;" horiz-adv-x="690" />
<glyph unicode="&#x2005;" horiz-adv-x="517" />
<glyph unicode="&#x2006;" horiz-adv-x="345" />
<glyph unicode="&#x2007;" horiz-adv-x="345" />
<glyph unicode="&#x2008;" horiz-adv-x="258" />
<glyph unicode="&#x2009;" horiz-adv-x="414" />
<glyph unicode="&#x200a;" horiz-adv-x="115" />
<glyph unicode="&#x2010;" horiz-adv-x="818" d="M100 411v221h618v-221h-618z" />
<glyph unicode="&#x2011;" horiz-adv-x="818" d="M100 411v221h618v-221h-618z" />
<glyph unicode="&#x2012;" horiz-adv-x="818" d="M100 411v221h618v-221h-618z" />
<glyph unicode="&#x2013;" horiz-adv-x="1189" d="M100 411v221h989v-221h-989z" />
<glyph unicode="&#x2014;" horiz-adv-x="1989" d="M100 411v221h1789v-221h-1789z" />
<glyph unicode="&#x2018;" horiz-adv-x="578" d="M503 1470l-143 -506h-266l183 506h226z" />
<glyph unicode="&#x2019;" horiz-adv-x="578" d="M75 963l143 507h266l-182 -507h-227z" />
<glyph unicode="&#x201a;" horiz-adv-x="578" d="M75 -224l143 507h266l-182 -507h-227z" />
<glyph unicode="&#x201c;" horiz-adv-x="999" d="M503 1470l-143 -506h-266l183 506h226zM924 1470l-143 -506h-266l183 506h226z" />
<glyph unicode="&#x201d;" horiz-adv-x="999" d="M496 963l143 507h266l-182 -507h-227zM75 963l143 507h266l-182 -507h-227z" />
<glyph unicode="&#x201e;" horiz-adv-x="999" d="M75 -224l143 507h266l-182 -507h-227zM496 -224l143 507h266l-182 -507h-227z" />
<glyph unicode="&#x2026;" horiz-adv-x="1727" d="M998 0h-267v283h267v-283zM1574 0h-267v283h267v-283zM422 0h-267v283h267v-283z" />
<glyph unicode="&#x202f;" horiz-adv-x="414" />
<glyph unicode="&#x2039;" horiz-adv-x="718" d="M324 192l-236 373l236 372h265l-229 -372l229 -373h-265z" />
<glyph unicode="&#x203a;" horiz-adv-x="718" d="M630 565l-236 -373h-266l229 373l-229 372h266z" />
<glyph unicode="&#x205f;" horiz-adv-x="517" />
<glyph unicode="&#x20ac;" horiz-adv-x="1569" d="M889 -30q-242 0 -397.5 135.5t-200.5 401.5h-261l78 163h166q0 9 -0.5 28.5t-0.5 29.5v14q0 8 0.5 24t0.5 23h-244l78 163h181q43 271 199.5 409.5t400.5 138.5q236 0 390 -127.5t184 -377.5h-266q-12 80 -42.5 137.5t-74.5 88t-91 44t-101 13.5q-121 0 -204 -80.5 t-114 -245.5h382l-79 -163h-320v-46v-16q0 -39 1 -57h398l-79 -163h-301q33 -159 115 -237t201 -78q54 0 101 13.5t91 44t74.5 88t42.5 137.5h266q-30 -250 -184 -377.5t-390 -127.5z" />
<glyph unicode="&#x25fc;" horiz-adv-x="1040" d="M0 1040h1040v-1040h-1040v1040z" />
</font>
</defs>
</svg>
