<?xml version="1.0" standalone="no"?>
<!DOCTYPE svg PUBLIC "-//W3C//DTD SVG 1.1//EN" "http://www.w3.org/Graphics/SVG/1.1/DTD/svg11.dtd" >
<svg xmlns="http://www.w3.org/2000/svg" xmlns:xlink="http://www.w3.org/1999/xlink" version="1.1">
<metadata></metadata>
<defs>
<font id="antarctica_betaregular" horiz-adv-x="1197" >
<font-face units-per-em="2000" ascent="1600" descent="-400" />
<missing-glyph horiz-adv-x="444" />
<glyph horiz-adv-x="1000" />
<glyph horiz-adv-x="1000" />
<glyph unicode="&#xd;" horiz-adv-x="0" />
<glyph unicode=" "  horiz-adv-x="444" />
<glyph unicode="&#x09;" horiz-adv-x="444" />
<glyph unicode="&#xa0;" horiz-adv-x="444" />
<glyph unicode="!" horiz-adv-x="661" d="M252 432l-29 600l1 438h213v-438l-29 -600h-156zM440 0h-219v249h219v-249z" />
<glyph unicode="&#x22;" horiz-adv-x="748" d="M435 1470h212v-81l-24 -404h-164l-24 404v81zM100 1470h212v-81l-24 -404h-164l-24 404v81z" />
<glyph unicode="#" horiz-adv-x="1464" d="M182 904l22 170h247l51 396h175l-52 -396h298l51 396h175l-52 -396h250l-24 -170h-248l-43 -327h249l-22 -170h-249l-53 -407h-174l53 407h-298l-53 -407h-174l53 407h-247l22 170h247l42 327h-246zM560 577h298l42 327h-297z" />
<glyph unicode="$" horiz-adv-x="1335" d="M571 -246v225q-209 27 -329 151t-148 312h222q29 -144 119.5 -220t255.5 -76q150 0 241 58.5t91 170.5v2q0 48 -16 86t-40 63t-66.5 45.5t-81.5 33t-99 27.5l-192 47q-192 47 -297.5 147t-105.5 273v3q0 161 123 267t323 125v222h184v-224q185 -24 295.5 -131t136.5 -283 h-221q-32 129 -111.5 187.5t-214.5 58.5q-130 0 -213.5 -57t-83.5 -158v-2q0 -92 58.5 -148t175.5 -85l193 -48q83 -21 144.5 -41.5t126.5 -55.5t106 -77.5t67.5 -106t26.5 -141.5v-3q0 -190 -133 -300t-353 -126v-221h-184z" />
<glyph unicode="%" horiz-adv-x="1930" d="M461 666q-161 0 -254.5 109.5t-93.5 305.5v2q0 196 93.5 305.5t254.5 109.5q162 0 255.5 -109.5t93.5 -305.5v-2q0 -196 -93.5 -305.5t-255.5 -109.5zM549 0l633 1470h198l-633 -1470h-198zM461 812q172 0 172 269v2q0 270 -172 270q-171 0 -171 -270v-2q0 -269 171 -269 zM1468 -28q-161 0 -254.5 109.5t-93.5 305.5v2q0 196 93.5 305.5t254.5 109.5q162 0 255.5 -109.5t93.5 -305.5v-2q0 -196 -93.5 -305.5t-255.5 -109.5zM1468 118q172 0 172 269v2q0 270 -172 270q-171 0 -171 -270v-2q0 -269 171 -269z" />
<glyph unicode="&#x26;" horiz-adv-x="1583" d="M1273 0l-183 191q-112 -114 -230.5 -166.5t-267.5 -52.5q-224 0 -355 114t-131 302v2q0 144 91 252.5t274 192.5q-77 83 -123 162.5t-46 168.5v4q0 141 107.5 234.5t281.5 93.5q181 0 286 -87.5t105 -235.5v-5q0 -116 -76 -204.5t-231 -166.5l317 -330q108 153 171 280 h213q-92 -190 -260 -409l327 -340h-270zM657 917q113 50 165.5 110t52.5 138v4q0 79 -51.5 124.5t-132.5 45.5t-131.5 -45.5t-50.5 -124.5v-4q0 -59 40.5 -119.5t107.5 -128.5zM969 317l-380 396q-144 -63 -207.5 -142t-63.5 -178v-2q0 -108 81 -180.5t212 -72.5 q189 0 358 179z" />
<glyph unicode="'" horiz-adv-x="412" d="M100 1470h212v-81l-24 -404h-164l-24 404v81z" />
<glyph unicode="(" horiz-adv-x="583" d="M533 1534q-116 -185 -182 -431t-66 -490t66 -490t182 -431h-180q-111 159 -182 418.5t-71 502.5t71 502.5t182 418.5h180z" />
<glyph unicode=")" horiz-adv-x="583" d="M50 1534h180q111 -159 182 -418.5t71 -502.5t-71 -502.5t-182 -418.5h-180q116 185 182 431t66 490t-66 490t-182 431z" />
<glyph unicode="*" horiz-adv-x="862" d="M300 841l-119 86l130 180l-211 69l46 141l211 -69v222h148v-222l211 69l46 -140l-212 -70l131 -180l-119 -86l-131 179z" />
<glyph unicode="+" horiz-adv-x="1248" d="M532 826v433h180v-433h436v-181h-436v-434h-180v434h-432v181h432z" />
<glyph unicode="," horiz-adv-x="540" d="M80 -226l143 475h218l-179 -475h-182z" />
<glyph unicode="-" horiz-adv-x="798" d="M100 431v181h598v-181h-598z" />
<glyph unicode="." horiz-adv-x="554" d="M387 0h-219v249h219v-249z" />
<glyph unicode="/" horiz-adv-x="1054" d="M120 -206l611 1676h203l-611 -1676h-203z" />
<glyph unicode="0" horiz-adv-x="1406" d="M703 -28q-284 0 -437 205.5t-153 556.5v2q0 351 153 556.5t437 205.5t437 -205.5t153 -556.5v-2q0 -351 -153 -556.5t-437 -205.5zM703 155q173 0 270 145t97 434v2q0 289 -97 434t-270 145t-270 -145t-97 -434v-2q0 -289 97 -434t270 -145z" />
<glyph unicode="1" horiz-adv-x="904" d="M412 0v1099h-320v186h56q151 0 213.5 34t100.5 151h163v-1470h-213z" />
<glyph unicode="2" horiz-adv-x="1257" d="M105 0v70q0 122 29 218.5t89 171.5t138.5 131.5t189.5 110.5l113 55q129 63 184.5 135.5t55.5 182.5v1q0 116 -71.5 179.5t-196.5 63.5q-129 0 -200.5 -64t-83.5 -219h-216q15 222 147.5 342t357.5 120q216 0 352 -106t136 -304v-1q0 -169 -87 -284.5t-270 -202.5 l-108 -52q-161 -78 -237 -159t-77 -204h791v-185h-1036z" />
<glyph unicode="3" horiz-adv-x="1302" d="M655 -28q-244 0 -396.5 121t-172.5 336h222q19 -144 111.5 -211t234.5 -67q137 0 225.5 67t88.5 196v2q0 126 -97 194t-271 68h-74v174h75q159 0 241.5 65.5t82.5 176.5v1q0 108 -75 166t-201 58q-130 0 -201.5 -64t-83.5 -202h-222q19 208 153.5 326.5t364.5 118.5 q216 0 347.5 -100.5t131.5 -280.5v-2q0 -121 -60.5 -210t-160.5 -127v-2q127 -41 199.5 -131.5t72.5 -234.5v-2q0 -138 -71.5 -238t-191 -149t-272.5 -49z" />
<glyph unicode="4" horiz-adv-x="1354" d="M830 0v342h-774v186l774 942h212v-942h257v-186h-257v-342h-212zM271 528h559v691h-2z" />
<glyph unicode="5" horiz-adv-x="1298" d="M646 -28q-230 0 -371 118t-163 330h221q41 -269 310 -269q136 0 228 83.5t92 228.5v2q0 147 -91 235t-225 88q-106 0 -185 -42.5t-116 -116.5l-197 37l105 804h842v-185h-667l-58 -435q124 116 325 116q211 0 350.5 -138t139.5 -360v-2q0 -149 -73.5 -263t-195.5 -172.5 t-271 -58.5z" />
<glyph unicode="6" horiz-adv-x="1313" d="M668 -28q-269 0 -412 179t-143 512v1q0 145 22 270t68.5 229.5t115 178.5t165 115t214.5 41q102 0 186.5 -31t140.5 -84.5t90.5 -121t46.5 -145.5h-210q-21 101 -91.5 152t-175.5 51q-162 0 -253 -143.5t-102 -402.5q57 90 155 144t229 54q132 0 243 -62.5t177 -178 t66 -261.5v-2q0 -215 -149.5 -355t-382.5 -140zM665 151q139 0 227 85t88 229v2q0 147 -88.5 236t-226.5 89q-140 0 -228.5 -89t-88.5 -236v-2q0 -145 88 -229.5t229 -84.5z" />
<glyph unicode="7" horiz-adv-x="1142" d="M277 0q9 428 155 742t428 543h-803v185h1028v-185q-295 -233 -439.5 -539t-153.5 -746h-215z" />
<glyph unicode="8" horiz-adv-x="1307" d="M654 -28q-246 0 -393.5 119t-147.5 320v2q0 134 70.5 225.5t176.5 138.5v2q-89 42 -144.5 129.5t-55.5 201.5v2q0 173 136.5 279.5t357.5 106.5t357.5 -106.5t136.5 -279.5v-2q0 -114 -56 -201.5t-145 -129.5v-2q106 -47 176.5 -138.5t70.5 -225.5v-2 q0 -200 -147.5 -319.5t-392.5 -119.5zM654 858q122 0 197.5 61.5t75.5 167.5v1q0 107 -75.5 169t-197.5 62q-123 0 -198.5 -62t-75.5 -169v-1q0 -106 75.5 -167.5t198.5 -61.5zM654 151q146 0 232 70t86 194v1q0 124 -86 193.5t-232 69.5t-232 -69.5t-86 -193.5v-1 q0 -124 86 -194t232 -70z" />
<glyph unicode="9" horiz-adv-x="1313" d="M645 1498q269 0 412 -179t143 -512v-1q0 -145 -22 -270t-68.5 -229.5t-115 -178.5t-165 -115t-214.5 -41q-102 0 -186.5 31t-140.5 84.5t-90.5 121t-46.5 145.5h210q21 -101 91.5 -152t175.5 -51q162 0 253 143.5t102 402.5q-57 -90 -155 -144t-229 -54q-132 0 -243 62.5 t-177 178t-66 261.5v2q0 215 149.5 355t382.5 140zM648 1319q-139 0 -227 -85t-88 -229v-2q0 -147 88.5 -236t226.5 -89q140 0 228.5 89t88.5 236v2q0 145 -88 229.5t-229 84.5z" />
<glyph unicode=":" horiz-adv-x="554" d="M387 793h-219v249h219v-249zM387 0h-219v249h219v-249z" />
<glyph unicode=";" horiz-adv-x="593" d="M426 793h-219v249h219v-249zM80 -226l143 475h218l-179 -475h-182z" />
<glyph unicode="&#x3c;" horiz-adv-x="1026" d="M100 814l826 437v-204l-607 -319v-1l607 -318v-204l-826 436v173z" />
<glyph unicode="=" horiz-adv-x="1248" d="M100 837v180h1048v-180h-1048zM100 453v180h1048v-180h-1048z" />
<glyph unicode="&#x3e;" horiz-adv-x="1026" d="M100 1251l826 -437v-173l-826 -436v204l607 318v1l-607 319v204z" />
<glyph unicode="?" horiz-adv-x="1086" d="M519 1327q-115 0 -183 -65.5t-68 -182.5h-217q1 190 129.5 304.5t339.5 114.5q223 0 347.5 -102t124.5 -281v-1q0 -101 -45 -186.5t-123 -146.5l-78 -65q-62 -49 -91 -84t-42 -80.5t-13 -119.5h-195q0 152 30 224t130 152l82 69q61 49 90 101.5t29 126.5v1q0 105 -64 163 t-183 58zM613 0h-219v249h219v-249z" />
<glyph unicode="@" horiz-adv-x="1795" d="M770 239q-129 0 -215 92t-86 272v2q0 120 51 228t149.5 178t222.5 70q88 0 150.5 -46t86.5 -119l18 128h133l-61 -454q-15 -114 7.5 -169t88.5 -55q88 0 148 101.5t60 273.5v2q0 253 -161.5 390.5t-425.5 137.5q-143 0 -266 -52.5t-208 -142t-133 -211.5t-48 -258v-2 q0 -265 159 -423t429 -158q209 0 388 88l53 -129q-92 -46 -210.5 -71.5t-230.5 -25.5q-332 0 -535.5 199.5t-203.5 524.5v2q0 217 106 398t292 286t411 105q158 0 288.5 -40t229 -118.5t153.5 -204t55 -287.5v-2q0 -121 -31 -221.5t-83 -164.5t-116.5 -98.5t-134.5 -34.5 q-88 0 -144.5 53.5t-65.5 147.5q-47 -92 -129 -142t-191 -50zM812 376q120 0 194.5 103.5t74.5 245.5v2q0 102 -48.5 158t-135.5 56q-115 0 -191 -101.5t-76 -237.5v-2q0 -111 47.5 -167.5t134.5 -56.5z" />
<glyph unicode="A" horiz-adv-x="1470" d="M30 0l585 1470h240l585 -1470h-223l-162 417h-654l-160 -417h-211zM472 601h511l-255 657h-3z" />
<glyph unicode="B" horiz-adv-x="1367" d="M179 0v1470h542q113 0 200.5 -29.5t142 -81.5t82 -118.5t27.5 -144.5v-1q0 -109 -52.5 -191t-134.5 -122v-1q273 -97 273 -364v-2q0 -202 -141.5 -308.5t-391.5 -106.5h-547zM391 846h312q119 0 187 61t68 162v1q0 100 -68 161.5t-187 61.5h-312v-447zM391 177h329 q161 0 238 64.5t77 181.5v1q0 117 -77 181.5t-238 64.5h-329v-493z" />
<glyph unicode="C" horiz-adv-x="1575" d="M821 -28q-219 0 -387 98t-258 271t-90 393v2q0 220 90 393t258 271t387 98q260 0 436 -129t233 -359h-222q-45 148 -166.5 225.5t-281.5 77.5q-236 0 -372.5 -159.5t-136.5 -417.5v-2q0 -258 136.5 -417.5t372.5 -159.5q160 0 281.5 77.5t166.5 225.5h222 q-57 -230 -233 -359t-436 -129z" />
<glyph unicode="D" horiz-adv-x="1504" d="M179 0v1470h469q349 0 559.5 -198.5t210.5 -538.5v-2q0 -223 -96 -389t-270 -254t-404 -88h-469zM391 183h254q263 0 406 145.5t143 402.5v2q0 258 -143 406t-406 148h-254v-1104z" />
<glyph unicode="E" horiz-adv-x="1264" d="M179 0v1470h949v-185h-737v-448h661v-185h-661v-467h739v-185h-951z" />
<glyph unicode="F" d="M179 0v1470h967v-185h-755v-448h679v-185h-679v-652h-212z" />
<glyph unicode="G" horiz-adv-x="1680" d="M816 -28q-216 0 -383 97.5t-257 270.5t-90 394v2q0 220 90 393t258 271t387 98q258 0 435 -123.5t234 -340.5h-222q-44 135 -165 207t-280 72q-158 0 -275 -74t-177 -204t-60 -299v-2q0 -259 137 -419t375 -160q132 0 239 49.5t172 148t65 230.5v11h-511v178h713v-772 h-174l-3 223q-68 -109 -201 -180t-307 -71z" />
<glyph unicode="H" horiz-adv-x="1511" d="M179 0v1470h212v-634h729v634h212v-1470h-212v644h-729v-644h-212z" />
<glyph unicode="I" horiz-adv-x="570" d="M179 0v1470h212v-1470h-212z" />
<glyph unicode="J" horiz-adv-x="1093" d="M477 -28q-195 0 -321 114.5t-126 321.5h220q0 -129 63 -193t165 -64q104 0 169.5 64.5t65.5 192.5v1062h212v-1062q0 -207 -126.5 -321.5t-321.5 -114.5z" />
<glyph unicode="K" horiz-adv-x="1369" d="M179 0v1470h212v-647l662 647h274l-739 -721l755 -749h-292l-660 650v-650h-212z" />
<glyph unicode="L" horiz-adv-x="1137" d="M179 0v1470h212v-1285h689v-185h-901z" />
<glyph unicode="M" horiz-adv-x="1825" d="M179 0v1470h336l397 -1252h2l396 1252h336v-1470h-204v584l2 681h-2l-409 -1265h-240l-410 1265h-2l2 -681v-584h-204z" />
<glyph unicode="N" horiz-adv-x="1511" d="M179 0v1470h278l670 -1201h2l-2 314v887h205v-1470h-280l-668 1201h-2l2 -314v-887h-205z" />
<glyph unicode="O" horiz-adv-x="1655" d="M827 -28q-219 0 -388.5 98t-261 271.5t-91.5 393.5v2q0 220 91.5 393t261 270.5t388.5 97.5q165 0 304 -57t235 -157.5t149.5 -241t53.5 -305.5v-2q0 -165 -53.5 -306t-149.5 -242t-235 -158t-304 -57zM827 157q237 0 377 160.5t140 417.5v2q0 257 -139.5 416.5 t-377.5 159.5t-377 -159.5t-139 -416.5v-2q0 -257 139.5 -417.5t376.5 -160.5z" />
<glyph unicode="P" horiz-adv-x="1295" d="M179 0v1470h513q270 0 406.5 -118t136.5 -326v-2q0 -207 -136.5 -325t-406.5 -118h-301v-581h-212zM391 765h294q325 0 325 259v2q0 261 -325 261h-294v-522z" />
<glyph unicode="Q" horiz-adv-x="1654" d="M827 -28q-219 0 -388.5 98t-261 271.5t-91.5 393.5v2q0 220 91.5 393t261 270.5t388.5 97.5q165 0 304 -57t235 -157.5t149.5 -241t53.5 -305.5v-2q0 -198 -75.5 -359t-212.5 -263l381 -334h-274l-275 243q-130 -50 -286 -50zM827 157q237 0 377 160.5t140 417.5v2 q0 257 -139.5 416.5t-377.5 159.5t-377 -159.5t-139 -416.5v-2q0 -257 139.5 -417.5t376.5 -160.5z" />
<glyph unicode="R" horiz-adv-x="1372" d="M179 0v1470h503q271 0 407 -115t136 -321v-2q0 -163 -89.5 -271t-263.5 -146l432 -615h-250l-416 596h-247v-596h-212zM391 780h288q163 0 242.5 62.5t79.5 189.5v2q0 253 -322 253h-288v-507z" />
<glyph unicode="S" horiz-adv-x="1335" d="M683 -28q-261 0 -409.5 129t-179.5 341h222q29 -144 119.5 -220t255.5 -76q150 0 241 58.5t91 170.5v2q0 48 -16 86t-40 63t-66.5 45.5t-81.5 33t-99 27.5l-192 47q-192 47 -297.5 147t-105.5 273v3q0 178 147.5 287t378.5 109t368.5 -109.5t167.5 -310.5h-221 q-32 129 -111.5 187.5t-214.5 58.5q-130 0 -213.5 -57t-83.5 -158v-2q0 -92 58.5 -148t175.5 -85l193 -48q83 -21 144.5 -41.5t126.5 -55.5t106 -77.5t67.5 -106t26.5 -141.5v-3q0 -205 -154.5 -317t-403.5 -112z" />
<glyph unicode="T" horiz-adv-x="1285" d="M536 0v1285h-493v185h1199v-185h-494v-1285h-212z" />
<glyph unicode="U" horiz-adv-x="1488" d="M743 -28q-574 0 -574 585v913h212v-912q0 -215 94.5 -308t267.5 -93q174 0 269 93t95 308v912h212v-913q0 -585 -576 -585z" />
<glyph unicode="V" horiz-adv-x="1531" d="M646 0l-599 1470h228l497 -1240l498 1240h214l-598 -1470h-240z" />
<glyph unicode="W" horiz-adv-x="2031" d="M447 0l-390 1470h219l319 -1226l286 1226h269l290 -1225l315 1225h219l-385 -1470h-270l-303 1261l-299 -1261h-270z" />
<glyph unicode="X" horiz-adv-x="1492" d="M74 0l553 744l-521 726h258l389 -553l392 553h238l-518 -713l554 -757h-259l-421 583l-427 -583h-238z" />
<glyph unicode="Y" horiz-adv-x="1426" d="M607 0v589l-560 881h241l426 -697h2l422 697h241l-559 -881v-589h-213z" />
<glyph unicode="Z" horiz-adv-x="1278" d="M97 0v179l808 1106h-772v185h1032v-179l-810 -1106h825v-185h-1083z" />
<glyph unicode="[" horiz-adv-x="689" d="M100 -308v1842h489v-160h-304v-1522h304v-160h-489z" />
<glyph unicode="\" horiz-adv-x="1054" d="M323 1470l611 -1676h-203l-611 1676h203z" />
<glyph unicode="]" horiz-adv-x="689" d="M589 1534v-1842h-489v160h304v1522h-304v160h489z" />
<glyph unicode="_" horiz-adv-x="1058" d="M50 -288v180h958v-180h-958z" />
<glyph unicode="`" horiz-adv-x="639" d="M367 1212l-316 258h272l266 -258h-222z" />
<glyph unicode="a" horiz-adv-x="1140" d="M456 -28q-160 0 -267 82t-107 220v2q0 65 23 116.5t69 89.5t106.5 65.5t145 46.5t173.5 30.5t202 18.5v18q0 128 -60 192t-168 64q-109 0 -167.5 -51.5t-63.5 -146.5h-207q13 160 131.5 256.5t310.5 96.5q431 0 428 -439l-2 -287q-1 -224 31 -346h-194q-13 52 -16 148 q-117 -176 -368 -176zM806 494q-134 -9 -222.5 -22.5t-156 -37.5t-98.5 -61t-31 -90v-2q0 -74 57 -115.5t152 -41.5q132 0 215.5 76.5t83.5 227.5v66z" />
<glyph unicode="b" horiz-adv-x="1281" d="M715 -28q-121 0 -213.5 47.5t-139.5 128.5v-148h-204v1470h204v-576q47 81 139.5 128.5t213.5 47.5q91 0 174 -37.5t148 -106t103.5 -173.5t38.5 -231v-2q0 -126 -38.5 -231t-103.5 -173.5t-148 -106t-174 -37.5zM659 139q132 0 218 102t86 279v2q0 177 -86 279t-218 102 q-131 0 -217.5 -102t-86.5 -279v-2q0 -177 86.5 -279t217.5 -102z" />
<glyph unicode="c" horiz-adv-x="1207" d="M619 -28q-234 0 -375.5 153t-141.5 396v2q0 243 141.5 395.5t375.5 152.5q198 0 328 -100.5t165 -268.5h-208q-26 96 -100.5 150t-182.5 54q-134 0 -218.5 -103t-84.5 -280v-2q0 -177 84.5 -280t218.5 -103q108 0 182.5 54t100.5 150h208q-35 -168 -165 -269t-328 -101z " />
<glyph unicode="d" horiz-adv-x="1281" d="M566 -28q-91 0 -174 37.5t-148 106t-103.5 173.5t-38.5 231v2q0 126 38.5 231t103.5 173.5t148 106t174 37.5q121 0 213.5 -47.5t139.5 -128.5v576h204v-1470h-204v148q-47 -81 -139.5 -128.5t-213.5 -47.5zM622 139q131 0 217.5 102t86.5 279v2q0 177 -86.5 279 t-217.5 102q-132 0 -218 -102t-86 -279v-2q0 -177 86 -279t218 -102z" />
<glyph unicode="e" horiz-adv-x="1242" d="M631 -28q-163 0 -284.5 73t-183 197.5t-61.5 282.5v2q0 242 148 393t375 151q163 0 283 -78.5t179 -216t52 -313.5v-1h-820q14 -148 98.5 -236.5t219.5 -88.5q216 0 280 161h207q-44 -149 -170.5 -237.5t-322.5 -88.5zM322 627h601v1q-8 125 -88.5 204.5t-210.5 79.5 q-124 0 -203.5 -72t-98.5 -213z" />
<glyph unicode="f" horiz-adv-x="719" d="M214 0v868h-158v174h158v84q0 169 101 256.5t284 87.5h61v-170h-43q-101 0 -150 -43.5t-49 -134.5v-80h242v-174h-242v-868h-204z" />
<glyph unicode="g" horiz-adv-x="1283" d="M568 28q-91 0 -174.5 35.5t-148.5 100t-104 164.5t-39 220v2q0 120 39 219.5t104 164.5t148.5 100.5t174.5 35.5q120 0 213 -45t140 -122v139h204v-943q0 -136 -39.5 -236.5t-110 -158t-158.5 -84.5t-195 -27q-198 0 -328.5 96t-157.5 264h205q18 -90 93 -146t194 -56 q62 0 112.5 16.5t92.5 53t65 101t23 152.5v120q-47 -76 -140 -121t-213 -45zM622 194q133 0 219 94t86 260v2q0 166 -86 259.5t-219 93.5q-132 0 -218 -93.5t-86 -259.5v-2q0 -166 86 -260t218 -94z" />
<glyph unicode="h" d="M158 0v1470h204v-553q56 74 131.5 113.5t185.5 39.5q187 0 283.5 -118t96.5 -330v-622h-204v579q0 156 -62 238.5t-185 82.5t-184.5 -82t-61.5 -239v-579h-204z" />
<glyph unicode="i" horiz-adv-x="520" d="M158 1240v230h204v-230h-204zM158 0v1042h204v-1042h-204z" />
<glyph unicode="j" horiz-adv-x="520" d="M158 1240v230h204v-230h-204zM-28 -385v173h32q92 0 123 32.5t31 131.5v1090h204v-1097q0 -176 -81 -253t-261 -77h-48z" />
<glyph unicode="k" horiz-adv-x="1166" d="M158 0v1470h204v-863l494 435h255l-555 -497l590 -545h-283l-501 453v-453h-204z" />
<glyph unicode="l" horiz-adv-x="520" d="M158 0v1470h204v-1470h-204z" />
<glyph unicode="m" horiz-adv-x="1894" d="M158 0v1042h204v-125q56 74 131.5 113.5t185.5 39.5q240 0 330 -192q133 192 367 192q187 0 283.5 -117.5t96.5 -330.5v-622h-204v579q0 157 -61.5 239t-185.5 82q-123 0 -184.5 -82t-61.5 -239v-579h-204v579q0 156 -62 238.5t-185 82.5t-184.5 -82t-61.5 -239v-579 h-204z" />
<glyph unicode="n" d="M158 0v1042h204v-125q56 74 131.5 113.5t185.5 39.5q187 0 283.5 -118t96.5 -330v-622h-204v579q0 156 -62 238.5t-185 82.5t-184.5 -82t-61.5 -239v-579h-204z" />
<glyph unicode="o" horiz-adv-x="1258" d="M629 -28q-160 0 -280.5 71.5t-183.5 195.5t-63 282v2q0 158 63 282t183.5 195t280.5 71t280.5 -71t183.5 -195t63 -282v-2q0 -158 -63 -282t-183.5 -195.5t-280.5 -71.5zM629 138q150 0 230.5 105t80.5 278v2q0 173 -80.5 278t-230.5 105t-230.5 -105t-80.5 -278v-2 q0 -173 80.5 -278t230.5 -105z" />
<glyph unicode="p" horiz-adv-x="1281" d="M715 -28q-121 0 -213.5 47.5t-139.5 128.5v-533h-204v1427h204v-148q47 81 139.5 128.5t213.5 47.5q91 0 174 -37.5t148 -106t103.5 -173.5t38.5 -231v-2q0 -126 -38.5 -231t-103.5 -173.5t-148 -106t-174 -37.5zM659 139q132 0 218 102t86 279v2q0 177 -86 279t-218 102 q-131 0 -217.5 -102t-86.5 -279v-2q0 -177 86.5 -279t217.5 -102z" />
<glyph unicode="q" horiz-adv-x="1281" d="M566 -28q-91 0 -174 37.5t-148 106t-103.5 173.5t-38.5 231v2q0 126 38.5 231t103.5 173.5t148 106t174 37.5q121 0 213.5 -47.5t139.5 -128.5v148h204v-1427h-204v533q-47 -81 -139.5 -128.5t-213.5 -47.5zM622 139q131 0 217.5 102t86.5 279v2q0 177 -86.5 279 t-217.5 102q-132 0 -218 -102t-86 -279v-2q0 -177 86 -279t218 -102z" />
<glyph unicode="r" horiz-adv-x="764" d="M158 0v1042h202v-185q46 92 132.5 144t205.5 52h19v-199h-55q-147 0 -223.5 -73.5t-76.5 -236.5v-544h-204z" />
<glyph unicode="s" horiz-adv-x="1081" d="M555 -28q-199 0 -319 96.5t-142 249.5h204q20 -93 85.5 -143t177.5 -50q101 0 161.5 36.5t60.5 106.5v2q0 71 -53 104t-162 57l-153 33q-137 30 -219.5 104.5t-82.5 199.5v2q0 132 117.5 216.5t295.5 84.5q175 0 288.5 -80.5t140.5 -226.5h-204q-44 155 -232 155 q-88 0 -145.5 -38t-57.5 -101v-2q0 -58 40.5 -91.5t120.5 -50.5l152 -33q64 -14 112.5 -29t97 -40t79.5 -56.5t50 -77.5t19 -104v-2q0 -150 -121 -236t-311 -86z" />
<glyph unicode="t" horiz-adv-x="776" d="M560 0q-183 0 -263.5 73.5t-80.5 251.5v543h-160v174h160v270h204v-270h243v-174h-243v-522q0 -102 42 -137t139 -35h54v-174h-95z" />
<glyph unicode="u" d="M518 -28q-187 0 -283.5 118t-96.5 330v622h204v-579q0 -156 62 -238.5t185 -82.5t184.5 82t61.5 239v579h204v-1042h-204v125q-56 -74 -131.5 -113.5t-185.5 -39.5z" />
<glyph unicode="v" horiz-adv-x="1149" d="M460 0l-416 1042h222l315 -836l323 836h201l-415 -1042h-230z" />
<glyph unicode="w" horiz-adv-x="1744" d="M383 0l-320 1042h211l241 -824l248 824h218l259 -825l246 825h195l-321 -1042h-229l-266 824l-251 -824h-231z" />
<glyph unicode="x" horiz-adv-x="1160" d="M59 0l409 530l-389 512h231l273 -364l277 364h219l-391 -502l412 -540h-231l-296 394l-303 -394h-211z" />
<glyph unicode="y" horiz-adv-x="1183" d="M309 -385l170 390l-435 1037h220l325 -802h2l339 802h209l-623 -1427h-207z" />
<glyph unicode="z" horiz-adv-x="1044" d="M88 0v166l613 702h-580v174h820v-165l-616 -703h630v-174h-867z" />
<glyph unicode="{" horiz-adv-x="682" d="M74 566v94q45 15 71.5 29.5t47.5 39t29.5 62t8.5 93.5v331q0 167 72 243.5t225 75.5h54v-160h-14q-89 0 -120.5 -34.5t-31.5 -132.5v-295q0 -130 -36 -195.5t-134 -102.5v-2q98 -37 134 -102.5t36 -195.5v-295q0 -100 30.5 -133.5t121.5 -33.5h14v-160h-54 q-153 -1 -225 75.5t-72 243.5v331q0 56 -8.5 93.5t-29.5 62t-47.5 39t-71.5 29.5z" />
<glyph unicode="|" horiz-adv-x="425" d="M120 -206v1852h185v-1852h-185z" />
<glyph unicode="}" horiz-adv-x="682" d="M608 660v-94q-45 -15 -71.5 -29.5t-47.5 -39t-29.5 -62t-8.5 -93.5v-331q0 -167 -72 -243.5t-225 -75.5h-54v160h14q91 0 121.5 33.5t30.5 133.5v295q0 130 36 195.5t134 102.5v2q-98 37 -134 102.5t-36 195.5v295q0 98 -31.5 132.5t-120.5 34.5h-14v160h54 q153 1 225 -75.5t72 -243.5v-331q0 -56 8.5 -93.5t29.5 -62t47.5 -39t71.5 -29.5z" />
<glyph unicode="&#xa2;" horiz-adv-x="1215" d="M525 219v187q-195 31 -309 178t-114 364v2q0 216 114 363t309 177v188h201v-189q155 -25 255 -120.5t131 -239.5h-208q-26 96 -100.5 150t-182.5 54q-134 0 -218.5 -103t-84.5 -280v-2q0 -177 84.5 -280t218.5 -103q108 0 182.5 54t100.5 150h208q-31 -144 -131 -240 t-255 -122v-188h-201z" />
<glyph unicode="&#xa3;" horiz-adv-x="1274" d="M99 628v173h193q-37 86 -57 153.5t-20 139.5v2q0 185 130 293.5t339 108.5q78 0 145 -13.5t126 -44t103.5 -76.5t75.5 -113.5t42 -153.5h-217q-35 222 -279 222q-113 0 -177.5 -58t-64.5 -168v-2q0 -109 66 -267l10 -23h371v-173h-304q23 -76 23 -145v-4 q0 -90 -38 -169.5t-103 -124.5h701v-185h-1025v175q120 24 181 105t61 202v3q0 74 -21 143h-261z" />
<glyph unicode="&#xa8;" horiz-adv-x="773" d="M251 1255h-197v215h197v-215zM718 1255h-196v215h196v-215z" />
<glyph unicode="&#xab;" horiz-adv-x="1108" d="M331 192l-236 373l236 372h215l-229 -372l229 -373h-215zM759 192l-236 373l236 372h215l-229 -372l229 -373h-215z" />
<glyph unicode="&#xad;" horiz-adv-x="798" d="M100 431v181h598v-181h-598z" />
<glyph unicode="&#xb4;" horiz-adv-x="638" d="M588 1470l-316 -258h-222l266 258h272z" />
<glyph unicode="&#xb8;" horiz-adv-x="431" d="M381 -96l-122 -242h-208l151 242h179z" />
<glyph unicode="&#xbb;" horiz-adv-x="1108" d="M1014 565l-236 -373h-215l229 373l-229 372h215zM586 565l-236 -373h-215l229 373l-229 372h215z" />
<glyph unicode="&#xc2;" horiz-adv-x="1470" d="M368 1630l274 268h185l275 -268h-205l-162 153l-162 -153h-205zM30 0l585 1470h240l585 -1470h-223l-162 417h-654l-160 -417h-211zM472 601h511l-255 657h-3z" />
<glyph unicode="&#xce;" horiz-adv-x="570" d="M-81 1630l274 268h185l275 -268h-205l-162 153l-162 -153h-205zM179 0v1470h212v-1470h-212z" />
<glyph unicode="&#xe2;" horiz-adv-x="1140" d="M231 1212l234 258h185l235 -258h-196l-131 153l-131 -153h-196zM456 -28q-160 0 -267 82t-107 220v2q0 65 23 116.5t69 89.5t106.5 65.5t145 46.5t173.5 30.5t202 18.5v18q0 128 -60 192t-168 64q-109 0 -167.5 -51.5t-63.5 -146.5h-207q13 160 131.5 256.5t310.5 96.5 q431 0 428 -439l-2 -287q-1 -224 31 -346h-194q-13 52 -16 148q-117 -176 -368 -176zM806 494q-134 -9 -222.5 -22.5t-156 -37.5t-98.5 -61t-31 -90v-2q0 -74 57 -115.5t152 -41.5q132 0 215.5 76.5t83.5 227.5v66z" />
<glyph unicode="&#xee;" horiz-adv-x="520" d="M-66 1212l234 258h185l235 -258h-196l-131 153l-131 -153h-196zM158 0v1042h204v-1042h-204z" />
<glyph unicode="&#x100;" horiz-adv-x="1470" d="M435 1758v140h600v-140h-600zM30 0l585 1470h240l585 -1470h-223l-162 417h-654l-160 -417h-211zM472 601h511l-255 657h-3z" />
<glyph unicode="&#x101;" horiz-adv-x="1140" d="M258 1330v140h600v-140h-600zM456 -28q-160 0 -267 82t-107 220v2q0 65 23 116.5t69 89.5t106.5 65.5t145 46.5t173.5 30.5t202 18.5v18q0 128 -60 192t-168 64q-109 0 -167.5 -51.5t-63.5 -146.5h-207q13 160 131.5 256.5t310.5 96.5q431 0 428 -439l-2 -287 q-1 -224 31 -346h-194q-13 52 -16 148q-117 -176 -368 -176zM806 494q-134 -9 -222.5 -22.5t-156 -37.5t-98.5 -61t-31 -90v-2q0 -74 57 -115.5t152 -41.5q132 0 215.5 76.5t83.5 227.5v66z" />
<glyph unicode="&#x102;" horiz-adv-x="1470" d="M435 1898h155q28 -108 145 -108t145 108h155q-19 -115 -97 -176.5t-203 -61.5t-203 61.5t-97 176.5zM30 0l585 1470h240l585 -1470h-223l-162 417h-654l-160 -417h-211zM472 601h511l-255 657h-3z" />
<glyph unicode="&#x103;" horiz-adv-x="1140" d="M258 1470h155q28 -108 145 -108t145 108h155q-19 -115 -97 -176.5t-203 -61.5t-203 61.5t-97 176.5zM456 -28q-160 0 -267 82t-107 220v2q0 65 23 116.5t69 89.5t106.5 65.5t145 46.5t173.5 30.5t202 18.5v18q0 128 -60 192t-168 64q-109 0 -167.5 -51.5t-63.5 -146.5 h-207q13 160 131.5 256.5t310.5 96.5q431 0 428 -439l-2 -287q-1 -224 31 -346h-194q-13 52 -16 148q-117 -176 -368 -176zM806 494q-134 -9 -222.5 -22.5t-156 -37.5t-98.5 -61t-31 -90v-2q0 -74 57 -115.5t152 -41.5q132 0 215.5 76.5t83.5 227.5v66z" />
<glyph unicode="&#x104;" horiz-adv-x="1470" d="M30 0l585 1470h240l585 -1470q-41 -24 -64 -62t-23 -77q0 -36 22 -56.5t59 -20.5q30 0 65 13l77 -137q-77 -48 -183 -48t-168 54.5t-62 147.5q0 92 83 186h-29l-162 417h-654l-160 -417h-211zM472 601h511l-255 657h-3z" />
<glyph unicode="&#x105;" horiz-adv-x="1140" d="M456 -28q-160 0 -267 82t-107 220v2q0 65 23 116.5t69 89.5t106.5 65.5t145 46.5t173.5 30.5t202 18.5v18q0 128 -60 192t-168 64q-109 0 -167.5 -51.5t-63.5 -146.5h-207q13 160 131.5 256.5t310.5 96.5q431 0 428 -439l-2 -287q-1 -224 31 -346q-41 -24 -64 -62 t-23 -77q0 -36 22 -56.5t59 -20.5q30 0 65 13l77 -137q-77 -48 -183 -48t-168 54.5t-62 147.5q0 92 83 186q-13 52 -16 148q-117 -176 -368 -176zM806 494q-134 -9 -222.5 -22.5t-156 -37.5t-98.5 -61t-31 -90v-2q0 -74 57 -115.5t152 -41.5q132 0 215.5 76.5t83.5 227.5v66 z" />
<glyph unicode="&#x106;" horiz-adv-x="1575" d="M934 1670h-225l228 228h280zM821 -28q-219 0 -387 98t-258 271t-90 393v2q0 220 90 393t258 271t387 98q260 0 436 -129t233 -359h-222q-45 148 -166.5 225.5t-281.5 77.5q-236 0 -372.5 -159.5t-136.5 -417.5v-2q0 -258 136.5 -417.5t372.5 -159.5q160 0 281.5 77.5 t166.5 225.5h222q-57 -230 -233 -359t-436 -129z" />
<glyph unicode="&#x107;" horiz-adv-x="1207" d="M1027 1470l-316 -258h-222l266 258h272zM619 -28q-234 0 -375.5 153t-141.5 396v2q0 243 141.5 395.5t375.5 152.5q198 0 328 -100.5t165 -268.5h-208q-26 96 -100.5 150t-182.5 54q-134 0 -218.5 -103t-84.5 -280v-2q0 -177 84.5 -280t218.5 -103q108 0 182.5 54 t100.5 150h208q-35 -168 -165 -269t-328 -101z" />
<glyph unicode="&#x108;" horiz-adv-x="1575" d="M422 1630l274 268h185l275 -268h-205l-162 153l-162 -153h-205zM821 -28q-219 0 -387 98t-258 271t-90 393v2q0 220 90 393t258 271t387 98q260 0 436 -129t233 -359h-222q-45 148 -166.5 225.5t-281.5 77.5q-236 0 -372.5 -159.5t-136.5 -417.5v-2q0 -258 136.5 -417.5 t372.5 -159.5q160 0 281.5 77.5t166.5 225.5h222q-57 -230 -233 -359t-436 -129z" />
<glyph unicode="&#x109;" horiz-adv-x="1207" d="M277 1212l234 258h185l235 -258h-196l-131 153l-131 -153h-196zM619 -28q-234 0 -375.5 153t-141.5 396v2q0 243 141.5 395.5t375.5 152.5q198 0 328 -100.5t165 -268.5h-208q-26 96 -100.5 150t-182.5 54q-134 0 -218.5 -103t-84.5 -280v-2q0 -177 84.5 -280t218.5 -103 q108 0 182.5 54t100.5 150h208q-35 -168 -165 -269t-328 -101z" />
<glyph unicode="&#x10a;" horiz-adv-x="1575" d="M893 1693h-207v205h207v-205zM821 -28q-219 0 -387 98t-258 271t-90 393v2q0 220 90 393t258 271t387 98q260 0 436 -129t233 -359h-222q-45 148 -166.5 225.5t-281.5 77.5q-236 0 -372.5 -159.5t-136.5 -417.5v-2q0 -258 136.5 -417.5t372.5 -159.5q160 0 281.5 77.5 t166.5 225.5h222q-57 -230 -233 -359t-436 -129z" />
<glyph unicode="&#x10b;" horiz-adv-x="1207" d="M703 1255h-197v215h197v-215zM619 -28q-234 0 -375.5 153t-141.5 396v2q0 243 141.5 395.5t375.5 152.5q198 0 328 -100.5t165 -268.5h-208q-26 96 -100.5 150t-182.5 54q-134 0 -218.5 -103t-84.5 -280v-2q0 -177 84.5 -280t218.5 -103q108 0 182.5 54t100.5 150h208 q-35 -168 -165 -269t-328 -101z" />
<glyph unicode="&#x10c;" horiz-adv-x="1575" d="M422 1898h205l162 -153l162 153h205l-275 -268h-185zM821 -28q-219 0 -387 98t-258 271t-90 393v2q0 220 90 393t258 271t387 98q260 0 436 -129t233 -359h-222q-45 148 -166.5 225.5t-281.5 77.5q-236 0 -372.5 -159.5t-136.5 -417.5v-2q0 -258 136.5 -417.5 t372.5 -159.5q160 0 281.5 77.5t166.5 225.5h222q-57 -230 -233 -359t-436 -129z" />
<glyph unicode="&#x10d;" horiz-adv-x="1207" d="M511 1212l-234 258h196l131 -153l131 153h196l-235 -258h-185zM619 -28q-234 0 -375.5 153t-141.5 396v2q0 243 141.5 395.5t375.5 152.5q198 0 328 -100.5t165 -268.5h-208q-26 96 -100.5 150t-182.5 54q-134 0 -218.5 -103t-84.5 -280v-2q0 -177 84.5 -280t218.5 -103 q108 0 182.5 54t100.5 150h208q-35 -168 -165 -269t-328 -101z" />
<glyph unicode="&#x10e;" horiz-adv-x="1504" d="M179 1898h205l162 -153l162 153h205l-275 -268h-185zM179 0v1470h469q349 0 559.5 -198.5t210.5 -538.5v-2q0 -223 -96 -389t-270 -254t-404 -88h-469zM391 183h254q263 0 406 145.5t143 402.5v2q0 258 -143 406t-406 148h-254v-1104z" />
<glyph unicode="&#x10f;" horiz-adv-x="1446" d="M566 -28q-91 0 -174 37.5t-148 106t-103.5 173.5t-38.5 231v2q0 126 38.5 231t103.5 173.5t148 106t174 37.5q121 0 213.5 -47.5t139.5 -128.5v576h204v-1470h-204v148q-47 -81 -139.5 -128.5t-213.5 -47.5zM1273 1470h170v-328h-170v328zM622 139q131 0 217.5 102 t86.5 279v2q0 177 -86.5 279t-217.5 102q-132 0 -218 -102t-86 -279v-2q0 -177 86 -279t218 -102z" />
<glyph unicode="&#x110;" horiz-adv-x="1504" d="M179 0v655h-200v160h200v655h469q349 0 559.5 -198.5t210.5 -538.5v-2q0 -223 -96 -389t-270 -254t-404 -88h-469zM391 183h254q263 0 406 145.5t143 402.5v2q0 258 -143 406t-406 148h-254v-472h400v-160h-400v-472z" />
<glyph unicode="&#x111;" horiz-adv-x="1281" d="M566 -28q-91 0 -174 37.5t-148 106t-103.5 173.5t-38.5 231v2q0 126 38.5 231t103.5 173.5t148 106t174 37.5q121 0 213.5 -47.5t139.5 -128.5v315h-351v120h351v141h204v-141h120v-120h-120v-1209h-204v148q-47 -81 -139.5 -128.5t-213.5 -47.5zM622 139 q131 0 217.5 102t86.5 279v2q0 177 -86.5 279t-217.5 102q-132 0 -218 -102t-86 -279v-2q0 -177 86 -279t218 -102z" />
<glyph unicode="&#x112;" horiz-adv-x="1264" d="M355 1758v140h600v-140h-600zM179 0v1470h949v-185h-737v-448h661v-185h-661v-467h739v-185h-951z" />
<glyph unicode="&#x113;" horiz-adv-x="1242" d="M317 1330v140h600v-140h-600zM631 -28q-163 0 -284.5 73t-183 197.5t-61.5 282.5v2q0 242 148 393t375 151q163 0 283 -78.5t179 -216t52 -313.5v-1h-820q14 -148 98.5 -236.5t219.5 -88.5q216 0 280 161h207q-44 -149 -170.5 -237.5t-322.5 -88.5zM322 627h601v1 q-8 125 -88.5 204.5t-210.5 79.5q-124 0 -203.5 -72t-98.5 -213z" />
<glyph unicode="&#x114;" horiz-adv-x="1264" d="M355 1898h155q28 -108 145 -108t145 108h155q-19 -115 -97 -176.5t-203 -61.5t-203 61.5t-97 176.5zM179 0v1470h949v-185h-737v-448h661v-185h-661v-467h739v-185h-951z" />
<glyph unicode="&#x115;" horiz-adv-x="1242" d="M317 1470h155q28 -108 145 -108t145 108h155q-19 -115 -97 -176.5t-203 -61.5t-203 61.5t-97 176.5zM631 -28q-163 0 -284.5 73t-183 197.5t-61.5 282.5v2q0 242 148 393t375 151q163 0 283 -78.5t179 -216t52 -313.5v-1h-820q14 -148 98.5 -236.5t219.5 -88.5 q216 0 280 161h207q-44 -149 -170.5 -237.5t-322.5 -88.5zM322 627h601v1q-8 125 -88.5 204.5t-210.5 79.5q-124 0 -203.5 -72t-98.5 -213z" />
<glyph unicode="&#x116;" horiz-adv-x="1264" d="M759 1693h-207v205h207v-205zM179 0v1470h949v-185h-737v-448h661v-185h-661v-467h739v-185h-951z" />
<glyph unicode="&#x117;" horiz-adv-x="1242" d="M716 1255h-197v215h197v-215zM631 -28q-163 0 -284.5 73t-183 197.5t-61.5 282.5v2q0 242 148 393t375 151q163 0 283 -78.5t179 -216t52 -313.5v-1h-820q14 -148 98.5 -236.5t219.5 -88.5q216 0 280 161h207q-44 -149 -170.5 -237.5t-322.5 -88.5zM322 627h601v1 q-8 125 -88.5 204.5t-210.5 79.5q-124 0 -203.5 -72t-98.5 -213z" />
<glyph unicode="&#x118;" horiz-adv-x="1264" d="M179 0v1470h949v-185h-737v-448h661v-185h-661v-467h739v-185h-203q-41 -24 -64 -62t-23 -77q0 -36 22 -56.5t59 -20.5q30 0 65 13l77 -137q-77 -48 -183 -48t-168 54.5t-62 147.5q0 92 83 186h-554z" />
<glyph unicode="&#x119;" horiz-adv-x="1242" d="M887 -203l77 -137q-77 -48 -183 -48t-168 54.5t-62 147.5q0 79 60 158q-236 7 -372.5 161.5t-136.5 391.5v2q0 242 148 393t375 151q163 0 283 -78.5t179 -216t52 -313.5v-1h-820q14 -148 98.5 -236.5t219.5 -88.5q216 0 280 161h207q-32 -107 -107.5 -184.5 t-189.5 -113.5h1q-41 -24 -64 -62t-23 -77q0 -36 22 -56.5t59 -20.5q30 0 65 13zM322 627h601v1q-8 125 -88.5 204.5t-210.5 79.5q-124 0 -203.5 -72t-98.5 -213z" />
<glyph unicode="&#x11a;" horiz-adv-x="1264" d="M288 1898h205l162 -153l162 153h205l-275 -268h-185zM179 0v1470h949v-185h-737v-448h661v-185h-661v-467h739v-185h-951z" />
<glyph unicode="&#x11b;" horiz-adv-x="1242" d="M524 1212l-234 258h196l131 -153l131 153h196l-235 -258h-185zM631 -28q-163 0 -284.5 73t-183 197.5t-61.5 282.5v2q0 242 148 393t375 151q163 0 283 -78.5t179 -216t52 -313.5v-1h-820q14 -148 98.5 -236.5t219.5 -88.5q216 0 280 161h207q-44 -149 -170.5 -237.5 t-322.5 -88.5zM322 627h601v1q-8 125 -88.5 204.5t-210.5 79.5q-124 0 -203.5 -72t-98.5 -213z" />
<glyph unicode="&#x11c;" horiz-adv-x="1680" d="M427 1630l274 268h185l275 -268h-205l-162 153l-162 -153h-205zM816 -28q-216 0 -383 97.5t-257 270.5t-90 394v2q0 220 90 393t258 271t387 98q258 0 435 -123.5t234 -340.5h-222q-44 135 -165 207t-280 72q-158 0 -275 -74t-177 -204t-60 -299v-2q0 -259 137 -419 t375 -160q132 0 239 49.5t172 148t65 230.5v11h-511v178h713v-772h-174l-3 223q-68 -109 -201 -180t-307 -71z" />
<glyph unicode="&#x11d;" horiz-adv-x="1283" d="M287 1212l234 258h185l235 -258h-196l-131 153l-131 -153h-196zM568 28q-91 0 -174.5 35.5t-148.5 100t-104 164.5t-39 220v2q0 120 39 219.5t104 164.5t148.5 100.5t174.5 35.5q120 0 213 -45t140 -122v139h204v-943q0 -136 -39.5 -236.5t-110 -158t-158.5 -84.5 t-195 -27q-198 0 -328.5 96t-157.5 264h205q18 -90 93 -146t194 -56q62 0 112.5 16.5t92.5 53t65 101t23 152.5v120q-47 -76 -140 -121t-213 -45zM622 194q133 0 219 94t86 260v2q0 166 -86 259.5t-219 93.5q-132 0 -218 -93.5t-86 -259.5v-2q0 -166 86 -260t218 -94z" />
<glyph unicode="&#x11e;" horiz-adv-x="1680" d="M494 1898h155q28 -108 145 -108t145 108h155q-19 -115 -97 -176.5t-203 -61.5t-203 61.5t-97 176.5zM816 -28q-216 0 -383 97.5t-257 270.5t-90 394v2q0 220 90 393t258 271t387 98q258 0 435 -123.5t234 -340.5h-222q-44 135 -165 207t-280 72q-158 0 -275 -74 t-177 -204t-60 -299v-2q0 -259 137 -419t375 -160q132 0 239 49.5t172 148t65 230.5v11h-511v178h713v-772h-174l-3 223q-68 -109 -201 -180t-307 -71z" />
<glyph unicode="&#x11f;" horiz-adv-x="1283" d="M314 1470h155q28 -108 145 -108t145 108h155q-19 -115 -97 -176.5t-203 -61.5t-203 61.5t-97 176.5zM568 28q-91 0 -174.5 35.5t-148.5 100t-104 164.5t-39 220v2q0 120 39 219.5t104 164.5t148.5 100.5t174.5 35.5q120 0 213 -45t140 -122v139h204v-943 q0 -136 -39.5 -236.5t-110 -158t-158.5 -84.5t-195 -27q-198 0 -328.5 96t-157.5 264h205q18 -90 93 -146t194 -56q62 0 112.5 16.5t92.5 53t65 101t23 152.5v120q-47 -76 -140 -121t-213 -45zM622 194q133 0 219 94t86 260v2q0 166 -86 259.5t-219 93.5q-132 0 -218 -93.5 t-86 -259.5v-2q0 -166 86 -260t218 -94z" />
<glyph unicode="&#x120;" horiz-adv-x="1680" d="M898 1693h-207v205h207v-205zM816 -28q-216 0 -383 97.5t-257 270.5t-90 394v2q0 220 90 393t258 271t387 98q258 0 435 -123.5t234 -340.5h-222q-44 135 -165 207t-280 72q-158 0 -275 -74t-177 -204t-60 -299v-2q0 -259 137 -419t375 -160q132 0 239 49.5t172 148 t65 230.5v11h-511v178h713v-772h-174l-3 223q-68 -109 -201 -180t-307 -71z" />
<glyph unicode="&#x121;" horiz-adv-x="1283" d="M713 1255h-197v215h197v-215zM568 28q-91 0 -174.5 35.5t-148.5 100t-104 164.5t-39 220v2q0 120 39 219.5t104 164.5t148.5 100.5t174.5 35.5q120 0 213 -45t140 -122v139h204v-943q0 -136 -39.5 -236.5t-110 -158t-158.5 -84.5t-195 -27q-198 0 -328.5 96t-157.5 264 h205q18 -90 93 -146t194 -56q62 0 112.5 16.5t92.5 53t65 101t23 152.5v120q-47 -76 -140 -121t-213 -45zM622 194q133 0 219 94t86 260v2q0 166 -86 259.5t-219 93.5q-132 0 -218 -93.5t-86 -259.5v-2q0 -166 86 -260t218 -94z" />
<glyph unicode="&#x122;" horiz-adv-x="1680" d="M816 -28q-216 0 -383 97.5t-257 270.5t-90 394v2q0 220 90 393t258 271t387 98q258 0 435 -123.5t234 -340.5h-222q-44 135 -165 207t-280 72q-158 0 -275 -74t-177 -204t-60 -299v-2q0 -259 137 -419t375 -160q132 0 239 49.5t172 148t65 230.5v11h-511v178h713v-772 h-174l-3 223q-68 -109 -201 -180t-307 -71zM898 -96l-151 -242h-179l122 242h208z" />
<glyph unicode="&#x123;" horiz-adv-x="1283" d="M890 1470l-122 -242h-208l151 242h179zM568 28q-91 0 -174.5 35.5t-148.5 100t-104 164.5t-39 220v2q0 120 39 219.5t104 164.5t148.5 100.5t174.5 35.5q120 0 213 -45t140 -122v139h204v-943q0 -136 -39.5 -236.5t-110 -158t-158.5 -84.5t-195 -27q-198 0 -328.5 96 t-157.5 264h205q18 -90 93 -146t194 -56q62 0 112.5 16.5t92.5 53t65 101t23 152.5v120q-47 -76 -140 -121t-213 -45zM622 194q133 0 219 94t86 260v2q0 166 -86 259.5t-219 93.5q-132 0 -218 -93.5t-86 -259.5v-2q0 -166 86 -260t218 -94z" />
<glyph unicode="&#x124;" horiz-adv-x="1511" d="M389 1630l274 268h185l275 -268h-205l-162 153l-162 -153h-205zM179 0v1470h212v-634h729v634h212v-1470h-212v644h-729v-644h-212z" />
<glyph unicode="&#x125;" d="M-67 1640l234 258h185l235 -258h-196l-131 153l-131 -153h-196zM158 0v1470h204v-553q56 74 131.5 113.5t185.5 39.5q187 0 283.5 -118t96.5 -330v-622h-204v579q0 156 -62 238.5t-185 82.5t-184.5 -82t-61.5 -239v-579h-204z" />
<glyph unicode="&#x126;" horiz-adv-x="1511" d="M179 0v1073h-150v160h150v237h212v-237h729v237h212v-237h150v-160h-150v-1073h-212v644h-729v-644h-212zM391 836h729v237h-729v-237z" />
<glyph unicode="&#x127;" d="M158 0v1210h-120v120h120v140h204v-140h351v-120h-351v-293q56 74 131.5 113.5t185.5 39.5q187 0 283.5 -118t96.5 -330v-622h-204v579q0 156 -62 238.5t-185 82.5t-184.5 -82t-61.5 -239v-579h-204z" />
<glyph unicode="&#x128;" horiz-adv-x="570" d="M476 1898h133q0 -101 -50.5 -164.5t-131.5 -63.5q-45 0 -97.5 21t-97.5 41.5t-72 20.5q-65 0 -65 -88h-134q0 101 50.5 164.5t131.5 63.5q45 0 97 -20.5t97 -41t72 -20.5q65 0 67 87zM179 0v1470h212v-1470h-212z" />
<glyph unicode="&#x129;" horiz-adv-x="520" d="M451 1473h133q0 -101 -50.5 -164.5t-131.5 -63.5q-45 0 -97.5 20.5t-97.5 41.5t-72 21q-65 0 -65 -88h-134q0 101 50.5 164.5t131.5 63.5q45 0 97 -20.5t97 -41t72 -20.5q66 0 67 87zM158 0v1042h204v-1042h-204z" />
<glyph unicode="&#x12a;" horiz-adv-x="570" d="M-14 1758v140h600v-140h-600zM179 0v1470h212v-1470h-212z" />
<glyph unicode="&#x12b;" horiz-adv-x="520" d="M-40 1330v140h600v-140h-600zM158 0v1042h204v-1042h-204z" />
<glyph unicode="&#x12e;" horiz-adv-x="570" d="M179 0v1470h212v-1470h-9q-41 -24 -64 -62t-23 -77q0 -36 22 -56.5t59 -20.5q30 0 65 13l77 -137q-77 -48 -183 -48t-168 54.5t-62 147.5q0 92 83 186h-9z" />
<glyph unicode="&#x12f;" horiz-adv-x="520" d="M158 1240v230h204v-230h-204zM158 0v1042h204v-1042h-5q-41 -24 -64 -62t-23 -77q0 -36 22 -56.5t59 -20.5q30 0 65 13l77 -137q-77 -48 -183 -48t-168 54.5t-62 147.5q0 92 83 186h-5z" />
<glyph unicode="&#x130;" horiz-adv-x="570" d="M390 1693h-207v205h207v-205zM179 0v1470h212v-1470h-212z" />
<glyph unicode="&#x131;" horiz-adv-x="520" d="M158 0v1042h204v-1042h-204z" />
<glyph unicode="&#x132;" horiz-adv-x="1663" d="M179 0v1470h212v-1470h-212zM1047 -28q-195 0 -321 114.5t-126 321.5h220q0 -129 63 -193t165 -64q104 0 169.5 64.5t65.5 192.5v1062h212v-1062q0 -207 -126.5 -321.5t-321.5 -114.5z" />
<glyph unicode="&#x133;" horiz-adv-x="1040" d="M158 1240v230h204v-230h-204zM678 1240v230h204v-230h-204zM158 0v1042h204v-1042h-204zM492 -385v173h32q92 0 123 32.5t31 131.5v1090h204v-1097q0 -176 -81 -253t-261 -77h-48z" />
<glyph unicode="&#x134;" horiz-adv-x="1093" d="M452 1630l274 268h185l275 -268h-205l-162 153l-162 -153h-205zM477 -28q-195 0 -321 114.5t-126 321.5h220q0 -129 63 -193t165 -64q104 0 169.5 64.5t65.5 192.5v1062h212v-1062q0 -207 -126.5 -321.5t-321.5 -114.5z" />
<glyph unicode="&#x135;" horiz-adv-x="520" d="M-67 1212l234 258h185l235 -258h-196l-131 153l-131 -153h-196zM-28 -385v173h32q92 0 123 32.5t31 131.5v1090h204v-1097q0 -176 -81 -253t-261 -77h-48z" />
<glyph unicode="&#x136;" horiz-adv-x="1369" d="M179 0v1470h212v-647l662 647h274l-739 -721l755 -749h-292l-660 650v-650h-212zM865 -96l-151 -242h-179l122 242h208z" />
<glyph unicode="&#x137;" horiz-adv-x="1166" d="M158 0v1470h204v-863l494 435h255l-555 -497l590 -545h-283l-501 453v-453h-204zM756 -96l-151 -242h-179l122 242h208z" />
<glyph unicode="&#x139;" horiz-adv-x="1137" d="M431 1670h-225l228 228h280zM179 0v1470h212v-1285h689v-185h-901z" />
<glyph unicode="&#x13a;" horiz-adv-x="520" d="M683 1898l-316 -258h-222l266 258h272zM158 0v1470h204v-1470h-204z" />
<glyph unicode="&#x13b;" horiz-adv-x="1137" d="M179 0v1470h212v-1285h689v-185h-901zM734 -96l-151 -242h-179l122 242h208z" />
<glyph unicode="&#x13c;" horiz-adv-x="520" d="M158 0v1470h204v-1470h-204zM364 -96l-151 -242h-179l122 242h208z" />
<glyph unicode="&#x13d;" horiz-adv-x="1137" d="M654 1670h170v-328h-170v328zM179 0v1470h212v-1285h689v-185h-901z" />
<glyph unicode="&#x13e;" horiz-adv-x="685" d="M158 0v1470h204v-1470h-204zM512 1470h170v-328h-170v328z" />
<glyph unicode="&#x13f;" horiz-adv-x="1137" d="M179 0v1470h212v-1285h689v-185h-901zM845 704h-219v249h219v-249z" />
<glyph unicode="&#x140;" horiz-adv-x="732" d="M158 0v1470h204v-1470h-204zM731 611h-219v249h219v-249z" />
<glyph unicode="&#x143;" horiz-adv-x="1511" d="M900 1670h-225l228 228h280zM179 0v1470h278l670 -1201h2l-2 314v887h205v-1470h-280l-668 1201h-2l2 -314v-887h-205z" />
<glyph unicode="&#x144;" d="M1031 1470l-316 -258h-222l266 258h272zM158 0v1042h204v-125q56 74 131.5 113.5t185.5 39.5q187 0 283.5 -118t96.5 -330v-622h-204v579q0 156 -62 238.5t-185 82.5t-184.5 -82t-61.5 -239v-579h-204z" />
<glyph unicode="&#x145;" horiz-adv-x="1511" d="M179 0v1470h278l670 -1201h2l-2 314v887h205v-1470h-280l-668 1201h-2l2 -314v-887h-205zM860 -96l-151 -242h-179l122 242h208z" />
<glyph unicode="&#x146;" d="M158 0v1042h204v-125q56 74 131.5 113.5t185.5 39.5q187 0 283.5 -118t96.5 -330v-622h-204v579q0 156 -62 238.5t-185 82.5t-184.5 -82t-61.5 -239v-579h-204zM713 -96l-151 -242h-179l122 242h208z" />
<glyph unicode="&#x147;" horiz-adv-x="1511" d="M388 1898h205l162 -153l162 153h205l-275 -268h-185zM179 0v1470h278l670 -1201h2l-2 314v887h205v-1470h-280l-668 1201h-2l2 -314v-887h-205z" />
<glyph unicode="&#x148;" d="M516 1212l-234 258h196l131 -153l131 153h196l-235 -258h-185zM158 0v1042h204v-125q56 74 131.5 113.5t185.5 39.5q187 0 283.5 -118t96.5 -330v-622h-204v579q0 156 -62 238.5t-185 82.5t-184.5 -82t-61.5 -239v-579h-204z" />
<glyph unicode="&#x149;" d="M388 1470l-105 -328h-214l130 328h189zM158 0v1042h204v-125q56 74 131.5 113.5t185.5 39.5q187 0 283.5 -118t96.5 -330v-622h-204v579q0 156 -62 238.5t-185 82.5t-184.5 -82t-61.5 -239v-579h-204z" />
<glyph unicode="&#x14c;" horiz-adv-x="1655" d="M527 1758v140h600v-140h-600zM827 -28q-219 0 -388.5 98t-261 271.5t-91.5 393.5v2q0 220 91.5 393t261 270.5t388.5 97.5q165 0 304 -57t235 -157.5t149.5 -241t53.5 -305.5v-2q0 -165 -53.5 -306t-149.5 -242t-235 -158t-304 -57zM827 157q237 0 377 160.5t140 417.5v2 q0 257 -139.5 416.5t-377.5 159.5t-377 -159.5t-139 -416.5v-2q0 -257 139.5 -417.5t376.5 -160.5z" />
<glyph unicode="&#x14d;" horiz-adv-x="1258" d="M329 1330v140h600v-140h-600zM629 -28q-160 0 -280.5 71.5t-183.5 195.5t-63 282v2q0 158 63 282t183.5 195t280.5 71t280.5 -71t183.5 -195t63 -282v-2q0 -158 -63 -282t-183.5 -195.5t-280.5 -71.5zM629 138q150 0 230.5 105t80.5 278v2q0 173 -80.5 278t-230.5 105 t-230.5 -105t-80.5 -278v-2q0 -173 80.5 -278t230.5 -105z" />
<glyph unicode="&#x14e;" horiz-adv-x="1655" d="M527 1898h155q28 -108 145 -108t145 108h155q-19 -115 -97 -176.5t-203 -61.5t-203 61.5t-97 176.5zM827 -28q-219 0 -388.5 98t-261 271.5t-91.5 393.5v2q0 220 91.5 393t261 270.5t388.5 97.5q165 0 304 -57t235 -157.5t149.5 -241t53.5 -305.5v-2q0 -165 -53.5 -306 t-149.5 -242t-235 -158t-304 -57zM827 157q237 0 377 160.5t140 417.5v2q0 257 -139.5 416.5t-377.5 159.5t-377 -159.5t-139 -416.5v-2q0 -257 139.5 -417.5t376.5 -160.5z" />
<glyph unicode="&#x14f;" horiz-adv-x="1258" d="M329 1470h155q28 -108 145 -108t145 108h155q-19 -115 -97 -176.5t-203 -61.5t-203 61.5t-97 176.5zM629 -28q-160 0 -280.5 71.5t-183.5 195.5t-63 282v2q0 158 63 282t183.5 195t280.5 71t280.5 -71t183.5 -195t63 -282v-2q0 -158 -63 -282t-183.5 -195.5t-280.5 -71.5 zM629 138q150 0 230.5 105t80.5 278v2q0 173 -80.5 278t-230.5 105t-230.5 -105t-80.5 -278v-2q0 -173 80.5 -278t230.5 -105z" />
<glyph unicode="&#x150;" horiz-adv-x="1655" d="M672 1670h-225l228 228h280zM1147 1670h-225l228 228h280zM827 -28q-219 0 -388.5 98t-261 271.5t-91.5 393.5v2q0 220 91.5 393t261 270.5t388.5 97.5q165 0 304 -57t235 -157.5t149.5 -241t53.5 -305.5v-2q0 -165 -53.5 -306t-149.5 -242t-235 -158t-304 -57zM827 157 q237 0 377 160.5t140 417.5v2q0 257 -139.5 416.5t-377.5 159.5t-377 -159.5t-139 -416.5v-2q0 -257 139.5 -417.5t376.5 -160.5z" />
<glyph unicode="&#x151;" horiz-adv-x="1258" d="M792 1470l-316 -258h-222l266 258h272zM1264 1470l-316 -258h-222l266 258h272zM629 -28q-160 0 -280.5 71.5t-183.5 195.5t-63 282v2q0 158 63 282t183.5 195t280.5 71t280.5 -71t183.5 -195t63 -282v-2q0 -158 -63 -282t-183.5 -195.5t-280.5 -71.5zM629 138 q150 0 230.5 105t80.5 278v2q0 173 -80.5 278t-230.5 105t-230.5 -105t-80.5 -278v-2q0 -173 80.5 -278t230.5 -105z" />
<glyph unicode="&#x152;" horiz-adv-x="2438" d="M827 -28q-219 0 -388.5 98t-261 271.5t-91.5 393.5v2q0 220 91.5 393t261 270.5t388.5 97.5q322 0 526 -202v174h949v-185h-737v-448h661v-185h-661v-9v-458h739v-185h-951v175q-205 -203 -526 -203zM827 157q237 0 377 160.5t140 417.5v2q0 257 -139.5 416.5 t-377.5 159.5t-377 -159.5t-139 -416.5v-2q0 -257 139.5 -417.5t376.5 -160.5z" />
<glyph unicode="&#x153;" horiz-adv-x="2074" d="M629 -28q-160 0 -280.5 71.5t-183.5 195.5t-63 282v2q0 158 63 282t183.5 195t280.5 71q137 0 244.5 -52t176.5 -146q71 94 178.5 146t237.5 52q163 0 283 -78.5t179 -216t52 -313.5v-1h-820q14 -148 98.5 -236.5t219.5 -88.5q216 0 280 161h207q-44 -149 -170.5 -237.5 t-322.5 -88.5q-138 0 -246 52t-176 146q-70 -94 -177.5 -146t-243.5 -52zM1163 627h601v1q-8 125 -88.5 204.5t-210.5 79.5q-124 0 -203.5 -72t-98.5 -213zM629 138q150 0 230.5 105t80.5 278v2q0 173 -80.5 278t-230.5 105t-230.5 -105t-80.5 -278v-2q0 -173 80.5 -278 t230.5 -105z" />
<glyph unicode="&#x154;" horiz-adv-x="1372" d="M787 1670h-225l228 228h280zM179 0v1470h503q271 0 407 -115t136 -321v-2q0 -163 -89.5 -271t-263.5 -146l432 -615h-250l-416 596h-247v-596h-212zM391 780h288q163 0 242.5 62.5t79.5 189.5v2q0 253 -322 253h-288v-507z" />
<glyph unicode="&#x155;" horiz-adv-x="764" d="M861 1470l-316 -258h-222l266 258h272zM158 0v1042h202v-185q46 92 132.5 144t205.5 52h19v-199h-55q-147 0 -223.5 -73.5t-76.5 -236.5v-544h-204z" />
<glyph unicode="&#x156;" horiz-adv-x="1372" d="M179 0v1470h503q271 0 407 -115t136 -321v-2q0 -163 -89.5 -271t-263.5 -146l432 -615h-250l-416 596h-247v-596h-212zM391 780h288q163 0 242.5 62.5t79.5 189.5v2q0 253 -322 253h-288v-507zM846 -96l-151 -242h-179l122 242h208z" />
<glyph unicode="&#x157;" horiz-adv-x="764" d="M158 0v1042h202v-185q46 92 132.5 144t205.5 52h19v-199h-55q-147 0 -223.5 -73.5t-76.5 -236.5v-544h-204zM364 -96l-151 -242h-179l122 242h208z" />
<glyph unicode="&#x158;" horiz-adv-x="1372" d="M275 1898h205l162 -153l162 153h205l-275 -268h-185zM179 0v1470h503q271 0 407 -115t136 -321v-2q0 -163 -89.5 -271t-263.5 -146l432 -615h-250l-416 596h-247v-596h-212zM391 780h288q163 0 242.5 62.5t79.5 189.5v2q0 253 -322 253h-288v-507z" />
<glyph unicode="&#x159;" horiz-adv-x="764" d="M345 1212l-234 258h196l131 -153l131 153h196l-235 -258h-185zM158 0v1042h202v-185q46 92 132.5 144t205.5 52h19v-199h-55q-147 0 -223.5 -73.5t-76.5 -236.5v-544h-204z" />
<glyph unicode="&#x15a;" horiz-adv-x="1335" d="M813 1670h-225l228 228h280zM683 -28q-261 0 -409.5 129t-179.5 341h222q29 -144 119.5 -220t255.5 -76q150 0 241 58.5t91 170.5v2q0 48 -16 86t-40 63t-66.5 45.5t-81.5 33t-99 27.5l-192 47q-192 47 -297.5 147t-105.5 273v3q0 178 147.5 287t378.5 109t368.5 -109.5 t167.5 -310.5h-221q-32 129 -111.5 187.5t-214.5 58.5q-130 0 -213.5 -57t-83.5 -158v-2q0 -92 58.5 -148t175.5 -85l193 -48q83 -21 144.5 -41.5t126.5 -55.5t106 -77.5t67.5 -106t26.5 -141.5v-3q0 -205 -154.5 -317t-403.5 -112z" />
<glyph unicode="&#x15b;" horiz-adv-x="1081" d="M963 1470l-316 -258h-222l266 258h272zM555 -28q-199 0 -319 96.5t-142 249.5h204q20 -93 85.5 -143t177.5 -50q101 0 161.5 36.5t60.5 106.5v2q0 71 -53 104t-162 57l-153 33q-137 30 -219.5 104.5t-82.5 199.5v2q0 132 117.5 216.5t295.5 84.5q175 0 288.5 -80.5 t140.5 -226.5h-204q-44 155 -232 155q-88 0 -145.5 -38t-57.5 -101v-2q0 -58 40.5 -91.5t120.5 -50.5l152 -33q64 -14 112.5 -29t97 -40t79.5 -56.5t50 -77.5t19 -104v-2q0 -150 -121 -236t-311 -86z" />
<glyph unicode="&#x15c;" horiz-adv-x="1335" d="M301 1630l274 268h185l275 -268h-205l-162 153l-162 -153h-205zM683 -28q-261 0 -409.5 129t-179.5 341h222q29 -144 119.5 -220t255.5 -76q150 0 241 58.5t91 170.5v2q0 48 -16 86t-40 63t-66.5 45.5t-81.5 33t-99 27.5l-192 47q-192 47 -297.5 147t-105.5 273v3 q0 178 147.5 287t378.5 109t368.5 -109.5t167.5 -310.5h-221q-32 129 -111.5 187.5t-214.5 58.5q-130 0 -213.5 -57t-83.5 -158v-2q0 -92 58.5 -148t175.5 -85l193 -48q83 -21 144.5 -41.5t126.5 -55.5t106 -77.5t67.5 -106t26.5 -141.5v-3q0 -205 -154.5 -317t-403.5 -112z " />
<glyph unicode="&#x15d;" horiz-adv-x="1081" d="M213 1212l234 258h185l235 -258h-196l-131 153l-131 -153h-196zM555 -28q-199 0 -319 96.5t-142 249.5h204q20 -93 85.5 -143t177.5 -50q101 0 161.5 36.5t60.5 106.5v2q0 71 -53 104t-162 57l-153 33q-137 30 -219.5 104.5t-82.5 199.5v2q0 132 117.5 216.5t295.5 84.5 q175 0 288.5 -80.5t140.5 -226.5h-204q-44 155 -232 155q-88 0 -145.5 -38t-57.5 -101v-2q0 -58 40.5 -91.5t120.5 -50.5l152 -33q64 -14 112.5 -29t97 -40t79.5 -56.5t50 -77.5t19 -104v-2q0 -150 -121 -236t-311 -86z" />
<glyph unicode="&#x15e;" horiz-adv-x="1335" d="M683 -28q-261 0 -409.5 129t-179.5 341h222q29 -144 119.5 -220t255.5 -76q150 0 241 58.5t91 170.5v2q0 48 -16 86t-40 63t-66.5 45.5t-81.5 33t-99 27.5l-192 47q-192 47 -297.5 147t-105.5 273v3q0 178 147.5 287t378.5 109t368.5 -109.5t167.5 -310.5h-221 q-32 129 -111.5 187.5t-214.5 58.5q-130 0 -213.5 -57t-83.5 -158v-2q0 -92 58.5 -148t175.5 -85l193 -48q83 -21 144.5 -41.5t126.5 -55.5t106 -77.5t67.5 -106t26.5 -141.5v-3q0 -205 -154.5 -317t-403.5 -112zM766 -96l-122 -242h-208l151 242h179z" />
<glyph unicode="&#x15f;" horiz-adv-x="1081" d="M555 -28q-199 0 -319 96.5t-142 249.5h204q20 -93 85.5 -143t177.5 -50q101 0 161.5 36.5t60.5 106.5v2q0 71 -53 104t-162 57l-153 33q-137 30 -219.5 104.5t-82.5 199.5v2q0 132 117.5 216.5t295.5 84.5q175 0 288.5 -80.5t140.5 -226.5h-204q-44 155 -232 155 q-88 0 -145.5 -38t-57.5 -101v-2q0 -58 40.5 -91.5t120.5 -50.5l152 -33q64 -14 112.5 -29t97 -40t79.5 -56.5t50 -77.5t19 -104v-2q0 -150 -121 -236t-311 -86zM639 -96l-122 -242h-208l151 242h179z" />
<glyph unicode="&#x160;" horiz-adv-x="1335" d="M301 1898h205l162 -153l162 153h205l-275 -268h-185zM683 -28q-261 0 -409.5 129t-179.5 341h222q29 -144 119.5 -220t255.5 -76q150 0 241 58.5t91 170.5v2q0 48 -16 86t-40 63t-66.5 45.5t-81.5 33t-99 27.5l-192 47q-192 47 -297.5 147t-105.5 273v3q0 178 147.5 287 t378.5 109t368.5 -109.5t167.5 -310.5h-221q-32 129 -111.5 187.5t-214.5 58.5q-130 0 -213.5 -57t-83.5 -158v-2q0 -92 58.5 -148t175.5 -85l193 -48q83 -21 144.5 -41.5t126.5 -55.5t106 -77.5t67.5 -106t26.5 -141.5v-3q0 -205 -154.5 -317t-403.5 -112z" />
<glyph unicode="&#x161;" horiz-adv-x="1081" d="M447 1212l-234 258h196l131 -153l131 153h196l-235 -258h-185zM555 -28q-199 0 -319 96.5t-142 249.5h204q20 -93 85.5 -143t177.5 -50q101 0 161.5 36.5t60.5 106.5v2q0 71 -53 104t-162 57l-153 33q-137 30 -219.5 104.5t-82.5 199.5v2q0 132 117.5 216.5t295.5 84.5 q175 0 288.5 -80.5t140.5 -226.5h-204q-44 155 -232 155q-88 0 -145.5 -38t-57.5 -101v-2q0 -58 40.5 -91.5t120.5 -50.5l152 -33q64 -14 112.5 -29t97 -40t79.5 -56.5t50 -77.5t19 -104v-2q0 -150 -121 -236t-311 -86z" />
<glyph unicode="&#x162;" horiz-adv-x="1285" d="M536 0v1285h-493v185h1199v-185h-494v-1285h-212zM741 -96l-122 -242h-208l151 242h179z" />
<glyph unicode="&#x163;" horiz-adv-x="776" d="M560 0q-183 0 -263.5 73.5t-80.5 251.5v543h-160v174h160v270h204v-270h243v-174h-243v-522q0 -102 42 -137t139 -35h54v-174h-95zM464 -96l-151 -242h-179l122 242h208z" />
<glyph unicode="&#x164;" horiz-adv-x="1285" d="M276 1898h205l162 -153l162 153h205l-275 -268h-185zM536 0v1285h-493v185h1199v-185h-494v-1285h-212z" />
<glyph unicode="&#x165;" horiz-adv-x="776" d="M540 1670h170v-328h-170v328zM560 0q-183 0 -263.5 73.5t-80.5 251.5v543h-160v174h160v270h204v-270h243v-174h-243v-522q0 -102 42 -137t139 -35h54v-174h-95z" />
<glyph unicode="&#x166;" horiz-adv-x="1285" d="M536 0v762h-298v160h298v363h-493v185h1199v-185h-494v-363h300v-160h-300v-762h-212z" />
<glyph unicode="&#x167;" horiz-adv-x="776" d="M560 0q-183 0 -263.5 73.5t-80.5 251.5v136h-160v120h160v287h-160v174h160v270h204v-270h243v-174h-243v-287h243v-120h-243v-115q0 -102 42 -137t139 -35h54v-174h-95z" />
<glyph unicode="&#x168;" horiz-adv-x="1488" d="M934 1898h133q0 -101 -50.5 -164.5t-131.5 -63.5q-45 0 -97.5 21t-97.5 41.5t-72 20.5q-65 0 -65 -88h-134q0 101 50.5 164.5t131.5 63.5q45 0 97 -20.5t97 -41t72 -20.5q65 0 67 87zM743 -28q-574 0 -574 585v913h212v-912q0 -215 94.5 -308t267.5 -93q174 0 269 93 t95 308v912h212v-913q0 -585 -576 -585z" />
<glyph unicode="&#x169;" d="M779 1473h133q0 -101 -50.5 -164.5t-131.5 -63.5q-45 0 -97.5 20.5t-97.5 41.5t-72 21q-65 0 -65 -88h-134q0 101 50.5 164.5t131.5 63.5q45 0 97 -20.5t97 -41t72 -20.5q66 0 67 87zM518 -28q-187 0 -283.5 118t-96.5 330v622h204v-579q0 -156 62 -238.5t185 -82.5 t184.5 82t61.5 239v579h204v-1042h-204v125q-56 -74 -131.5 -113.5t-185.5 -39.5z" />
<glyph unicode="&#x16a;" horiz-adv-x="1488" d="M444 1758v140h600v-140h-600zM743 -28q-574 0 -574 585v913h212v-912q0 -215 94.5 -308t267.5 -93q174 0 269 93t95 308v912h212v-913q0 -585 -576 -585z" />
<glyph unicode="&#x16b;" d="M289 1330v140h600v-140h-600zM518 -28q-187 0 -283.5 118t-96.5 330v622h204v-579q0 -156 62 -238.5t185 -82.5t184.5 82t61.5 239v579h204v-1042h-204v125q-56 -74 -131.5 -113.5t-185.5 -39.5z" />
<glyph unicode="&#x16c;" horiz-adv-x="1488" d="M444 1898h155q28 -108 145 -108t145 108h155q-19 -115 -97 -176.5t-203 -61.5t-203 61.5t-97 176.5zM743 -28q-574 0 -574 585v913h212v-912q0 -215 94.5 -308t267.5 -93q174 0 269 93t95 308v912h212v-913q0 -585 -576 -585z" />
<glyph unicode="&#x16d;" d="M289 1470h155q28 -108 145 -108t145 108h155q-19 -115 -97 -176.5t-203 -61.5t-203 61.5t-97 176.5zM518 -28q-187 0 -283.5 118t-96.5 330v622h204v-579q0 -156 62 -238.5t185 -82.5t184.5 82t61.5 239v579h204v-1042h-204v125q-56 -74 -131.5 -113.5t-185.5 -39.5z" />
<glyph unicode="&#x16e;" horiz-adv-x="1488" d="M521 1847q0 88 67.5 154.5t155.5 66.5q90 0 156.5 -66t66.5 -155q0 -92 -65.5 -158.5t-157.5 -66.5q-91 0 -157 66.5t-66 158.5zM617 1848q0 -58 35.5 -93.5t92.5 -35.5q56 0 89 34t33 95q0 54 -33.5 88.5t-88.5 34.5t-91.5 -36t-36.5 -87zM743 -28q-574 0 -574 585v913 h212v-912q0 -215 94.5 -308t267.5 -93q174 0 269 93t95 308v912h212v-913q0 -585 -576 -585z" />
<glyph unicode="&#x16f;" d="M366 1422q0 88 67.5 154.5t155.5 66.5q90 0 156.5 -66t66.5 -155q0 -92 -65.5 -158.5t-157.5 -66.5q-91 0 -157 66.5t-66 158.5zM462 1423q0 -57 36 -93t92 -36t89 34t33 95q0 54 -33.5 88.5t-88.5 34.5t-91.5 -36t-36.5 -87zM518 -28q-187 0 -283.5 118t-96.5 330v622 h204v-579q0 -156 62 -238.5t185 -82.5t184.5 82t61.5 239v579h204v-1042h-204v125q-56 -74 -131.5 -113.5t-185.5 -39.5z" />
<glyph unicode="&#x170;" horiz-adv-x="1488" d="M589 1670h-225l228 228h280zM1064 1670h-225l228 228h280zM743 -28q-574 0 -574 585v913h212v-912q0 -215 94.5 -308t267.5 -93q174 0 269 93t95 308v912h212v-913q0 -585 -576 -585z" />
<glyph unicode="&#x171;" d="M752 1470l-316 -258h-222l266 258h272zM1224 1470l-316 -258h-222l266 258h272zM518 -28q-187 0 -283.5 118t-96.5 330v622h204v-579q0 -156 62 -238.5t185 -82.5t184.5 82t61.5 239v579h204v-1042h-204v125q-56 -74 -131.5 -113.5t-185.5 -39.5z" />
<glyph unicode="&#x172;" horiz-adv-x="1488" d="M900 -203l77 -137q-77 -48 -183 -48t-168 54.5t-62 147.5q0 82 65 164q-460 56 -460 579v913h212v-912q0 -215 94.5 -308t267.5 -93q174 0 269 93t95 308v912h212v-913q0 -552 -512 -583q-53 -50 -53 -113q0 -36 22 -56.5t59 -20.5q30 0 65 13z" />
<glyph unicode="&#x173;" d="M518 -28q-187 0 -283.5 118t-96.5 330v622h204v-579q0 -156 62 -238.5t185 -82.5t184.5 82t61.5 239v579h204v-1042h-5q-41 -24 -64 -62t-23 -77q0 -36 22 -56.5t59 -20.5q30 0 65 13l77 -137q-77 -48 -183 -48t-168 54.5t-62 147.5q0 92 83 186h-5v125 q-56 -74 -131.5 -113.5t-185.5 -39.5z" />
<glyph unicode="&#x174;" horiz-adv-x="2031" d="M649 1630l274 268h185l275 -268h-205l-162 153l-162 -153h-205zM447 0l-390 1470h219l319 -1226l286 1226h269l290 -1225l315 1225h219l-385 -1470h-270l-303 1261l-299 -1261h-270z" />
<glyph unicode="&#x175;" horiz-adv-x="1744" d="M545 1212l234 258h185l235 -258h-196l-131 153l-131 -153h-196zM383 0l-320 1042h211l241 -824l248 824h218l259 -825l246 825h195l-321 -1042h-229l-266 824l-251 -824h-231z" />
<glyph unicode="&#x176;" horiz-adv-x="1426" d="M347 1630l274 268h185l275 -268h-205l-162 153l-162 -153h-205zM607 0v589l-560 881h241l426 -697h2l422 697h241l-559 -881v-589h-213z" />
<glyph unicode="&#x177;" horiz-adv-x="1183" d="M265 1212l234 258h185l235 -258h-196l-131 153l-131 -153h-196zM309 -385l170 390l-435 1037h220l325 -802h2l339 802h209l-623 -1427h-207z" />
<glyph unicode="&#x178;" horiz-adv-x="1426" d="M589 1695h-207v205h207v-205zM1046 1695h-207v205h207v-205zM607 0v589l-560 881h241l426 -697h2l422 697h241l-559 -881v-589h-213z" />
<glyph unicode="&#x179;" horiz-adv-x="1278" d="M845 1670h-225l228 228h280zM97 0v179l808 1106h-772v185h1032v-179l-810 -1106h825v-185h-1083z" />
<glyph unicode="&#x17a;" horiz-adv-x="1044" d="M975 1470l-316 -258h-222l266 258h272zM88 0v166l613 702h-580v174h820v-165l-616 -703h630v-174h-867z" />
<glyph unicode="&#x17b;" horiz-adv-x="1278" d="M804 1693h-207v205h207v-205zM97 0v179l808 1106h-772v185h1032v-179l-810 -1106h825v-185h-1083z" />
<glyph unicode="&#x17c;" horiz-adv-x="1044" d="M651 1255h-197v215h197v-215zM88 0v166l613 702h-580v174h820v-165l-616 -703h630v-174h-867z" />
<glyph unicode="&#x17d;" horiz-adv-x="1278" d="M333 1898h205l162 -153l162 153h205l-275 -268h-185zM97 0v179l808 1106h-772v185h1032v-179l-810 -1106h825v-185h-1083z" />
<glyph unicode="&#x17e;" horiz-adv-x="1044" d="M459 1212l-234 258h196l131 -153l131 153h196l-235 -258h-185zM88 0v166l613 702h-580v174h820v-165l-616 -703h630v-174h-867z" />
<glyph unicode="&#x218;" horiz-adv-x="1335" d="M683 -28q-261 0 -409.5 129t-179.5 341h222q29 -144 119.5 -220t255.5 -76q150 0 241 58.5t91 170.5v2q0 48 -16 86t-40 63t-66.5 45.5t-81.5 33t-99 27.5l-192 47q-192 47 -297.5 147t-105.5 273v3q0 178 147.5 287t378.5 109t368.5 -109.5t167.5 -310.5h-221 q-32 129 -111.5 187.5t-214.5 58.5q-130 0 -213.5 -57t-83.5 -158v-2q0 -92 58.5 -148t175.5 -85l193 -48q83 -21 144.5 -41.5t126.5 -55.5t106 -77.5t67.5 -106t26.5 -141.5v-3q0 -205 -154.5 -317t-403.5 -112zM772 -96l-151 -242h-179l122 242h208z" />
<glyph unicode="&#x219;" horiz-adv-x="1081" d="M555 -28q-199 0 -319 96.5t-142 249.5h204q20 -93 85.5 -143t177.5 -50q101 0 161.5 36.5t60.5 106.5v2q0 71 -53 104t-162 57l-153 33q-137 30 -219.5 104.5t-82.5 199.5v2q0 132 117.5 216.5t295.5 84.5q175 0 288.5 -80.5t140.5 -226.5h-204q-44 155 -232 155 q-88 0 -145.5 -38t-57.5 -101v-2q0 -58 40.5 -91.5t120.5 -50.5l152 -33q64 -14 112.5 -29t97 -40t79.5 -56.5t50 -77.5t19 -104v-2q0 -150 -121 -236t-311 -86zM645 -96l-151 -242h-179l122 242h208z" />
<glyph unicode="&#x21a;" horiz-adv-x="1285" d="M536 0v1285h-493v185h1199v-185h-494v-1285h-212zM747 -96l-151 -242h-179l122 242h208z" />
<glyph unicode="&#x21b;" horiz-adv-x="776" d="M560 0q-183 0 -263.5 73.5t-80.5 251.5v543h-160v174h160v270h204v-270h243v-174h-243v-522q0 -102 42 -137t139 -35h54v-174h-95zM464 -96l-151 -242h-179l122 242h208z" />
<glyph unicode="&#x2c6;" horiz-adv-x="754" d="M50 1212l234 258h185l235 -258h-196l-131 153l-131 -153h-196z" />
<glyph unicode="&#x2da;" horiz-adv-x="546" d="M50 1422q0 88 67.5 154.5t155.5 66.5q90 0 156.5 -66t66.5 -155q0 -92 -65.5 -158.5t-157.5 -66.5q-91 0 -157 66.5t-66 158.5zM146 1423q0 -57 36 -93t92 -36t89 34t33 95q0 54 -33.5 88.5t-88.5 34.5t-91.5 -36t-36.5 -87z" />
<glyph unicode="&#x2dc;" horiz-adv-x="748" d="M565 1473h133q0 -101 -50.5 -164.5t-131.5 -63.5q-45 0 -97.5 20.5t-97.5 41.5t-72 21q-65 0 -65 -88h-134q0 101 50.5 164.5t131.5 63.5q45 0 97 -20.5t97 -41t72 -20.5q66 0 67 87z" />
<glyph unicode="&#x2000;" horiz-adv-x="1034" />
<glyph unicode="&#x2001;" horiz-adv-x="2068" />
<glyph unicode="&#x2002;" horiz-adv-x="1034" />
<glyph unicode="&#x2003;" horiz-adv-x="2068" />
<glyph unicode="&#x2004;" horiz-adv-x="689" />
<glyph unicode="&#x2005;" horiz-adv-x="517" />
<glyph unicode="&#x2006;" horiz-adv-x="344" />
<glyph unicode="&#x2007;" horiz-adv-x="344" />
<glyph unicode="&#x2008;" horiz-adv-x="258" />
<glyph unicode="&#x2009;" horiz-adv-x="413" />
<glyph unicode="&#x200a;" horiz-adv-x="114" />
<glyph unicode="&#x2010;" horiz-adv-x="798" d="M100 431v181h598v-181h-598z" />
<glyph unicode="&#x2011;" horiz-adv-x="798" d="M100 431v181h598v-181h-598z" />
<glyph unicode="&#x2012;" horiz-adv-x="798" d="M100 431v181h598v-181h-598z" />
<glyph unicode="&#x2013;" horiz-adv-x="1158" d="M100 431v181h958v-181h-958z" />
<glyph unicode="&#x2014;" horiz-adv-x="1958" d="M100 431v181h1758v-181h-1758z" />
<glyph unicode="&#x2018;" horiz-adv-x="540" d="M460 1470l-143 -475h-218l179 475h182z" />
<glyph unicode="&#x2019;" horiz-adv-x="540" d="M80 995l143 475h218l-179 -475h-182z" />
<glyph unicode="&#x201a;" horiz-adv-x="540" d="M80 -226l143 475h218l-179 -475h-182z" />
<glyph unicode="&#x201c;" horiz-adv-x="929" d="M460 1470l-143 -475h-218l179 475h182zM850 1470l-143 -475h-218l179 475h182z" />
<glyph unicode="&#x201d;" horiz-adv-x="929" d="M469 995l143 475h218l-179 -475h-182zM80 995l143 475h218l-179 -475h-182z" />
<glyph unicode="&#x201e;" horiz-adv-x="929" d="M80 -226l143 475h218l-179 -475h-182zM469 -226l143 475h218l-179 -475h-182z" />
<glyph unicode="&#x2026;" horiz-adv-x="1656" d="M939 0h-219v249h219v-249zM1491 0h-219v249h219v-249zM387 0h-219v249h219v-249z" />
<glyph unicode="&#x202f;" horiz-adv-x="413" />
<glyph unicode="&#x2039;" horiz-adv-x="680" d="M331 192l-236 373l236 372h215l-229 -372l229 -373h-215z" />
<glyph unicode="&#x203a;" horiz-adv-x="680" d="M586 565l-236 -373h-215l229 373l-229 372h215z" />
<glyph unicode="&#x205f;" horiz-adv-x="517" />
<glyph unicode="&#x20ac;" horiz-adv-x="1501" d="M851 -28q-231 0 -376.5 135t-185.5 405h-254l74 153h166q-1 20 -1 62v16q0 34 1 51h-240l74 153h178q39 276 185 413.5t379 137.5q107 0 197.5 -29t162.5 -87.5t117.5 -153t58.5 -218.5h-214q-11 87 -43.5 149t-79 94.5t-95.5 46.5t-105 14q-131 0 -217.5 -90.5 t-116.5 -276.5h385l-74 -153h-325q-1 -16 -1 -49v-20q0 -41 1 -60h399l-74 -153h-310q31 -180 117.5 -268t215.5 -88q56 0 105 14t95.5 46.5t79 94.5t43.5 149h214q-13 -124 -58.5 -218.5t-117.5 -153t-162.5 -87.5t-197.5 -29z" />
<glyph unicode="&#x25fc;" horiz-adv-x="1040" d="M0 1040h1040v-1040h-1040v1040z" />
</font>
</defs>
</svg>
