<?xml version="1.0" standalone="no"?>
<!DOCTYPE svg PUBLIC "-//W3C//DTD SVG 1.1//EN" "http://www.w3.org/Graphics/SVG/1.1/DTD/svg11.dtd" >
<svg xmlns="http://www.w3.org/2000/svg" xmlns:xlink="http://www.w3.org/1999/xlink" version="1.1">
<metadata></metadata>
<defs>
<font id="antarctica_betasemi_bold" horiz-adv-x="1236" >
<font-face units-per-em="2000" ascent="1600" descent="-400" />
<missing-glyph horiz-adv-x="432" />
<glyph horiz-adv-x="1000" />
<glyph horiz-adv-x="1000" />
<glyph unicode="&#xd;" horiz-adv-x="0" />
<glyph unicode=" "  horiz-adv-x="432" />
<glyph unicode="&#x09;" horiz-adv-x="432" />
<glyph unicode="&#xa0;" horiz-adv-x="432" />
<glyph unicode="!" horiz-adv-x="683" d="M222 483l-40 585l1 402h317v-402l-39 -585h-239zM499 0h-315v316h315v-316z" />
<glyph unicode="&#x22;" horiz-adv-x="960" d="M544 1470h315v-95l-24 -405h-266l-25 405v95zM100 1470h315v-95l-24 -405h-267l-24 405v95z" />
<glyph unicode="#" horiz-adv-x="1491" d="M177 879l29 226h224l48 365h231l-48 -365h263l48 365h231l-48 -365h226l-32 -226h-223l-37 -277h225l-30 -226h-224l-49 -376h-230l48 376h-263l-49 -376h-230l48 376h-224l30 226h224l36 277h-224zM596 602h263l36 277h-263z" />
<glyph unicode="$" horiz-adv-x="1394" d="M568 -246v225q-216 32 -338 157t-148 311h323q50 -241 317 -241q126 0 200.5 47t74.5 135v1q0 88 -62 131t-195 74l-206 45q-429 93 -429 438v3q0 166 127 277.5t336 137.5v221h241v-223q197 -28 311.5 -140t141.5 -292h-322q-26 103 -94 152t-180 49q-109 0 -177 -44.5 t-68 -124.5v-2q0 -72 49 -117t149 -69l207 -45q113 -25 196.5 -58.5t152 -84.5t103.5 -125t35 -169v-2q0 -194 -136.5 -310.5t-367.5 -137.5v-219h-241z" />
<glyph unicode="%" horiz-adv-x="2053" d="M474 669q-172 0 -274 110t-102 305v2q0 195 102 305t274 110t274.5 -110t102.5 -305v-2q0 -195 -102.5 -305t-274.5 -110zM567 0l633 1470h286l-633 -1470h-286zM474 844q152 0 152 240v2q0 242 -152 242q-151 0 -151 -242v-2q0 -240 151 -240zM1578 -31 q-171 0 -273.5 110t-102.5 305v2q0 195 102.5 305t273.5 110q173 0 275 -110t102 -305v-2q0 -195 -102 -305t-275 -110zM1578 143q152 0 152 241v2q0 241 -152 241q-150 0 -150 -241v-2q0 -241 150 -241z" />
<glyph unicode="&#x26;" horiz-adv-x="1676" d="M1259 0l-158 160q-108 -100 -224 -145.5t-268 -45.5q-240 0 -378 116t-138 309v3q0 276 349 436q-71 81 -114 159t-43 162v4q0 147 116.5 245t311.5 98q202 0 315 -91.5t113 -244.5v-4q0 -214 -292 -364l251 -254q73 107 141 238h306q-91 -200 -266 -421l355 -360h-377z M691 956q159 77 159 200v3q0 63 -38 99t-99 36t-98 -35t-37 -99v-4q0 -81 113 -200zM931 333l-330 335q-200 -103 -200 -265v-4q0 -91 66 -150t172 -59q148 0 292 143z" />
<glyph unicode="'" horiz-adv-x="515" d="M100 1470h315v-95l-24 -405h-267l-24 405v95z" />
<glyph unicode="(" horiz-adv-x="671" d="M621 1553q-122 -194 -190 -443t-68 -497t68 -497t190 -443h-258q-116 167 -189.5 429.5t-73.5 510.5t73.5 510.5t189.5 429.5h258z" />
<glyph unicode=")" horiz-adv-x="671" d="M50 1553h258q116 -167 189.5 -429.5t73.5 -510.5t-73.5 -510.5t-189.5 -429.5h-258q121 194 189 443t68 497t-68 497t-189 443z" />
<glyph unicode="*" horiz-adv-x="897" d="M324 808l-148 107l124 170l-200 66l57 174l200 -66v211h183v-211l200 66l57 -174l-200 -66l124 -170l-148 -107l-124 169z" />
<glyph unicode="+" horiz-adv-x="1260" d="M499 866v399h260v-399h401v-261h-401v-400h-260v400h-399v261h399z" />
<glyph unicode="," horiz-adv-x="616" d="M70 -222l143 538h315l-187 -538h-271z" />
<glyph unicode="-" horiz-adv-x="839" d="M100 391v261h639v-261h-639z" />
<glyph unicode="." horiz-adv-x="601" d="M458 0h-315v316h315v-316z" />
<glyph unicode="/" horiz-adv-x="1153" d="M120 -206l611 1676h302l-611 -1676h-302z" />
<glyph unicode="0" horiz-adv-x="1487" d="M744 -31q-308 0 -477.5 204.5t-169.5 560.5v2q0 356 169.5 560.5t477.5 204.5q307 0 476.5 -204.5t169.5 -560.5v-2q0 -356 -169.5 -560.5t-476.5 -204.5zM744 221q152 0 237 127t85 386v2q0 260 -85 387t-237 127t-237.5 -127t-85.5 -387v-2q0 -259 85.5 -386 t237.5 -127z" />
<glyph unicode="1" horiz-adv-x="962" d="M393 0v1025h-320v261h51q157 0 227 35t110 149h247v-1470h-315z" />
<glyph unicode="2" horiz-adv-x="1329" d="M89 0v65q0 258 110.5 413.5t364.5 267.5l107 49q122 57 173 117t51 151v1q0 94 -58.5 144.5t-161.5 50.5q-108 0 -169.5 -56.5t-70.5 -187.5h-319q18 237 166.5 361.5t400.5 124.5q158 0 278.5 -46t192.5 -142t72 -231v-1q0 -173 -92.5 -288.5t-288.5 -202.5l-103 -47 q-146 -67 -209.5 -129t-67.5 -153h758v-261h-1134z" />
<glyph unicode="3" horiz-adv-x="1381" d="M705 -31q-266 0 -436 126t-192 354h323q39 -238 300 -238q117 0 191 54t74 157v2q0 103 -80 158t-235 55h-96v239h96q134 0 203 54t69 144v2q0 88 -62 135.5t-168 47.5q-222 0 -245 -223h-323q24 221 176 343t407 122q156 0 274 -43t187.5 -132t69.5 -214v-2 q0 -114 -55.5 -202t-148.5 -127v-2q254 -93 254 -357v-2q0 -210 -163 -330.5t-420 -120.5z" />
<glyph unicode="4" horiz-adv-x="1414" d="M806 0v313h-759v262l759 895h315v-895h247v-262h-247v-313h-315zM345 575h461v558h-2l-105 -126z" />
<glyph unicode="5" horiz-adv-x="1367" d="M686 -31q-247 0 -406.5 121t-186.5 332h323q45 -211 265 -211q117 0 193.5 68.5t76.5 186.5v2q0 119 -76 191t-191 72q-93 0 -159.5 -37.5t-99.5 -104.5l-297 45l101 836h947v-261h-687l-45 -351q123 115 330 115q222 0 361 -137.5t139 -361.5v-2q0 -228 -165 -365.5 t-423 -137.5z" />
<glyph unicode="6" horiz-adv-x="1376" d="M704 -31q-294 0 -450.5 186t-156.5 517v2q0 143 24 267.5t74.5 228t124.5 177t178.5 114t231.5 40.5q219 0 351.5 -115t160.5 -291h-301q-41 164 -225 164q-138 0 -216.5 -117.5t-86.5 -337.5q59 78 153 122.5t216 44.5q76 0 148 -21t135.5 -63t111 -100.5t75 -140 t27.5 -174.5v-2q0 -150 -75 -264.5t-205.5 -175.5t-294.5 -61zM696 211q118 0 193 68.5t75 186.5v2q0 119 -75 190.5t-193 71.5t-194 -71.5t-76 -190.5v-2q0 -118 75.5 -186.5t194.5 -68.5z" />
<glyph unicode="7" horiz-adv-x="1216" d="M263 0q2 218 46 405t125.5 333.5t184 260t235.5 210.5h-803v261h1114v-261q-295 -215 -438.5 -504t-147.5 -705h-316z" />
<glyph unicode="8" horiz-adv-x="1369" d="M685 -31q-277 0 -432.5 124.5t-155.5 324.5v2q0 127 68.5 218.5t170.5 138.5v2q-87 45 -138.5 130t-51.5 197v2q0 177 143.5 285t395.5 108t395.5 -108t143.5 -285v-2q0 -112 -51.5 -197t-139.5 -130v-2q103 -47 171 -138.5t68 -218.5v-2q0 -200 -155 -324.5t-432 -124.5 zM685 883q99 0 159.5 50t60.5 137v1q0 87 -60.5 137.5t-159.5 50.5t-160 -50.5t-61 -137.5v-1q0 -87 60.5 -137t160.5 -50zM685 211q121 0 192.5 58.5t71.5 157.5v1q0 100 -71 158t-193 58t-193 -58t-71 -158v-1q0 -99 71 -157.5t193 -58.5z" />
<glyph unicode="9" horiz-adv-x="1376" d="M671 1501q295 0 451 -186t156 -517v-1q0 -144 -24 -268.5t-74.5 -228t-124.5 -177t-178.5 -114t-231.5 -40.5q-111 0 -203.5 32t-155 88.5t-101.5 129t-52 157.5h302q41 -165 225 -165q138 0 216 117t87 338q-129 -167 -369 -167q-76 0 -148 21t-135.5 63t-111 100.5 t-75 140t-27.5 174.5v2q0 225 162 363t412 138zM680 1259q-118 0 -193 -68.5t-75 -186.5v-2q0 -119 75 -190.5t193 -71.5t194 71.5t76 190.5v2q0 118 -75.5 186.5t-194.5 68.5z" />
<glyph unicode=":" horiz-adv-x="601" d="M458 726h-315v316h315v-316zM458 0h-315v316h315v-316z" />
<glyph unicode=";" horiz-adv-x="656" d="M513 726h-314v316h314v-316zM70 -222l143 538h315l-187 -538h-271z" />
<glyph unicode="&#x3c;" horiz-adv-x="1055" d="M100 846l856 454v-295l-533 -277v-1l533 -275v-295l-856 454v235z" />
<glyph unicode="=" horiz-adv-x="1260" d="M100 819v260h1060v-260h-1060zM100 391v260h1060v-260h-1060z" />
<glyph unicode="&#x3e;" horiz-adv-x="1055" d="M100 1300l856 -454v-235l-856 -454v295l533 275v1l-533 277v295z" />
<glyph unicode="?" horiz-adv-x="1168" d="M569 1264q-91 0 -142 -55t-51 -158h-322q5 205 146 327.5t372 122.5q240 0 377.5 -104t137.5 -279v-1q0 -106 -49.5 -192t-136.5 -145l-57 -45q-59 -41 -89 -73.5t-45 -74.5t-15 -104h-290q0 138 34.5 209t131.5 142l61 49q65 46 95 92.5t30 112.5v1q0 83 -48 129 t-140 46zM708 0h-315v316h315v-316z" />
<glyph unicode="@" horiz-adv-x="1803" d="M774 238q-130 0 -218.5 93t-88.5 275v2q0 90 30 175.5t83.5 153t135 109t175.5 41.5q85 0 146.5 -42t88.5 -110l16 115h149l-60 -453q-15 -112 6.5 -164t80.5 -52q83 0 139 98t56 264v2q0 125 -42 224t-118 163.5t-180.5 98.5t-230.5 34q-140 0 -260.5 -50.5t-204 -138 t-131 -208t-47.5 -257.5v-2q0 -261 155 -415.5t422 -154.5q198 0 380 88l60 -142q-95 -48 -212 -73t-228 -25q-337 0 -541.5 199.5t-204.5 529.5v2q0 165 63 311.5t171.5 251.5t259.5 166t320 61q123 0 231 -25t200 -77t158 -128.5t103 -184t37 -238.5v-2q0 -122 -32 -223 t-85 -165.5t-119 -99.5t-136 -35q-85 0 -141 49.5t-67 141.5q-46 -88 -129 -135.5t-190 -47.5zM823 391q119 0 190.5 98.5t71.5 236.5v2q0 95 -48 148.5t-134 53.5q-112 0 -184.5 -96t-72.5 -227v-2q0 -106 46.5 -160t130.5 -54z" />
<glyph unicode="A" horiz-adv-x="1541" d="M30 0l546 1470h389l546 -1470h-330l-130 372h-570l-128 -372h-323zM569 629h394l-196 565h-3z" />
<glyph unicode="B" horiz-adv-x="1407" d="M154 0v1470h606q235 0 357 -103t122 -270v-1q0 -108 -53 -191.5t-133 -123.5v-1q270 -102 270 -357v-2q0 -203 -144.5 -312t-406.5 -109h-618zM469 874h252q100 0 154 46.5t54 127.5v1q0 80 -54 126.5t-154 46.5h-252v-348zM469 248h277q249 0 249 191v1q0 191 -249 191 h-277v-383z" />
<glyph unicode="C" horiz-adv-x="1601" d="M831 -31q-223 0 -394.5 95.5t-265.5 269.5t-94 400v2q0 226 94 400t265.5 269.5t394.5 95.5q275 0 459 -136.5t239 -384.5h-323q-40 130 -139.5 195.5t-236.5 65.5q-194 0 -308.5 -136.5t-114.5 -368.5v-2q0 -232 114.5 -368.5t308.5 -136.5q137 0 236.5 65.5 t139.5 196.5h323q-55 -248 -239 -385t-459 -137z" />
<glyph unicode="D" horiz-adv-x="1547" d="M154 0v1470h525q169 0 312 -46.5t250.5 -135.5t168.5 -231t61 -323v-2q0 -177 -61 -317.5t-168.5 -230.5t-251 -137t-311.5 -47h-525zM469 256h202q227 0 348.5 121t121.5 355v2q0 235 -121.5 357.5t-348.5 122.5h-202v-958z" />
<glyph unicode="E" horiz-adv-x="1301" d="M154 0v1470h1021v-261h-706v-338h637v-260h-637v-350h711v-261h-1026z" />
<glyph unicode="F" horiz-adv-x="1239" d="M154 0v1470h1032v-261h-717v-338h648v-260h-648v-611h-315z" />
<glyph unicode="G" horiz-adv-x="1690" d="M816 -31q-161 0 -298 54.5t-234 153.5t-152 242.5t-55 314.5v2q0 226 94 400t265.5 269.5t394.5 95.5q273 0 457.5 -127.5t240.5 -357.5h-323q-39 110 -136.5 167.5t-229.5 57.5q-200 0 -316.5 -136t-116.5 -369v-2q0 -238 116 -374.5t317 -136.5q170 0 280.5 91.5 t110.5 246.5v7h-437v238h741v-806h-233l-5 191q-65 -97 -190.5 -159.5t-290.5 -62.5z" />
<glyph unicode="H" horiz-adv-x="1539" d="M154 0v1470h315v-592h602v592h315v-1470h-315v599h-602v-599h-315z" />
<glyph unicode="I" horiz-adv-x="623" d="M154 0v1470h315v-1470h-315z" />
<glyph unicode="J" horiz-adv-x="1190" d="M540 -31q-239 0 -374.5 128.5t-135.5 359.5h319q0 -119 52 -176.5t143 -57.5q90 0 141.5 57.5t51.5 176.5v1013h314v-1013q0 -231 -136 -359.5t-375 -128.5z" />
<glyph unicode="K" horiz-adv-x="1450" d="M154 0v1470h315v-614l557 614h384l-655 -717l679 -753h-407l-558 613v-613h-315z" />
<glyph unicode="L" horiz-adv-x="1162" d="M154 0v1470h315v-1209h643v-261h-958z" />
<glyph unicode="M" horiz-adv-x="1910" d="M154 0v1470h472l329 -1132h2l328 1132h472v-1470h-296v621l5 532h-2l-346 -1153h-325l-346 1153h-2l5 -532v-621h-296z" />
<glyph unicode="N" horiz-adv-x="1539" d="M154 0v1470h402l537 -1075h2l-6 353v722h297v-1470h-406l-534 1075h-2l7 -353v-722h-297z" />
<glyph unicode="O" horiz-adv-x="1687" d="M843 -31q-225 0 -399.5 96t-270.5 270.5t-96 399.5v2q0 225 96 399t270.5 269.5t399.5 95.5q226 0 400.5 -95.5t271 -269.5t96.5 -399v-2q0 -225 -96.5 -399.5t-271 -270.5t-400.5 -96zM843 229q198 0 317.5 137t119.5 369v2q0 231 -119.5 367.5t-317.5 136.5 t-317 -136.5t-119 -367.5v-2q0 -232 119 -369t317 -137z" />
<glyph unicode="P" horiz-adv-x="1354" d="M154 0v1470h557q288 0 441 -116.5t153 -351.5v-2q0 -234 -153 -351t-441 -117h-242v-532h-315zM469 789h234q139 0 205.5 52.5t66.5 158.5v2q0 212 -272 212h-234v-425z" />
<glyph unicode="Q" horiz-adv-x="1687" d="M843 -31q-225 0 -399.5 96t-270.5 270.5t-96 399.5v2q0 225 96 399t270.5 269.5t399.5 95.5q226 0 400.5 -95.5t271 -269.5t96.5 -399v-2q0 -189 -69 -343t-195 -257l355 -346h-349l-228 224q-129 -44 -282 -44zM843 229q198 0 317.5 137t119.5 369v2q0 231 -119.5 367.5 t-317.5 136.5t-317 -136.5t-119 -367.5v-2q0 -232 119 -369t317 -137z" />
<glyph unicode="R" horiz-adv-x="1431" d="M154 0v1470h562q289 0 441.5 -112.5t152.5 -343.5v-2q0 -164 -86 -270t-242 -152l391 -590h-355l-364 556h-185v-556h-315zM469 813h248q133 0 198 48.5t65 150.5v2q0 102 -65 151t-198 49h-248v-401z" />
<glyph unicode="S" horiz-adv-x="1394" d="M714 -31q-145 0 -260 36t-191 101.5t-121 151t-60 189.5h323q50 -241 317 -241q126 0 200.5 47t74.5 135v1q0 88 -62 131t-195 74l-206 45q-429 93 -429 438v3q0 188 161 304.5t414 116.5q255 0 403 -115.5t179 -324.5h-322q-26 103 -94 152t-180 49q-109 0 -177 -44.5 t-68 -124.5v-2q0 -72 49 -117t149 -69l207 -45q113 -25 196.5 -58.5t152 -84.5t103.5 -125t35 -169v-2q0 -214 -164.5 -333t-434.5 -119z" />
<glyph unicode="T" horiz-adv-x="1334" d="M510 0v1209h-479v261h1273v-261h-480v-1209h-314z" />
<glyph unicode="U" horiz-adv-x="1511" d="M755 -31q-303 0 -457 142.5t-154 457.5v901h315v-899q0 -179 73.5 -260.5t222.5 -81.5t223.5 81.5t74.5 260.5v899h314v-901q0 -315 -154 -457.5t-458 -142.5z" />
<glyph unicode="V" horiz-adv-x="1580" d="M596 0l-555 1470h334l431 -1160l418 1160h315l-554 -1470h-389z" />
<glyph unicode="W" horiz-adv-x="2061" d="M395 0l-344 1470h321l243 -1141l238 1141h355l238 -1141l242 1141h322l-342 -1470h-386l-251 1185l-249 -1185h-387z" />
<glyph unicode="X" horiz-adv-x="1569" d="M71 0l537 739l-513 731h379l322 -471l326 471h347l-510 -711l540 -759h-379l-348 499l-355 -499h-346z" />
<glyph unicode="Y" horiz-adv-x="1546" d="M617 0v576l-576 894h346l299 -489l88 -142h2l87 142l296 489h347l-574 -894v-576h-315z" />
<glyph unicode="Z" horiz-adv-x="1325" d="M91 0v250l736 959h-704v261h1094v-250l-739 -959h755v-261h-1142z" />
<glyph unicode="[" horiz-adv-x="777" d="M100 -327v1880h576v-229h-313v-1422h313v-229h-576z" />
<glyph unicode="\" horiz-adv-x="1153" d="M422 1470l611 -1676h-302l-611 1676h302z" />
<glyph unicode="]" horiz-adv-x="777" d="M677 1553v-1880h-577v229h314v1422h-314v229h577z" />
<glyph unicode="_" horiz-adv-x="1121" d="M50 -342v260h1021v-260h-1021z" />
<glyph unicode="`" horiz-adv-x="731" d="M363 1212l-313 258h368l263 -258h-318z" />
<glyph unicode="a" horiz-adv-x="1195" d="M455 -31q-106 0 -193.5 36.5t-140.5 107.5t-53 165v2q0 78 33.5 138t92 100.5t150 68t195.5 42.5t239 23v20q0 104 -47 156t-134 52q-84 0 -130 -41.5t-51 -121.5h-298q16 165 140.5 265t342.5 100q232 0 356 -109.5t123 -349.5l-2 -300q-2 -208 32 -323h-283 q-10 49 -12 136q-113 -167 -360 -167zM786 470q-215 -16 -310 -53.5t-95 -122.5v-2q0 -61 45.5 -96.5t122.5 -35.5q108 0 172.5 65t64.5 192v53z" />
<glyph unicode="b" horiz-adv-x="1310" d="M767 -31q-116 0 -202.5 43.5t-131.5 117.5v-130h-303v1470h303v-558q45 74 131.5 117.5t202.5 43.5q89 0 171 -37t146.5 -105t102.5 -174t38 -235v-2q0 -129 -38 -235t-102.5 -174t-146.5 -105t-171 -37zM665 193q109 0 175.5 87t66.5 240v2q0 153 -66.5 240.5 t-175.5 87.5q-108 0 -174.5 -87.5t-66.5 -240.5v-2q0 -153 66.5 -240t174.5 -87z" />
<glyph unicode="c" d="M629 -31q-249 0 -396.5 153t-147.5 401v2q0 248 147.5 401t396.5 153q220 0 357 -108.5t170 -288.5h-301q-19 86 -76.5 131.5t-144.5 45.5q-107 0 -170.5 -89.5t-63.5 -244.5v-2q0 -155 63.5 -244t170.5 -89q87 0 144.5 45t76.5 131h301q-33 -180 -170 -288.5 t-357 -108.5z" />
<glyph unicode="d" horiz-adv-x="1310" d="M543 -31q-89 0 -171 37t-146.5 105t-102.5 174t-38 235v2q0 129 38 235t102.5 174t146.5 105t171 37q116 0 203 -43.5t131 -117.5v558h304v-1470h-304v130q-44 -74 -131 -117.5t-203 -43.5zM645 193q108 0 174.5 87t66.5 240v2q0 153 -66.5 240.5t-174.5 87.5 q-109 0 -175 -87.5t-66 -240.5v-2q0 -153 66 -240t175 -87z" />
<glyph unicode="e" horiz-adv-x="1275" d="M645 -31q-259 0 -409.5 153t-150.5 403v2q0 165 72.5 291.5t198 193.5t282.5 67q138 0 246.5 -47.5t176.5 -132.5t101 -200.5t27 -252.5v-1h-792q13 -122 81 -190.5t174 -68.5q174 0 225 126h298q-43 -154 -180 -248.5t-350 -94.5zM398 638h481v1q-6 102 -69.5 167.5 t-169.5 65.5q-99 0 -162 -57.5t-80 -176.5z" />
<glyph unicode="f" horiz-adv-x="775" d="M195 0v803h-148v239h148v63q0 365 425 365h99v-228h-53q-87 0 -127.5 -34.5t-40.5 -108.5v-57h221v-239h-221v-803h-303z" />
<glyph unicode="g" horiz-adv-x="1314" d="M551 26q-91 0 -174 34.5t-148.5 99t-104.5 165t-39 223.5v2q0 123 39 224t104.5 165t148.5 99t174 35q113 0 199 -41t131 -110v120h303v-936q0 -138 -40.5 -239.5t-115.5 -160.5t-171.5 -86.5t-218.5 -27.5q-214 0 -351.5 97.5t-166.5 268.5h294q16 -73 76.5 -116.5 t153.5 -43.5q108 0 172.5 64.5t64.5 201.5v113q-45 -69 -131 -110t-199 -41zM646 249q109 0 176 80t67 219v2q0 140 -67 220t-176 80t-176 -80t-67 -220v-2q0 -139 67 -219t176 -80z" />
<glyph unicode="h" d="M130 0v1470h303v-547q113 150 317 150q188 0 281.5 -113t93.5 -320v-640h-303v580q0 260 -195 260q-194 0 -194 -260v-580h-303z" />
<glyph unicode="i" horiz-adv-x="563" d="M130 1200v270h303v-270h-303zM130 0v1042h303v-1042h-303z" />
<glyph unicode="j" horiz-adv-x="563" d="M130 1200v270h303v-270h-303zM-36 -385v235h33q77 0 105 27.5t28 114.5v1050h303v-1067q0 -196 -91 -278t-307 -82h-71z" />
<glyph unicode="k" horiz-adv-x="1251" d="M130 0v1470h303v-840l409 412h353l-484 -500l520 -542h-391l-407 411v-411h-303z" />
<glyph unicode="l" horiz-adv-x="563" d="M130 0v1470h303v-1470h-303z" />
<glyph unicode="m" horiz-adv-x="1928" d="M130 0v1042h303v-119q113 150 317 150q242 0 328 -187q126 187 364 187q189 0 282 -113t93 -320v-640h-303v580q0 260 -195 260q-194 0 -194 -260v-580h-303v580q0 260 -195 260q-194 0 -194 -260v-580h-303z" />
<glyph unicode="n" d="M130 0v1042h303v-119q113 150 317 150q188 0 281.5 -113t93.5 -320v-640h-303v580q0 260 -195 260q-194 0 -194 -260v-580h-303z" />
<glyph unicode="o" horiz-adv-x="1286" d="M643 -31q-256 0 -407 153t-151 401v2q0 248 151 401t407 153t407.5 -153t151.5 -401v-2q0 -248 -151.5 -401t-407.5 -153zM643 190q119 0 181.5 89t62.5 244v2q0 155 -62.5 244.5t-181.5 89.5t-181 -89.5t-62 -244.5v-2q0 -155 62 -244t181 -89z" />
<glyph unicode="p" horiz-adv-x="1310" d="M767 -31q-116 0 -202.5 43.5t-131.5 117.5v-515h-303v1427h303v-130q45 74 131.5 117.5t202.5 43.5q89 0 171 -37t146.5 -105t102.5 -174t38 -235v-2q0 -129 -38 -235t-102.5 -174t-146.5 -105t-171 -37zM665 193q109 0 175.5 87t66.5 240v2q0 153 -66.5 240.5 t-175.5 87.5q-108 0 -174.5 -87.5t-66.5 -240.5v-2q0 -153 66.5 -240t174.5 -87z" />
<glyph unicode="q" horiz-adv-x="1310" d="M543 -31q-89 0 -171 37t-146.5 105t-102.5 174t-38 235v2q0 129 38 235t102.5 174t146.5 105t171 37q116 0 203 -43.5t131 -117.5v130h304v-1427h-304v515q-44 -74 -131 -117.5t-203 -43.5zM645 193q108 0 174.5 87t66.5 240v2q0 153 -66.5 240.5t-174.5 87.5 q-109 0 -175 -87.5t-66 -240.5v-2q0 -153 66 -240t175 -87z" />
<glyph unicode="r" horiz-adv-x="813" d="M130 0v1042h297v-199q41 97 126.5 155.5t199.5 58.5h20v-291h-71q-132 0 -200.5 -60t-68.5 -204v-502h-303z" />
<glyph unicode="s" horiz-adv-x="1145" d="M588 -31q-224 0 -356.5 96.5t-151.5 255.5h297q33 -158 213 -158q79 0 127 29t48 83v1q0 56 -44 83.5t-140 47.5l-167 33q-153 31 -237.5 111t-84.5 204v2q0 142 128.5 232t328.5 90q204 0 328.5 -82.5t151.5 -239.5h-296q-35 129 -183 129q-70 0 -114 -30t-44 -78v-2 q0 -48 35.5 -75t109.5 -42l163 -33q179 -35 272 -109.5t93 -209.5v-2q0 -154 -131.5 -245t-345.5 -91z" />
<glyph unicode="t" horiz-adv-x="821" d="M588 0q-216 0 -303 80t-87 265v458h-151v239h151v280h303v-280h223v-239h-223v-410q0 -91 35.5 -122.5t118.5 -31.5h64v-239h-131z" />
<glyph unicode="u" d="M486 -31q-188 0 -281 113.5t-93 320.5v639h303v-579q0 -260 194 -260t194 260v579h304v-1042h-304v126q-109 -157 -317 -157z" />
<glyph unicode="v" horiz-adv-x="1208" d="M434 0l-402 1042h322l259 -743l265 743h299l-402 -1042h-341z" />
<glyph unicode="w" horiz-adv-x="1797" d="M354 0l-307 1042h302l201 -743l206 743h285l213 -743l204 743h291l-306 -1042h-328l-221 752l-210 -752h-330z" />
<glyph unicode="x" horiz-adv-x="1249" d="M49 0l415 528l-398 514h336l227 -307l230 307h325l-400 -505l416 -537h-335l-246 331l-250 -331h-320z" />
<glyph unicode="y" horiz-adv-x="1244" d="M272 -385l171 387l-411 1040h314l271 -722h2l299 722h295l-635 -1427h-306z" />
<glyph unicode="z" horiz-adv-x="1096" d="M78 0v230l575 573h-553v239h899v-229l-583 -574h601v-239h-939z" />
<glyph unicode="{" horiz-adv-x="770" d="M84 550v126q86 28 116.5 71t30.5 153v278q0 201 88.5 289t276.5 86h74v-229h-24q-91 0 -121.5 -35t-30.5 -138v-239q0 -132 -40.5 -195.5t-144.5 -102.5v-2q104 -39 144.5 -102.5t40.5 -195.5v-239q0 -104 30 -138.5t122 -34.5h24v-229h-74q-188 -2 -276.5 86t-88.5 290 v277q0 110 -30.5 153t-116.5 71z" />
<glyph unicode="|" horiz-adv-x="503" d="M120 -206v1852h263v-1852h-263z" />
<glyph unicode="}" horiz-adv-x="770" d="M686 676v-126q-86 -28 -116.5 -71t-30.5 -153v-277q0 -202 -88.5 -290t-277.5 -86h-73v229h23q92 0 122 34.5t30 138.5v239q0 132 40.5 195.5t145.5 102.5v2q-105 39 -145.5 102.5t-40.5 195.5v239q0 103 -30.5 138t-121.5 35h-23v229h73q189 2 277.5 -86t88.5 -289v-278 q0 -110 30.5 -153t116.5 -71z" />
<glyph unicode="&#xa2;" horiz-adv-x="1242" d="M497 213v192q-192 39 -302 184.5t-110 357.5v2q0 212 110 356.5t302 184.5v191h282v-194q155 -34 252 -135t125 -246h-301q-19 86 -76.5 131t-144.5 45q-107 0 -170.5 -89t-63.5 -244v-2q0 -155 63.5 -244.5t170.5 -89.5q87 0 144.5 45.5t76.5 131.5h301 q-28 -146 -124.5 -247t-252.5 -135v-195h-282z" />
<glyph unicode="&#xa3;" horiz-adv-x="1361" d="M96 602v234h173q-55 133 -55 243v2q0 196 141.5 308.5t375.5 112.5q104 0 191 -23.5t159.5 -73t120.5 -135t64 -201.5h-317q-28 191 -222 191q-91 0 -143 -48.5t-52 -139.5v-3q0 -100 55 -230l1 -3h404v-234h-315q7 -42 7 -75v-4q0 -81 -38 -150t-101 -112h705v-261 h-1114v251q224 68 224 281v3q0 30 -5 67h-259z" />
<glyph unicode="&#xa8;" horiz-adv-x="833" d="M294 1239h-241v231h241v-231zM780 1239h-241v231h241v-231z" />
<glyph unicode="&#xab;" horiz-adv-x="1249" d="M318 192l-236 373l236 372h315l-229 -372l229 -373h-315zM812 192l-236 373l236 372h315l-229 -372l229 -373h-315z" />
<glyph unicode="&#xad;" horiz-adv-x="839" d="M100 391v261h639v-261h-639z" />
<glyph unicode="&#xb4;" horiz-adv-x="731" d="M681 1470l-313 -258h-318l263 258h368z" />
<glyph unicode="&#xb8;" horiz-adv-x="487" d="M437 -96l-122 -242h-264l163 242h223z" />
<glyph unicode="&#xbb;" horiz-adv-x="1249" d="M1167 565l-236 -373h-315l229 373l-229 372h315zM674 565l-236 -373h-316l229 373l-229 372h316z" />
<glyph unicode="&#xc2;" horiz-adv-x="1541" d="M356 1630l290 268h249l290 -268h-265l-149 133l-150 -133h-265zM30 0l546 1470h389l546 -1470h-330l-130 372h-570l-128 -372h-323zM569 629h394l-196 565h-3z" />
<glyph unicode="&#xce;" horiz-adv-x="623" d="M-103 1630l290 268h249l291 -268h-265l-150 133l-150 -133h-265zM154 0v1470h315v-1470h-315z" />
<glyph unicode="&#xe2;" horiz-adv-x="1195" d="M212 1212l256 258h241l257 -258h-256l-121 133l-122 -133h-255zM455 -31q-106 0 -193.5 36.5t-140.5 107.5t-53 165v2q0 78 33.5 138t92 100.5t150 68t195.5 42.5t239 23v20q0 104 -47 156t-134 52q-84 0 -130 -41.5t-51 -121.5h-298q16 165 140.5 265t342.5 100 q232 0 356 -109.5t123 -349.5l-2 -300q-2 -208 32 -323h-283q-10 49 -12 136q-113 -167 -360 -167zM786 470q-215 -16 -310 -53.5t-95 -122.5v-2q0 -61 45.5 -96.5t122.5 -35.5q108 0 172.5 65t64.5 192v53z" />
<glyph unicode="&#xee;" horiz-adv-x="563" d="M-95 1212l256 258h241l257 -258h-256l-121 133l-122 -133h-255zM130 0v1042h303v-1042h-303z" />
<glyph unicode="&#x100;" horiz-adv-x="1541" d="M443 1718v180h655v-180h-655zM30 0l546 1470h389l546 -1470h-330l-130 372h-570l-128 -372h-323zM569 629h394l-196 565h-3z" />
<glyph unicode="&#x101;" horiz-adv-x="1195" d="M262 1290v180h654v-180h-654zM455 -31q-106 0 -193.5 36.5t-140.5 107.5t-53 165v2q0 78 33.5 138t92 100.5t150 68t195.5 42.5t239 23v20q0 104 -47 156t-134 52q-84 0 -130 -41.5t-51 -121.5h-298q16 165 140.5 265t342.5 100q232 0 356 -109.5t123 -349.5l-2 -300 q-2 -208 32 -323h-283q-10 49 -12 136q-113 -167 -360 -167zM786 470q-215 -16 -310 -53.5t-95 -122.5v-2q0 -61 45.5 -96.5t122.5 -35.5q108 0 172.5 65t64.5 192v53z" />
<glyph unicode="&#x102;" horiz-adv-x="1541" d="M425 1898h203q12 -42 50.5 -67t92.5 -25t92 25t50 67h203q-16 -119 -108.5 -187t-236.5 -68q-145 0 -237.5 67.5t-108.5 187.5zM30 0l546 1470h389l546 -1470h-330l-130 372h-570l-128 -372h-323zM569 629h394l-196 565h-3z" />
<glyph unicode="&#x103;" horiz-adv-x="1195" d="M244 1470h202q12 -42 50.5 -67t92.5 -25t92 25t51 67h202q-16 -120 -108.5 -187.5t-236.5 -67.5q-145 0 -237 68t-108 187zM455 -31q-106 0 -193.5 36.5t-140.5 107.5t-53 165v2q0 78 33.5 138t92 100.5t150 68t195.5 42.5t239 23v20q0 104 -47 156t-134 52 q-84 0 -130 -41.5t-51 -121.5h-298q16 165 140.5 265t342.5 100q232 0 356 -109.5t123 -349.5l-2 -300q-2 -208 32 -323h-283q-10 49 -12 136q-113 -167 -360 -167zM786 470q-215 -16 -310 -53.5t-95 -122.5v-2q0 -61 45.5 -96.5t122.5 -35.5q108 0 172.5 65t64.5 192v53z " />
<glyph unicode="&#x104;" horiz-adv-x="1541" d="M30 0l546 1470h389l546 -1470q-38 -23 -60 -58.5t-22 -71.5q0 -33 20.5 -52t54.5 -19q26 0 61 12l82 -146q-81 -53 -204 -53q-118 0 -189.5 55t-71.5 147q0 94 90 186h-91l-130 372h-570l-128 -372h-323zM569 629h394l-196 565h-3z" />
<glyph unicode="&#x105;" horiz-adv-x="1195" d="M455 -31q-106 0 -193.5 36.5t-140.5 107.5t-53 165v2q0 78 33.5 138t92 100.5t150 68t195.5 42.5t239 23v20q0 104 -47 156t-134 52q-84 0 -130 -41.5t-51 -121.5h-298q16 165 140.5 265t342.5 100q232 0 356 -109.5t123 -349.5l-2 -300q-2 -208 32 -323 q-38 -23 -60 -58.5t-22 -71.5q0 -33 20 -52t55 -19q27 0 60 12l83 -146q-81 -53 -205 -53q-118 0 -189.5 55t-71.5 147q0 93 90 186h-43q-10 49 -12 136q-113 -167 -360 -167zM786 470q-215 -16 -310 -53.5t-95 -122.5v-2q0 -61 45.5 -96.5t122.5 -35.5q108 0 172.5 65 t64.5 192v53z" />
<glyph unicode="&#x106;" horiz-adv-x="1601" d="M995 1670h-318l228 228h373zM831 -31q-223 0 -394.5 95.5t-265.5 269.5t-94 400v2q0 226 94 400t265.5 269.5t394.5 95.5q275 0 459 -136.5t239 -384.5h-323q-40 130 -139.5 195.5t-236.5 65.5q-194 0 -308.5 -136.5t-114.5 -368.5v-2q0 -232 114.5 -368.5t308.5 -136.5 q137 0 236.5 65.5t139.5 196.5h323q-55 -248 -239 -385t-459 -137z" />
<glyph unicode="&#x107;" d="M1089 1470l-313 -258h-317l263 258h367zM629 -31q-249 0 -396.5 153t-147.5 401v2q0 248 147.5 401t396.5 153q220 0 357 -108.5t170 -288.5h-301q-19 86 -76.5 131.5t-144.5 45.5q-107 0 -170.5 -89.5t-63.5 -244.5v-2q0 -155 63.5 -244t170.5 -89q87 0 144.5 45 t76.5 131h301q-33 -180 -170 -288.5t-357 -108.5z" />
<glyph unicode="&#x108;" horiz-adv-x="1601" d="M389 1630l290 268h249l290 -268h-265l-149 133l-150 -133h-265zM831 -31q-223 0 -394.5 95.5t-265.5 269.5t-94 400v2q0 226 94 400t265.5 269.5t394.5 95.5q275 0 459 -136.5t239 -384.5h-323q-40 130 -139.5 195.5t-236.5 65.5q-194 0 -308.5 -136.5t-114.5 -368.5v-2 q0 -232 114.5 -368.5t308.5 -136.5q137 0 236.5 65.5t139.5 196.5h323q-55 -248 -239 -385t-459 -137z" />
<glyph unicode="&#x109;" d="M242 1212l256 258h241l257 -258h-256l-121 133l-122 -133h-255zM629 -31q-249 0 -396.5 153t-147.5 401v2q0 248 147.5 401t396.5 153q220 0 357 -108.5t170 -288.5h-301q-19 86 -76.5 131.5t-144.5 45.5q-107 0 -170.5 -89.5t-63.5 -244.5v-2q0 -155 63.5 -244 t170.5 -89q87 0 144.5 45t76.5 131h301q-33 -180 -170 -288.5t-357 -108.5z" />
<glyph unicode="&#x10a;" horiz-adv-x="1601" d="M931 1676h-255v222h255v-222zM831 -31q-223 0 -394.5 95.5t-265.5 269.5t-94 400v2q0 226 94 400t265.5 269.5t394.5 95.5q275 0 459 -136.5t239 -384.5h-323q-40 130 -139.5 195.5t-236.5 65.5q-194 0 -308.5 -136.5t-114.5 -368.5v-2q0 -232 114.5 -368.5t308.5 -136.5 q137 0 236.5 65.5t139.5 196.5h323q-55 -248 -239 -385t-459 -137z" />
<glyph unicode="&#x10b;" d="M739 1239h-241v231h241v-231zM629 -31q-249 0 -396.5 153t-147.5 401v2q0 248 147.5 401t396.5 153q220 0 357 -108.5t170 -288.5h-301q-19 86 -76.5 131.5t-144.5 45.5q-107 0 -170.5 -89.5t-63.5 -244.5v-2q0 -155 63.5 -244t170.5 -89q87 0 144.5 45t76.5 131h301 q-33 -180 -170 -288.5t-357 -108.5z" />
<glyph unicode="&#x10c;" horiz-adv-x="1601" d="M389 1898h265l150 -133l149 133h265l-290 -268h-249zM831 -31q-223 0 -394.5 95.5t-265.5 269.5t-94 400v2q0 226 94 400t265.5 269.5t394.5 95.5q275 0 459 -136.5t239 -384.5h-323q-40 130 -139.5 195.5t-236.5 65.5q-194 0 -308.5 -136.5t-114.5 -368.5v-2 q0 -232 114.5 -368.5t308.5 -136.5q137 0 236.5 65.5t139.5 196.5h323q-55 -248 -239 -385t-459 -137z" />
<glyph unicode="&#x10d;" d="M498 1212l-256 258h255l122 -133l121 133h256l-257 -258h-241zM629 -31q-249 0 -396.5 153t-147.5 401v2q0 248 147.5 401t396.5 153q220 0 357 -108.5t170 -288.5h-301q-19 86 -76.5 131.5t-144.5 45.5q-107 0 -170.5 -89.5t-63.5 -244.5v-2q0 -155 63.5 -244t170.5 -89 q87 0 144.5 45t76.5 131h301q-33 -180 -170 -288.5t-357 -108.5z" />
<glyph unicode="&#x10e;" horiz-adv-x="1547" d="M147 1898h265l150 -133l149 133h265l-290 -268h-249zM154 0v1470h525q169 0 312 -46.5t250.5 -135.5t168.5 -231t61 -323v-2q0 -177 -61 -317.5t-168.5 -230.5t-251 -137t-311.5 -47h-525zM469 256h202q227 0 348.5 121t121.5 355v2q0 235 -121.5 357.5t-348.5 122.5 h-202v-958z" />
<glyph unicode="&#x10f;" horiz-adv-x="1586" d="M543 -31q-89 0 -171 37t-146.5 105t-102.5 174t-38 235v2q0 129 38 235t102.5 174t146.5 105t171 37q116 0 203 -43.5t131 -117.5v558h304v-1470h-304v130q-44 -74 -131 -117.5t-203 -43.5zM1331 1470h253v-328h-253v328zM645 193q108 0 174.5 87t66.5 240v2 q0 153 -66.5 240.5t-174.5 87.5q-109 0 -175 -87.5t-66 -240.5v-2q0 -153 66 -240t175 -87z" />
<glyph unicode="&#x110;" horiz-adv-x="1547" d="M154 0v633h-157v204h157v633h525q169 0 312 -46.5t250.5 -135.5t168.5 -231t61 -323v-2q0 -177 -61 -317.5t-168.5 -230.5t-251 -137t-311.5 -47h-525zM469 256h202q227 0 348.5 121t121.5 355v2q0 235 -121.5 357.5t-348.5 122.5h-202v-377h334v-204h-334v-377z" />
<glyph unicode="&#x111;" horiz-adv-x="1310" d="M543 -31q-89 0 -171 37t-146.5 105t-102.5 174t-38 235v2q0 129 38 235t102.5 174t146.5 105t171 37q116 0 203 -43.5t131 -117.5v283h-339v157h339v118h304v-118h112v-157h-112v-1195h-304v130q-44 -74 -131 -117.5t-203 -43.5zM645 193q108 0 174.5 87t66.5 240v2 q0 153 -66.5 240.5t-174.5 87.5q-109 0 -175 -87.5t-66 -240.5v-2q0 -153 66 -240t175 -87z" />
<glyph unicode="&#x112;" horiz-adv-x="1301" d="M340 1718v180h654v-180h-654zM154 0v1470h1021v-261h-706v-338h637v-260h-637v-350h711v-261h-1026z" />
<glyph unicode="&#x113;" horiz-adv-x="1275" d="M308 1290v180h654v-180h-654zM645 -31q-259 0 -409.5 153t-150.5 403v2q0 165 72.5 291.5t198 193.5t282.5 67q138 0 246.5 -47.5t176.5 -132.5t101 -200.5t27 -252.5v-1h-792q13 -122 81 -190.5t174 -68.5q174 0 225 126h298q-43 -154 -180 -248.5t-350 -94.5zM398 638 h481v1q-6 102 -69.5 167.5t-169.5 65.5q-99 0 -162 -57.5t-80 -176.5z" />
<glyph unicode="&#x114;" horiz-adv-x="1301" d="M322 1898h202q12 -42 50.5 -67t92.5 -25t92.5 25t50.5 67h202q-16 -120 -108.5 -187.5t-236.5 -67.5t-236.5 67.5t-108.5 187.5zM154 0v1470h1021v-261h-706v-338h637v-260h-637v-350h711v-261h-1026z" />
<glyph unicode="&#x115;" horiz-adv-x="1275" d="M290 1470h202q12 -42 50.5 -67t92.5 -25t92 25t51 67h202q-16 -120 -108.5 -187.5t-236.5 -67.5q-145 0 -237 68t-108 187zM645 -31q-259 0 -409.5 153t-150.5 403v2q0 165 72.5 291.5t198 193.5t282.5 67q138 0 246.5 -47.5t176.5 -132.5t101 -200.5t27 -252.5v-1h-792 q13 -122 81 -190.5t174 -68.5q174 0 225 126h298q-43 -154 -180 -248.5t-350 -94.5zM398 638h481v1q-6 102 -69.5 167.5t-169.5 65.5q-99 0 -162 -57.5t-80 -176.5z" />
<glyph unicode="&#x116;" horiz-adv-x="1301" d="M795 1676h-255v222h255v-222zM154 0v1470h1021v-261h-706v-338h637v-260h-637v-350h711v-261h-1026z" />
<glyph unicode="&#x117;" horiz-adv-x="1275" d="M756 1239h-242v231h242v-231zM645 -31q-259 0 -409.5 153t-150.5 403v2q0 165 72.5 291.5t198 193.5t282.5 67q138 0 246.5 -47.5t176.5 -132.5t101 -200.5t27 -252.5v-1h-792q13 -122 81 -190.5t174 -68.5q174 0 225 126h298q-43 -154 -180 -248.5t-350 -94.5zM398 638 h481v1q-6 102 -69.5 167.5t-169.5 65.5q-99 0 -162 -57.5t-80 -176.5z" />
<glyph unicode="&#x118;" horiz-adv-x="1301" d="M154 0v1470h1021v-261h-706v-338h637v-260h-637v-350h711v-261h-217q-38 -23 -60 -58.5t-22 -71.5q0 -33 20.5 -52t54.5 -19q27 0 61 12l82 -146q-81 -53 -204 -53q-118 0 -189.5 55t-71.5 147q0 94 90 186h-570z" />
<glyph unicode="&#x119;" horiz-adv-x="1275" d="M912 -189l82 -146q-81 -53 -204 -53q-118 0 -189.5 55t-71.5 147q0 81 63 156q-236 16 -371.5 167t-135.5 388v2q0 165 72.5 291.5t198 193.5t282.5 67q138 0 246.5 -47.5t176.5 -132.5t101 -200.5t27 -252.5v-1h-792q13 -122 81 -190.5t174 -68.5q174 0 225 126h298 q-31 -110 -112.5 -192.5t-206.5 -121.5q-37 -22 -58.5 -57t-21.5 -71q0 -33 20.5 -52t54.5 -19q28 0 61 12zM398 638h481v1q-6 102 -69.5 167.5t-169.5 65.5q-99 0 -162 -57.5t-80 -176.5z" />
<glyph unicode="&#x11a;" horiz-adv-x="1301" d="M252 1898h265l150 -133l150 133h265l-291 -268h-249zM154 0v1470h1021v-261h-706v-338h637v-260h-637v-350h711v-261h-1026z" />
<glyph unicode="&#x11b;" horiz-adv-x="1275" d="M514 1212l-256 258h255l122 -133l121 133h256l-257 -258h-241zM645 -31q-259 0 -409.5 153t-150.5 403v2q0 165 72.5 291.5t198 193.5t282.5 67q138 0 246.5 -47.5t176.5 -132.5t101 -200.5t27 -252.5v-1h-792q13 -122 81 -190.5t174 -68.5q174 0 225 126h298 q-43 -154 -180 -248.5t-350 -94.5zM398 638h481v1q-6 102 -69.5 167.5t-169.5 65.5q-99 0 -162 -57.5t-80 -176.5z" />
<glyph unicode="&#x11c;" horiz-adv-x="1690" d="M392 1630l290 268h249l290 -268h-265l-149 133l-150 -133h-265zM816 -31q-161 0 -298 54.5t-234 153.5t-152 242.5t-55 314.5v2q0 226 94 400t265.5 269.5t394.5 95.5q273 0 457.5 -127.5t240.5 -357.5h-323q-39 110 -136.5 167.5t-229.5 57.5q-200 0 -316.5 -136 t-116.5 -369v-2q0 -238 116 -374.5t317 -136.5q170 0 280.5 91.5t110.5 246.5v7h-437v238h741v-806h-233l-5 191q-65 -97 -190.5 -159.5t-290.5 -62.5z" />
<glyph unicode="&#x11d;" horiz-adv-x="1314" d="M258 1212l256 258h241l257 -258h-256l-121 133l-122 -133h-255zM551 26q-91 0 -174 34.5t-148.5 99t-104.5 165t-39 223.5v2q0 123 39 224t104.5 165t148.5 99t174 35q113 0 199 -41t131 -110v120h303v-936q0 -138 -40.5 -239.5t-115.5 -160.5t-171.5 -86.5t-218.5 -27.5 q-214 0 -351.5 97.5t-166.5 268.5h294q16 -73 76.5 -116.5t153.5 -43.5q108 0 172.5 64.5t64.5 201.5v113q-45 -69 -131 -110t-199 -41zM646 249q109 0 176 80t67 219v2q0 140 -67 220t-176 80t-176 -80t-67 -220v-2q0 -139 67 -219t176 -80z" />
<glyph unicode="&#x11e;" horiz-adv-x="1690" d="M462 1898h202q12 -42 50.5 -67t92.5 -25t92 25t51 67h202q-16 -120 -108.5 -187.5t-236.5 -67.5q-145 0 -237 68t-108 187zM816 -31q-161 0 -298 54.5t-234 153.5t-152 242.5t-55 314.5v2q0 226 94 400t265.5 269.5t394.5 95.5q273 0 457.5 -127.5t240.5 -357.5h-323 q-39 110 -136.5 167.5t-229.5 57.5q-200 0 -316.5 -136t-116.5 -369v-2q0 -238 116 -374.5t317 -136.5q170 0 280.5 91.5t110.5 246.5v7h-437v238h741v-806h-233l-5 191q-65 -97 -190.5 -159.5t-290.5 -62.5z" />
<glyph unicode="&#x11f;" horiz-adv-x="1314" d="M290 1470h202q12 -42 50.5 -67t92.5 -25t92 25t51 67h202q-16 -120 -108.5 -187.5t-236.5 -67.5q-145 0 -237 68t-108 187zM551 26q-91 0 -174 34.5t-148.5 99t-104.5 165t-39 223.5v2q0 123 39 224t104.5 165t148.5 99t174 35q113 0 199 -41t131 -110v120h303v-936 q0 -138 -40.5 -239.5t-115.5 -160.5t-171.5 -86.5t-218.5 -27.5q-214 0 -351.5 97.5t-166.5 268.5h294q16 -73 76.5 -116.5t153.5 -43.5q108 0 172.5 64.5t64.5 201.5v113q-45 -69 -131 -110t-199 -41zM646 249q109 0 176 80t67 219v2q0 140 -67 220t-176 80t-176 -80 t-67 -220v-2q0 -139 67 -219t176 -80z" />
<glyph unicode="&#x120;" horiz-adv-x="1690" d="M934 1676h-255v222h255v-222zM816 -31q-161 0 -298 54.5t-234 153.5t-152 242.5t-55 314.5v2q0 226 94 400t265.5 269.5t394.5 95.5q273 0 457.5 -127.5t240.5 -357.5h-323q-39 110 -136.5 167.5t-229.5 57.5q-200 0 -316.5 -136t-116.5 -369v-2q0 -238 116 -374.5 t317 -136.5q170 0 280.5 91.5t110.5 246.5v7h-437v238h741v-806h-233l-5 191q-65 -97 -190.5 -159.5t-290.5 -62.5z" />
<glyph unicode="&#x121;" horiz-adv-x="1314" d="M756 1239h-242v231h242v-231zM551 26q-91 0 -174 34.5t-148.5 99t-104.5 165t-39 223.5v2q0 123 39 224t104.5 165t148.5 99t174 35q113 0 199 -41t131 -110v120h303v-936q0 -138 -40.5 -239.5t-115.5 -160.5t-171.5 -86.5t-218.5 -27.5q-214 0 -351.5 97.5t-166.5 268.5 h294q16 -73 76.5 -116.5t153.5 -43.5q108 0 172.5 64.5t64.5 201.5v113q-45 -69 -131 -110t-199 -41zM646 249q109 0 176 80t67 219v2q0 140 -67 220t-176 80t-176 -80t-67 -220v-2q0 -139 67 -219t176 -80z" />
<glyph unicode="&#x122;" horiz-adv-x="1690" d="M816 -31q-161 0 -298 54.5t-234 153.5t-152 242.5t-55 314.5v2q0 226 94 400t265.5 269.5t394.5 95.5q273 0 457.5 -127.5t240.5 -357.5h-323q-39 110 -136.5 167.5t-229.5 57.5q-200 0 -316.5 -136t-116.5 -369v-2q0 -238 116 -374.5t317 -136.5q170 0 280.5 91.5 t110.5 246.5v7h-437v238h741v-806h-233l-5 191q-65 -97 -190.5 -159.5t-290.5 -62.5zM940 -96l-163 -242h-223l122 242h264z" />
<glyph unicode="&#x123;" horiz-adv-x="1314" d="M942 1470l-122 -242h-265l164 242h223zM551 26q-91 0 -174 34.5t-148.5 99t-104.5 165t-39 223.5v2q0 123 39 224t104.5 165t148.5 99t174 35q113 0 199 -41t131 -110v120h303v-936q0 -138 -40.5 -239.5t-115.5 -160.5t-171.5 -86.5t-218.5 -27.5q-214 0 -351.5 97.5 t-166.5 268.5h294q16 -73 76.5 -116.5t153.5 -43.5q108 0 172.5 64.5t64.5 201.5v113q-45 -69 -131 -110t-199 -41zM646 249q109 0 176 80t67 219v2q0 140 -67 220t-176 80t-176 -80t-67 -220v-2q0 -139 67 -219t176 -80z" />
<glyph unicode="&#x124;" horiz-adv-x="1539" d="M356 1630l290 268h248l291 -268h-265l-150 133l-149 -133h-265zM154 0v1470h315v-592h602v592h315v-1470h-315v599h-602v-599h-315z" />
<glyph unicode="&#x125;" d="M-96 1640l256 258h242l256 -258h-255l-122 133l-121 -133h-256zM130 0v1470h303v-547q113 150 317 150q188 0 281.5 -113t93.5 -320v-640h-303v580q0 260 -195 260q-194 0 -194 -260v-580h-303z" />
<glyph unicode="&#x126;" horiz-adv-x="1539" d="M154 0v1072h-150v204h150v194h315v-194h602v194h315v-194h150v-204h-150v-1072h-315v599h-602v-599h-315zM469 878h602v194h-602v-194z" />
<glyph unicode="&#x127;" d="M130 0v1192h-120v156h120v122h303v-122h332v-156h-332v-269q113 150 317 150q188 0 281.5 -113t93.5 -320v-640h-303v580q0 260 -195 260q-194 0 -194 -260v-580h-303z" />
<glyph unicode="&#x128;" horiz-adv-x="623" d="M484 1907h175q0 -112 -56 -182.5t-145 -70.5q-46 0 -97.5 20t-94 40t-67.5 20q-59 0 -60 -78h-176q0 111 56 181.5t145 70.5q47 0 97.5 -20t93 -39.5t68.5 -19.5q59 0 61 78zM154 0v1470h315v-1470h-315z" />
<glyph unicode="&#x129;" horiz-adv-x="563" d="M454 1481h175q0 -112 -56 -182.5t-145 -70.5q-46 0 -97.5 20t-94 40t-67.5 20q-59 0 -60 -78h-176q0 111 56 181.5t145 70.5q47 0 97.5 -20t93 -39.5t68.5 -19.5q59 0 61 78zM130 0v1042h303v-1042h-303z" />
<glyph unicode="&#x12a;" horiz-adv-x="623" d="M-15 1718v180h654v-180h-654zM154 0v1470h315v-1470h-315z" />
<glyph unicode="&#x12b;" horiz-adv-x="563" d="M-46 1290v180h655v-180h-655zM130 0v1042h303v-1042h-303z" />
<glyph unicode="&#x12e;" horiz-adv-x="623" d="M154 0v1470h315v-1470h-37q-38 -23 -60.5 -58.5t-22.5 -71.5q0 -33 20.5 -52t54.5 -19q28 0 61 12l82 -146q-81 -53 -204 -53q-118 0 -189.5 55t-71.5 147q0 94 90 186h-38z" />
<glyph unicode="&#x12f;" horiz-adv-x="563" d="M130 1200v270h303v-270h-303zM130 0v1042h303v-1042h-32q-38 -23 -60 -58.5t-22 -71.5q0 -33 20.5 -52t54.5 -19q26 0 61 12l82 -146q-81 -53 -204 -53q-118 0 -189.5 55t-71.5 147q0 94 90 186h-32z" />
<glyph unicode="&#x130;" horiz-adv-x="623" d="M440 1676h-255v222h255v-222zM154 0v1470h315v-1470h-315z" />
<glyph unicode="&#x131;" horiz-adv-x="563" d="M130 0v1042h303v-1042h-303z" />
<glyph unicode="&#x132;" horiz-adv-x="1813" d="M154 0v1470h315v-1470h-315zM1163 -31q-239 0 -374.5 128.5t-135.5 359.5h318q0 -119 52 -176.5t143 -57.5t142.5 57.5t51.5 176.5v1013h313v-1013q0 -231 -136 -359.5t-374 -128.5z" />
<glyph unicode="&#x133;" horiz-adv-x="1125" d="M130 1200v270h303v-270h-303zM693 1200v270h303v-270h-303zM130 0v1042h303v-1042h-303zM526 -385v235h34q77 0 105 27.5t28 114.5v1050h303v-1067q0 -196 -91 -278t-307 -82h-72z" />
<glyph unicode="&#x134;" horiz-adv-x="1190" d="M479 1630l290 268h249l291 -268h-265l-150 133l-150 -133h-265zM540 -31q-239 0 -374.5 128.5t-135.5 359.5h319q0 -119 52 -176.5t143 -57.5q90 0 141.5 57.5t51.5 176.5v1013h314v-1013q0 -231 -136 -359.5t-375 -128.5z" />
<glyph unicode="&#x135;" horiz-adv-x="563" d="M-96 1212l257 258h241l257 -258h-256l-121 133l-122 -133h-256zM-36 -385v235h33q77 0 105 27.5t28 114.5v1050h303v-1067q0 -196 -91 -278t-307 -82h-71z" />
<glyph unicode="&#x136;" horiz-adv-x="1450" d="M154 0v1470h315v-614l557 614h384l-655 -717l679 -753h-407l-558 613v-613h-315zM927 -96l-163 -242h-223l122 242h264z" />
<glyph unicode="&#x137;" horiz-adv-x="1251" d="M130 0v1470h303v-840l409 412h353l-484 -500l520 -542h-391l-407 411v-411h-303zM814 -96l-163 -242h-223l122 242h264z" />
<glyph unicode="&#x139;" horiz-adv-x="1162" d="M503 1670h-318l229 228h373zM154 0v1470h315v-1209h643v-261h-958z" />
<glyph unicode="&#x13a;" horiz-adv-x="563" d="M752 1898l-313 -258h-318l264 258h367zM130 0v1470h303v-1470h-303z" />
<glyph unicode="&#x13b;" horiz-adv-x="1162" d="M154 0v1470h315v-1209h643v-261h-958zM767 -96l-164 -242h-223l122 242h265z" />
<glyph unicode="&#x13c;" horiz-adv-x="563" d="M130 0v1470h303v-1470h-303zM415 -96l-163 -242h-223l122 242h264z" />
<glyph unicode="&#x13d;" horiz-adv-x="1162" d="M676 1670h254v-328h-254v328zM154 0v1470h315v-1209h643v-261h-958z" />
<glyph unicode="&#x13e;" horiz-adv-x="838" d="M130 0v1470h303v-1470h-303zM583 1470h254v-328h-254v328z" />
<glyph unicode="&#x13f;" horiz-adv-x="1177" d="M154 0v1470h315v-1209h643v-261h-958zM976 708h-314v316h314v-316z" />
<glyph unicode="&#x140;" horiz-adv-x="919" d="M130 0v1470h303v-1470h-303zM898 578h-315v316h315v-316z" />
<glyph unicode="&#x143;" horiz-adv-x="1539" d="M961 1670h-318l229 228h372zM154 0v1470h402l537 -1075h2l-6 353v722h297v-1470h-406l-534 1075h-2l7 -353v-722h-297z" />
<glyph unicode="&#x144;" d="M1098 1470l-313 -258h-318l263 258h368zM130 0v1042h303v-119q113 150 317 150q188 0 281.5 -113t93.5 -320v-640h-303v580q0 260 -195 260q-194 0 -194 -260v-580h-303z" />
<glyph unicode="&#x145;" horiz-adv-x="1539" d="M154 0v1470h402l537 -1075h2l-6 353v722h297v-1470h-406l-534 1075h-2l7 -353v-722h-297zM904 -96l-164 -242h-223l122 242h265z" />
<glyph unicode="&#x146;" d="M130 0v1042h303v-119q113 150 317 150q188 0 281.5 -113t93.5 -320v-640h-303v580q0 260 -195 260q-194 0 -194 -260v-580h-303zM761 -96l-163 -242h-223l122 242h264z" />
<glyph unicode="&#x147;" horiz-adv-x="1539" d="M355 1898h265l150 -133l149 133h265l-290 -268h-249zM154 0v1470h402l537 -1075h2l-6 353v722h297v-1470h-406l-534 1075h-2l7 -353v-722h-297z" />
<glyph unicode="&#x148;" d="M506 1212l-256 258h256l121 -133l122 133h255l-256 -258h-242zM130 0v1042h303v-119q113 150 317 150q188 0 281.5 -113t93.5 -320v-640h-303v580q0 260 -195 260q-194 0 -194 -260v-580h-303z" />
<glyph unicode="&#x149;" d="M422 1470l-106 -328h-303l132 328h277zM130 0v1042h303v-119q113 150 317 150q188 0 281.5 -113t93.5 -320v-640h-303v580q0 260 -195 260q-194 0 -194 -260v-580h-303z" />
<glyph unicode="&#x14c;" horiz-adv-x="1687" d="M516 1718v180h655v-180h-655zM843 -31q-225 0 -399.5 96t-270.5 270.5t-96 399.5v2q0 225 96 399t270.5 269.5t399.5 95.5q226 0 400.5 -95.5t271 -269.5t96.5 -399v-2q0 -225 -96.5 -399.5t-271 -270.5t-400.5 -96zM843 229q198 0 317.5 137t119.5 369v2 q0 231 -119.5 367.5t-317.5 136.5t-317 -136.5t-119 -367.5v-2q0 -232 119 -369t317 -137z" />
<glyph unicode="&#x14d;" horiz-adv-x="1286" d="M316 1290v180h655v-180h-655zM643 -31q-256 0 -407 153t-151 401v2q0 248 151 401t407 153t407.5 -153t151.5 -401v-2q0 -248 -151.5 -401t-407.5 -153zM643 190q119 0 181.5 89t62.5 244v2q0 155 -62.5 244.5t-181.5 89.5t-181 -89.5t-62 -244.5v-2q0 -155 62 -244 t181 -89z" />
<glyph unicode="&#x14e;" horiz-adv-x="1687" d="M498 1898h203q12 -42 50.5 -67t92.5 -25t92 25t50 67h203q-16 -119 -108.5 -187t-236.5 -68q-145 0 -237.5 67.5t-108.5 187.5zM843 -31q-225 0 -399.5 96t-270.5 270.5t-96 399.5v2q0 225 96 399t270.5 269.5t399.5 95.5q226 0 400.5 -95.5t271 -269.5t96.5 -399v-2 q0 -225 -96.5 -399.5t-271 -270.5t-400.5 -96zM843 229q198 0 317.5 137t119.5 369v2q0 231 -119.5 367.5t-317.5 136.5t-317 -136.5t-119 -367.5v-2q0 -232 119 -369t317 -137z" />
<glyph unicode="&#x14f;" horiz-adv-x="1286" d="M298 1470h203q12 -42 50 -67t92 -25t92.5 25t50.5 67h202q-16 -119 -108 -187t-237 -68q-144 0 -236.5 68t-108.5 187zM643 -31q-256 0 -407 153t-151 401v2q0 248 151 401t407 153t407.5 -153t151.5 -401v-2q0 -248 -151.5 -401t-407.5 -153zM643 190q119 0 181.5 89 t62.5 244v2q0 155 -62.5 244.5t-181.5 89.5t-181 -89.5t-62 -244.5v-2q0 -155 62 -244t181 -89z" />
<glyph unicode="&#x150;" horiz-adv-x="1687" d="M727 1670h-318l228 228h373zM1247 1670h-317l228 228h373zM843 -31q-225 0 -399.5 96t-270.5 270.5t-96 399.5v2q0 225 96 399t270.5 269.5t399.5 95.5q226 0 400.5 -95.5t271 -269.5t96.5 -399v-2q0 -225 -96.5 -399.5t-271 -270.5t-400.5 -96zM843 229q198 0 317.5 137 t119.5 369v2q0 231 -119.5 367.5t-317.5 136.5t-317 -136.5t-119 -367.5v-2q0 -232 119 -369t317 -137z" />
<glyph unicode="&#x151;" horiz-adv-x="1286" d="M816 1470l-292 -258h-292l256 258h328zM1300 1470l-292 -258h-292l256 258h328zM643 -31q-256 0 -407 153t-151 401v2q0 248 151 401t407 153t407.5 -153t151.5 -401v-2q0 -248 -151.5 -401t-407.5 -153zM643 190q119 0 181.5 89t62.5 244v2q0 155 -62.5 244.5 t-181.5 89.5t-181 -89.5t-62 -244.5v-2q0 -155 62 -244t181 -89z" />
<glyph unicode="&#x152;" horiz-adv-x="2434" d="M843 -31q-225 0 -399.5 96t-270.5 270.5t-96 399.5v2q0 225 96 399t270.5 269.5t399.5 95.5q254 0 443 -121v90h1021v-261h-706v-338h636v-260h-634q-2 -10 -2 -15v-335h711v-261h-1026v90q-189 -121 -443 -121zM843 229q198 0 317.5 137t119.5 369v2q0 231 -119.5 367.5 t-317.5 136.5t-317 -136.5t-119 -367.5v-2q0 -232 119 -369t317 -137z" />
<glyph unicode="&#x153;" horiz-adv-x="2074" d="M643 -31q-256 0 -407 153t-151 401v2q0 248 151 401t407 153q252 0 404 -150q155 150 395 150q138 0 246.5 -47.5t176.5 -132.5t101 -200.5t27 -252.5v-1h-792q13 -122 81.5 -190.5t173.5 -68.5q174 0 225 126h298q-43 -154 -180 -248.5t-350 -94.5q-253 0 -404 148 q-151 -148 -402 -148zM1202 638h481v1q-6 102 -69.5 167.5t-169.5 65.5q-99 0 -162 -57.5t-80 -176.5zM643 190q119 0 181.5 89t62.5 244v2q0 155 -62.5 244.5t-181.5 89.5t-181 -89.5t-62 -244.5v-2q0 -155 62 -244t181 -89z" />
<glyph unicode="&#x154;" horiz-adv-x="1431" d="M859 1670h-318l228 228h373zM154 0v1470h562q289 0 441.5 -112.5t152.5 -343.5v-2q0 -164 -86 -270t-242 -152l391 -590h-355l-364 556h-185v-556h-315zM469 813h248q133 0 198 48.5t65 150.5v2q0 102 -65 151t-198 49h-248v-401z" />
<glyph unicode="&#x155;" horiz-adv-x="813" d="M922 1470l-313 -258h-318l264 258h367zM130 0v1042h297v-199q41 97 126.5 155.5t199.5 58.5h20v-291h-71q-132 0 -200.5 -60t-68.5 -204v-502h-303z" />
<glyph unicode="&#x156;" horiz-adv-x="1431" d="M154 0v1470h562q289 0 441.5 -112.5t152.5 -343.5v-2q0 -164 -86 -270t-242 -152l391 -590h-355l-364 556h-185v-556h-315zM469 813h248q133 0 198 48.5t65 150.5v2q0 102 -65 151t-198 49h-248v-401zM897 -96l-163 -242h-223l122 242h264z" />
<glyph unicode="&#x157;" horiz-adv-x="813" d="M130 0v1042h297v-199q41 97 126.5 155.5t199.5 58.5h20v-291h-71q-132 0 -200.5 -60t-68.5 -204v-502h-303zM415 -96l-164 -242h-223l122 242h265z" />
<glyph unicode="&#x158;" horiz-adv-x="1431" d="M253 1898h265l150 -133l149 133h265l-290 -268h-249zM154 0v1470h562q289 0 441.5 -112.5t152.5 -343.5v-2q0 -164 -86 -270t-242 -152l391 -590h-355l-364 556h-185v-556h-315zM469 813h248q133 0 198 48.5t65 150.5v2q0 102 -65 151t-198 49h-248v-401z" />
<glyph unicode="&#x159;" horiz-adv-x="813" d="M331 1212l-257 258h256l122 -133l121 133h256l-257 -258h-241zM130 0v1042h297v-199q41 97 126.5 155.5t199.5 58.5h20v-291h-71q-132 0 -200.5 -60t-68.5 -204v-502h-303z" />
<glyph unicode="&#x15a;" horiz-adv-x="1394" d="M889 1670h-318l228 228h373zM714 -31q-145 0 -260 36t-191 101.5t-121 151t-60 189.5h323q50 -241 317 -241q126 0 200.5 47t74.5 135v1q0 88 -62 131t-195 74l-206 45q-429 93 -429 438v3q0 188 161 304.5t414 116.5q255 0 403 -115.5t179 -324.5h-322q-26 103 -94 152 t-180 49q-109 0 -177 -44.5t-68 -124.5v-2q0 -72 49 -117t149 -69l207 -45q113 -25 196.5 -58.5t152 -84.5t103.5 -125t35 -169v-2q0 -214 -164.5 -333t-434.5 -119z" />
<glyph unicode="&#x15b;" horiz-adv-x="1145" d="M1043 1470l-313 -258h-318l263 258h368zM588 -31q-224 0 -356.5 96.5t-151.5 255.5h297q33 -158 213 -158q79 0 127 29t48 83v1q0 56 -44 83.5t-140 47.5l-167 33q-153 31 -237.5 111t-84.5 204v2q0 142 128.5 232t328.5 90q204 0 328.5 -82.5t151.5 -239.5h-296 q-35 129 -183 129q-70 0 -114 -30t-44 -78v-2q0 -48 35.5 -75t109.5 -42l163 -33q179 -35 272 -109.5t93 -209.5v-2q0 -154 -131.5 -245t-345.5 -91z" />
<glyph unicode="&#x15c;" horiz-adv-x="1394" d="M283 1630l290 268h249l290 -268h-265l-149 133l-150 -133h-265zM714 -31q-145 0 -260 36t-191 101.5t-121 151t-60 189.5h323q50 -241 317 -241q126 0 200.5 47t74.5 135v1q0 88 -62 131t-195 74l-206 45q-429 93 -429 438v3q0 188 161 304.5t414 116.5q255 0 403 -115.5 t179 -324.5h-322q-26 103 -94 152t-180 49q-109 0 -177 -44.5t-68 -124.5v-2q0 -72 49 -117t149 -69l207 -45q113 -25 196.5 -58.5t152 -84.5t103.5 -125t35 -169v-2q0 -214 -164.5 -333t-434.5 -119z" />
<glyph unicode="&#x15d;" horiz-adv-x="1145" d="M195 1212l256 258h242l256 -258h-255l-122 133l-121 -133h-256zM588 -31q-224 0 -356.5 96.5t-151.5 255.5h297q33 -158 213 -158q79 0 127 29t48 83v1q0 56 -44 83.5t-140 47.5l-167 33q-153 31 -237.5 111t-84.5 204v2q0 142 128.5 232t328.5 90q204 0 328.5 -82.5 t151.5 -239.5h-296q-35 129 -183 129q-70 0 -114 -30t-44 -78v-2q0 -48 35.5 -75t109.5 -42l163 -33q179 -35 272 -109.5t93 -209.5v-2q0 -154 -131.5 -245t-345.5 -91z" />
<glyph unicode="&#x15e;" horiz-adv-x="1394" d="M714 -31q-145 0 -260 36t-191 101.5t-121 151t-60 189.5h323q50 -241 317 -241q126 0 200.5 47t74.5 135v1q0 88 -62 131t-195 74l-206 45q-429 93 -429 438v3q0 188 161 304.5t414 116.5q255 0 403 -115.5t179 -324.5h-322q-26 103 -94 152t-180 49q-109 0 -177 -44.5 t-68 -124.5v-2q0 -72 49 -117t149 -69l207 -45q113 -25 196.5 -58.5t152 -84.5t103.5 -125t35 -169v-2q0 -214 -164.5 -333t-434.5 -119zM810 -96l-122 -242h-264l163 242h223z" />
<glyph unicode="&#x15f;" horiz-adv-x="1145" d="M588 -31q-224 0 -356.5 96.5t-151.5 255.5h297q33 -158 213 -158q79 0 127 29t48 83v1q0 56 -44 83.5t-140 47.5l-167 33q-153 31 -237.5 111t-84.5 204v2q0 142 128.5 232t328.5 90q204 0 328.5 -82.5t151.5 -239.5h-296q-35 129 -183 129q-70 0 -114 -30t-44 -78v-2 q0 -48 35.5 -75t109.5 -42l163 -33q179 -35 272 -109.5t93 -209.5v-2q0 -154 -131.5 -245t-345.5 -91zM685 -96l-122 -242h-264l163 242h223z" />
<glyph unicode="&#x160;" horiz-adv-x="1394" d="M283 1898h265l150 -133l149 133h265l-290 -268h-249zM714 -31q-145 0 -260 36t-191 101.5t-121 151t-60 189.5h323q50 -241 317 -241q126 0 200.5 47t74.5 135v1q0 88 -62 131t-195 74l-206 45q-429 93 -429 438v3q0 188 161 304.5t414 116.5q255 0 403 -115.5 t179 -324.5h-322q-26 103 -94 152t-180 49q-109 0 -177 -44.5t-68 -124.5v-2q0 -72 49 -117t149 -69l207 -45q113 -25 196.5 -58.5t152 -84.5t103.5 -125t35 -169v-2q0 -214 -164.5 -333t-434.5 -119z" />
<glyph unicode="&#x161;" horiz-adv-x="1145" d="M451 1212l-256 258h256l121 -133l122 133h255l-256 -258h-242zM588 -31q-224 0 -356.5 96.5t-151.5 255.5h297q33 -158 213 -158q79 0 127 29t48 83v1q0 56 -44 83.5t-140 47.5l-167 33q-153 31 -237.5 111t-84.5 204v2q0 142 128.5 232t328.5 90q204 0 328.5 -82.5 t151.5 -239.5h-296q-35 129 -183 129q-70 0 -114 -30t-44 -78v-2q0 -48 35.5 -75t109.5 -42l163 -33q179 -35 272 -109.5t93 -209.5v-2q0 -154 -131.5 -245t-345.5 -91z" />
<glyph unicode="&#x162;" horiz-adv-x="1334" d="M510 0v1209h-479v261h1273v-261h-480v-1209h-314zM780 -96l-122 -242h-264l163 242h223z" />
<glyph unicode="&#x163;" horiz-adv-x="821" d="M588 0q-216 0 -303 80t-87 265v458h-151v239h151v280h303v-280h223v-239h-223v-410q0 -91 35.5 -122.5t118.5 -31.5h64v-239h-131zM519 -96l-163 -242h-223l122 242h264z" />
<glyph unicode="&#x164;" horiz-adv-x="1334" d="M253 1898h265l150 -133l149 133h265l-290 -268h-249zM510 0v1209h-479v261h1273v-261h-480v-1209h-314z" />
<glyph unicode="&#x165;" horiz-adv-x="925" d="M628 1670h254v-328h-254v328zM588 0q-216 0 -303 80t-87 265v458h-151v239h151v280h303v-280h223v-239h-223v-410q0 -91 35.5 -122.5t118.5 -31.5h64v-239h-131z" />
<glyph unicode="&#x166;" horiz-adv-x="1334" d="M510 0v718h-275v204h275v287h-479v261h1273v-261h-480v-287h276v-204h-276v-718h-314z" />
<glyph unicode="&#x167;" horiz-adv-x="821" d="M588 0q-216 0 -303 80t-87 265v102h-151v149h151v207h-151v239h151v280h303v-280h223v-239h-223v-207h223v-149h-223v-54q0 -91 35.5 -122.5t118.5 -31.5h64v-239h-131z" />
<glyph unicode="&#x168;" horiz-adv-x="1511" d="M928 1907h175q0 -112 -56 -182.5t-145 -70.5q-46 0 -97.5 20t-94.5 40t-68 20q-59 0 -59 -78h-176q0 111 56 181.5t145 70.5q47 0 97.5 -20t93 -39.5t68.5 -19.5q59 0 61 78zM755 -31q-303 0 -457 142.5t-154 457.5v901h315v-899q0 -179 73.5 -260.5t222.5 -81.5 t223.5 81.5t74.5 260.5v899h314v-901q0 -315 -154 -457.5t-458 -142.5z" />
<glyph unicode="&#x169;" d="M781 1481h176q0 -112 -56 -182.5t-145 -70.5q-46 0 -97.5 20t-94.5 40t-68 20q-59 0 -59 -78h-176q0 111 56 181.5t145 70.5q46 0 97 -20t93.5 -39.5t68.5 -19.5q59 0 60 78zM486 -31q-188 0 -281 113.5t-93 320.5v639h303v-579q0 -260 194 -260t194 260v579h304v-1042 h-304v126q-109 -157 -317 -157z" />
<glyph unicode="&#x16a;" horiz-adv-x="1511" d="M428 1718v180h655v-180h-655zM755 -31q-303 0 -457 142.5t-154 457.5v901h315v-899q0 -179 73.5 -260.5t222.5 -81.5t223.5 81.5t74.5 260.5v899h314v-901q0 -315 -154 -457.5t-458 -142.5z" />
<glyph unicode="&#x16b;" d="M282 1290v180h655v-180h-655zM486 -31q-188 0 -281 113.5t-93 320.5v639h303v-579q0 -260 194 -260t194 260v579h304v-1042h-304v126q-109 -157 -317 -157z" />
<glyph unicode="&#x16c;" horiz-adv-x="1511" d="M411 1898h202q12 -42 50.5 -67t92.5 -25t92 25t51 67h202q-16 -119 -108.5 -187t-236.5 -68q-145 0 -237 68t-108 187zM755 -31q-303 0 -457 142.5t-154 457.5v901h315v-899q0 -179 73.5 -260.5t222.5 -81.5t223.5 81.5t74.5 260.5v899h314v-901q0 -315 -154 -457.5 t-458 -142.5z" />
<glyph unicode="&#x16d;" d="M264 1470h203q12 -42 50 -67t92 -25t92.5 25t50.5 67h203q-16 -120 -108.5 -187.5t-237.5 -67.5q-144 0 -236.5 68t-108.5 187zM486 -31q-188 0 -281 113.5t-93 320.5v639h303v-579q0 -260 194 -260t194 260v579h304v-1042h-304v126q-109 -157 -317 -157z" />
<glyph unicode="&#x16e;" horiz-adv-x="1511" d="M528 1847q0 90 69 158t159 68q91 0 159 -67.5t68 -158.5q0 -93 -67 -161.5t-160 -68.5t-160.5 68.5t-67.5 161.5zM652 1847q0 -46 29 -75t75 -29t72.5 27.5t26.5 76.5q0 44 -27 72t-72 28t-74.5 -29t-29.5 -71zM755 -31q-303 0 -457 142.5t-154 457.5v901h315v-899 q0 -179 73.5 -260.5t222.5 -81.5t223.5 81.5t74.5 260.5v899h314v-901q0 -315 -154 -457.5t-458 -142.5z" />
<glyph unicode="&#x16f;" d="M382 1422q0 90 68.5 158t158.5 68q92 0 160 -67.5t68 -158.5q0 -94 -67 -162t-161 -68q-92 0 -159.5 68.5t-67.5 161.5zM506 1422q0 -46 29 -75t75 -29t72.5 27.5t26.5 76.5q0 44 -27 72t-72 28t-74.5 -29t-29.5 -71zM486 -31q-188 0 -281 113.5t-93 320.5v639h303v-579 q0 -260 194 -260t194 260v579h304v-1042h-304v126q-109 -157 -317 -157z" />
<glyph unicode="&#x170;" horiz-adv-x="1511" d="M639 1670h-318l229 228h372zM1160 1670h-318l228 228h373zM755 -31q-303 0 -457 142.5t-154 457.5v901h315v-899q0 -179 73.5 -260.5t222.5 -81.5t223.5 81.5t74.5 260.5v899h314v-901q0 -315 -154 -457.5t-458 -142.5z" />
<glyph unicode="&#x171;" d="M782 1470l-292 -258h-292l256 258h328zM1266 1470l-292 -258h-292l256 258h328zM486 -31q-188 0 -281 113.5t-93 320.5v639h303v-579q0 -260 194 -260t194 260v579h304v-1042h-304v126q-109 -157 -317 -157z" />
<glyph unicode="&#x172;" horiz-adv-x="1511" d="M929 -189l82 -146q-81 -53 -204 -53q-118 0 -189.5 55t-71.5 147q0 83 69 163q-234 29 -352.5 172t-118.5 420v901h315v-899q0 -179 73.5 -260.5t222.5 -81.5t223.5 81.5t74.5 260.5v899h314v-901q0 -293 -133 -436t-395 -162q-46 -46 -46 -101q0 -33 20.5 -52t54.5 -19 q28 0 61 12z" />
<glyph unicode="&#x173;" d="M486 -31q-188 0 -281 113.5t-93 320.5v639h303v-579q0 -260 194 -260t194 260v579h304v-1042h-32q-38 -23 -60 -58.5t-22 -71.5q0 -33 20 -52t54 -19q28 0 61 12l82 -146q-81 -53 -204 -53q-118 0 -189.5 55t-71.5 147q0 93 90 186h-32v126q-109 -157 -317 -157z" />
<glyph unicode="&#x174;" horiz-adv-x="2061" d="M616 1630l290 268h249l291 -268h-265l-150 133l-150 -133h-265zM395 0l-344 1470h321l243 -1141l238 1141h355l238 -1141l242 1141h322l-342 -1470h-386l-251 1185l-249 -1185h-387z" />
<glyph unicode="&#x175;" horiz-adv-x="1797" d="M522 1212l256 258h241l257 -258h-256l-121 133l-122 -133h-255zM354 0l-307 1042h302l201 -743l206 743h285l213 -743l204 743h291l-306 -1042h-328l-221 752l-210 -752h-330z" />
<glyph unicode="&#x176;" horiz-adv-x="1546" d="M359 1630l290 268h249l290 -268h-265l-149 133l-150 -133h-265zM617 0v576l-576 894h346l299 -489l88 -142h2l87 142l296 489h347l-574 -894v-576h-315z" />
<glyph unicode="&#x177;" horiz-adv-x="1244" d="M245 1212l256 258h242l257 -258h-256l-122 133l-121 -133h-256zM272 -385l171 387l-411 1040h314l271 -722h2l299 722h295l-635 -1427h-306z" />
<glyph unicode="&#x178;" horiz-adv-x="1546" d="M662 1677h-255v222h255v-222zM1141 1677h-255v222h255v-222zM617 0v576l-576 894h346l299 -489l88 -142h2l87 142l296 489h347l-574 -894v-576h-315z" />
<glyph unicode="&#x179;" horiz-adv-x="1325" d="M907 1670h-318l229 228h372zM91 0v250l736 959h-704v261h1094v-250l-739 -959h755v-261h-1142z" />
<glyph unicode="&#x17a;" horiz-adv-x="1096" d="M1045 1470l-313 -258h-318l263 258h368zM78 0v230l575 573h-553v239h899v-229l-583 -574h601v-239h-939z" />
<glyph unicode="&#x17b;" horiz-adv-x="1325" d="M843 1676h-255v222h255v-222zM91 0v250l736 959h-704v261h1094v-250l-739 -959h755v-261h-1142z" />
<glyph unicode="&#x17c;" horiz-adv-x="1096" d="M695 1239h-241v231h241v-231zM78 0v230l575 573h-553v239h899v-229l-583 -574h601v-239h-939z" />
<glyph unicode="&#x17d;" horiz-adv-x="1325" d="M301 1898h265l150 -133l149 133h265l-290 -268h-249zM91 0v250l736 959h-704v261h1094v-250l-739 -959h755v-261h-1142z" />
<glyph unicode="&#x17e;" horiz-adv-x="1096" d="M453 1212l-256 258h256l121 -133l122 133h256l-257 -258h-242zM78 0v230l575 573h-553v239h899v-229l-583 -574h601v-239h-939z" />
<glyph unicode="&#x218;" horiz-adv-x="1394" d="M714 -31q-145 0 -260 36t-191 101.5t-121 151t-60 189.5h323q50 -241 317 -241q126 0 200.5 47t74.5 135v1q0 88 -62 131t-195 74l-206 45q-429 93 -429 438v3q0 188 161 304.5t414 116.5q255 0 403 -115.5t179 -324.5h-322q-26 103 -94 152t-180 49q-109 0 -177 -44.5 t-68 -124.5v-2q0 -72 49 -117t149 -69l207 -45q113 -25 196.5 -58.5t152 -84.5t103.5 -125t35 -169v-2q0 -214 -164.5 -333t-434.5 -119zM831 -96l-163 -242h-223l122 242h264z" />
<glyph unicode="&#x219;" horiz-adv-x="1145" d="M588 -31q-224 0 -356.5 96.5t-151.5 255.5h297q33 -158 213 -158q79 0 127 29t48 83v1q0 56 -44 83.5t-140 47.5l-167 33q-153 31 -237.5 111t-84.5 204v2q0 142 128.5 232t328.5 90q204 0 328.5 -82.5t151.5 -239.5h-296q-35 129 -183 129q-70 0 -114 -30t-44 -78v-2 q0 -48 35.5 -75t109.5 -42l163 -33q179 -35 272 -109.5t93 -209.5v-2q0 -154 -131.5 -245t-345.5 -91zM706 -96l-163 -242h-223l122 242h264z" />
<glyph unicode="&#x21a;" horiz-adv-x="1334" d="M510 0v1209h-479v261h1273v-261h-480v-1209h-314zM801 -96l-163 -242h-223l122 242h264z" />
<glyph unicode="&#x21b;" horiz-adv-x="821" d="M588 0q-216 0 -303 80t-87 265v458h-151v239h151v280h303v-280h223v-239h-223v-410q0 -91 35.5 -122.5t118.5 -31.5h64v-239h-131zM519 -96l-163 -242h-223l122 242h264z" />
<glyph unicode="&#x2c6;" horiz-adv-x="854" d="M50 1212l256 258h242l257 -258h-256l-122 133l-121 -133h-256z" />
<glyph unicode="&#x2da;" horiz-adv-x="555" d="M50 1422q0 90 69 158t159 68q92 0 160 -67.5t68 -158.5q0 -93 -67.5 -161.5t-160.5 -68.5t-160.5 68.5t-67.5 161.5zM174 1422q0 -46 29 -75t75 -29t73 27.5t27 76.5q0 44 -27.5 72t-72.5 28t-74.5 -29t-29.5 -71z" />
<glyph unicode="&#x2dc;" horiz-adv-x="796" d="M571 1481h175q0 -112 -56 -182.5t-145 -70.5q-46 0 -97.5 20t-94 40t-67.5 20q-58 0 -60 -78h-176q0 111 56 181.5t145 70.5q47 0 97.5 -20t93 -39.5t68.5 -19.5q60 0 61 78z" />
<glyph unicode="&#x2000;" horiz-adv-x="1036" />
<glyph unicode="&#x2001;" horiz-adv-x="2073" />
<glyph unicode="&#x2002;" horiz-adv-x="1036" />
<glyph unicode="&#x2003;" horiz-adv-x="2073" />
<glyph unicode="&#x2004;" horiz-adv-x="691" />
<glyph unicode="&#x2005;" horiz-adv-x="518" />
<glyph unicode="&#x2006;" horiz-adv-x="345" />
<glyph unicode="&#x2007;" horiz-adv-x="345" />
<glyph unicode="&#x2008;" horiz-adv-x="259" />
<glyph unicode="&#x2009;" horiz-adv-x="414" />
<glyph unicode="&#x200a;" horiz-adv-x="115" />
<glyph unicode="&#x2010;" horiz-adv-x="839" d="M100 391v261h639v-261h-639z" />
<glyph unicode="&#x2011;" horiz-adv-x="839" d="M100 391v261h639v-261h-639z" />
<glyph unicode="&#x2012;" horiz-adv-x="839" d="M100 391v261h639v-261h-639z" />
<glyph unicode="&#x2013;" horiz-adv-x="1221" d="M100 391v261h1021v-261h-1021z" />
<glyph unicode="&#x2014;" horiz-adv-x="2021" d="M100 391v261h1821v-261h-1821z" />
<glyph unicode="&#x2018;" horiz-adv-x="616" d="M547 1470l-144 -538h-314l186 538h272z" />
<glyph unicode="&#x2019;" horiz-adv-x="616" d="M70 932l143 538h315l-187 -538h-271z" />
<glyph unicode="&#x201a;" horiz-adv-x="616" d="M70 -222l143 538h315l-187 -538h-271z" />
<glyph unicode="&#x201c;" horiz-adv-x="1068" d="M547 1470l-144 -538h-314l186 538h272zM999 1470l-144 -538h-314l186 538h272z" />
<glyph unicode="&#x201d;" horiz-adv-x="1068" d="M522 932l144 538h314l-186 -538h-272zM70 932l143 538h315l-187 -538h-271z" />
<glyph unicode="&#x201e;" horiz-adv-x="1068" d="M70 -222l143 538h315l-187 -538h-271zM522 -222l144 538h314l-186 -538h-272z" />
<glyph unicode="&#x2026;" horiz-adv-x="1798" d="M1057 0h-314v316h314v-316zM1657 0h-315v316h315v-316zM458 0h-315v316h315v-316z" />
<glyph unicode="&#x202f;" horiz-adv-x="414" />
<glyph unicode="&#x2039;" horiz-adv-x="755" d="M318 192l-236 373l236 372h315l-229 -372l229 -373h-315z" />
<glyph unicode="&#x203a;" horiz-adv-x="755" d="M674 565l-236 -373h-316l229 373l-229 372h316z" />
<glyph unicode="&#x205f;" horiz-adv-x="518" />
<glyph unicode="&#x20ac;" horiz-adv-x="1638" d="M927 -31q-252 0 -418 136.5t-216 397.5h-268l82 172h167q-1 17 -1 55v11v44h-248l82 172h184q48 266 215 405t421 139q250 0 414 -132t199 -389h-318q-46 261 -297 261q-111 0 -189 -70.5t-110 -213.5h377l-83 -172h-315q0 -7 -0.5 -21.5t-0.5 -21.5v-14q0 -9 0.5 -27 t0.5 -26h398l-83 -172h-292q34 -138 111 -206t186 -68q251 0 297 262h318q-35 -257 -199 -389.5t-414 -132.5z" />
<glyph unicode="&#x25fc;" horiz-adv-x="1040" d="M0 1040h1040v-1040h-1040v1040z" />
</font>
</defs>
</svg>
