<?xml version="1.0" standalone="no"?>
<!DOCTYPE svg PUBLIC "-//W3C//DTD SVG 1.1//EN" "http://www.w3.org/Graphics/SVG/1.1/DTD/svg11.dtd" >
<svg xmlns="http://www.w3.org/2000/svg" xmlns:xlink="http://www.w3.org/1999/xlink" version="1.1">
<metadata></metadata>
<defs>
<font id="antarctica_betathin" horiz-adv-x="444" >
<font-face units-per-em="2000" ascent="1600" descent="-400" />
<missing-glyph horiz-adv-x="471" />
<glyph horiz-adv-x="1000" />
<glyph horiz-adv-x="1000" />
<glyph unicode="&#xd;" horiz-adv-x="0" />
<glyph unicode=" "  horiz-adv-x="471" />
<glyph unicode="&#x09;" horiz-adv-x="471" />
<glyph unicode="&#xa0;" horiz-adv-x="471" />
<glyph unicode="!" horiz-adv-x="512" d="M230 388l-8 549v533h68l-1 -533l-8 -549h-51zM291 0h-69v199h69v-199z" />
<glyph unicode="&#x22;" horiz-adv-x="540" d="M373 1470h67v-76l-8 -366h-52l-7 366v76zM100 1470h67v-76l-8 -366h-52l-7 366v76z" />
<glyph unicode="#" horiz-adv-x="1447" d="M189 979l7 54h280l57 437h57l-57 -437h446l57 437h57l-57 -437h292l-8 -54h-291l-62 -477h291l-7 -54h-291l-59 -448h-56l58 448h-446l-59 -448h-56l58 448h-281l7 54h281l62 477h-280zM464 502h446l62 477h-446z" />
<glyph unicode="$" horiz-adv-x="1261" d="M659 -23h-1v-223h-58v225q-198 13 -328 122t-164 317h69q36 -198 163 -292t321 -94q85 0 160 19t137.5 58t99 105.5t36.5 153.5v2q0 63 -21.5 114.5t-56 87t-88 63.5t-107.5 45.5t-124 32.5l-186 42q-77 17 -139.5 46t-113.5 73t-79 108.5t-28 145.5v2q0 110 64 193.5 t164.5 125t220.5 44.5v223h58v-224q187 -11 306 -110.5t155 -281.5h-69q-38 167 -151 252.5t-287 85.5q-101 0 -189 -34t-145.5 -105.5t-57.5 -166.5v-2q0 -244 308 -313l186 -42q75 -17 134.5 -36.5t120.5 -52.5t101.5 -73.5t66 -101t25.5 -134.5v-2q0 -190 -140.5 -294 t-362.5 -104z" />
<glyph unicode="%" horiz-adv-x="1836" d="M458 661q-151 0 -238 110.5t-87 304.5v2q0 194 87 304.5t238 110.5t238 -110.5t87 -304.5v-2q0 -194 -87 -304.5t-238 -110.5zM568 0l633 1470h63l-633 -1470h-63zM458 709q121 0 194 93t73 274v2q0 181 -73 274t-194 93t-194 -93t-73 -274v-2q0 -181 73 -274t194 -93z M1378 -23q-151 0 -238 110.5t-87 304.5v2q0 194 87 304.5t238 110.5t238 -110.5t87 -304.5v-2q0 -194 -87 -304.5t-238 -110.5zM1378 26q120 0 193 93t73 273v2q0 181 -73 274t-193 93q-121 0 -194 -93t-73 -274v-2q0 -180 73 -273t194 -93z" />
<glyph unicode="&#x26;" horiz-adv-x="1450" d="M1317 0l-230 242q-112 -132 -236 -198.5t-281 -66.5q-196 0 -321 106.5t-125 281.5v2q0 152 102.5 263.5t306.5 195.5q-97 107 -145.5 194.5t-48.5 183.5v1q0 129 87.5 208.5t226.5 79.5q140 0 230.5 -78.5t90.5 -204.5v-2q0 -129 -84 -225.5t-258 -171.5q20 -22 31 -33 l423 -446q132 175 231 376h68q-110 -224 -259 -418l276 -290h-85zM594 852q163 69 238.5 154t75.5 200v2q0 104 -73.5 168.5t-181.5 64.5q-105 0 -177 -62.5t-72 -173.5v-2q0 -87 47.5 -167.5t142.5 -183.5zM1048 283l-443 466q-12 12 -34 36q-189 -75 -284.5 -176.5 t-95.5 -241.5v-1q0 -150 109 -243t275 -93q141 0 255 64t218 189z" />
<glyph unicode="'" horiz-adv-x="267" d="M100 1470h67v-76l-8 -366h-52l-7 366v76z" />
<glyph unicode="(" horiz-adv-x="463" d="M413 1526q-117 -186 -185 -431t-68 -483t68 -482.5t185 -431.5h-59q-110 162 -182 418.5t-72 495.5t72.5 496t181.5 418h59z" />
<glyph unicode=")" horiz-adv-x="463" d="M50 1526h59q109 -161 181.5 -418t72.5 -496t-72 -495.5t-182 -418.5h-59q117 187 185 431.5t68 482.5t-68 483t-185 431z" />
<glyph unicode="*" horiz-adv-x="707" d="M221 987l-39 29l132 182l-214 70l15 46l214 -70v226h49v-226l214 70l15 -46l-214 -70l132 -182l-39 -29l-132 182z" />
<glyph unicode="+" horiz-adv-x="1243" d="M592 764v493h57v-493h494v-57h-494v-494h-57v494h-492v57h492z" />
<glyph unicode="," horiz-adv-x="440" d="M110 -228l131 427h69l-141 -427h-59z" />
<glyph unicode="-" horiz-adv-x="769" d="M100 492v57h569v-57h-569z" />
<glyph unicode="." horiz-adv-x="486" d="M277 0h-69v199h69v-199z" />
<glyph unicode="/" horiz-adv-x="914" d="M120 -206l611 1676h63l-611 -1676h-63z" />
<glyph unicode="0" horiz-adv-x="1350" d="M675 -23q-177 0 -300.5 97.5t-182.5 266t-59 393.5v2q0 225 59 393.5t182.5 266t300.5 97.5t300.5 -97.5t182.5 -266t59 -393.5v-2q0 -225 -59 -393.5t-182.5 -266t-300.5 -97.5zM675 34q229 0 350.5 187.5t121.5 512.5v2q0 325 -121.5 512.5t-350.5 187.5 q-228 0 -350 -187.5t-122 -512.5v-2q0 -325 122 -512.5t350 -187.5z" />
<glyph unicode="1" horiz-adv-x="788" d="M404 0v1224h-321v58h189q32 0 49 1t35 8t26 18t16.5 34t12.5 53t8 79h52v-1475h-67z" />
<glyph unicode="2" horiz-adv-x="1267" d="M131 0v24q0 89 26.5 169t67.5 140.5t104 119t122 99.5t135 85l124 73q155 92 232 184.5t77 224.5v2q0 145 -106 230t-264 85q-77 0 -144.5 -19.5t-126 -61t-95.5 -116.5t-43 -177h-68q12 211 143 321t335 110q122 0 220.5 -42t158.5 -127t60 -201v-2q0 -149 -86.5 -255 t-257.5 -206l-122 -72q-71 -42 -124.5 -78.5t-111 -88t-95 -103.5t-62 -119.5t-24.5 -140.5h927v-58h-1002z" />
<glyph unicode="3" horiz-adv-x="1281" d="M655 -23q-218 0 -357.5 108t-170.5 303h69q30 -173 152 -263.5t307 -90.5q192 0 308 94.5t116 261.5v2q0 110 -61.5 189t-164.5 117t-236 38h-97v55h98q197 0 305.5 95.5t108.5 235.5v2q0 145 -103.5 228.5t-274.5 83.5q-168 0 -271 -87t-127 -252h-69q26 190 148 293 t321 103q201 0 322 -97.5t121 -266.5v-2q0 -141 -90 -236.5t-228 -122.5v-2q74 -13 137.5 -40.5t116 -72t83 -112.5t30.5 -151v-2q0 -192 -136 -301.5t-357 -109.5z" />
<glyph unicode="4" horiz-adv-x="1331" d="M897 0v401h-830v59l830 1010h67v-1010h301v-59h-301v-401h-67zM137 460h760v926h-1z" />
<glyph unicode="5" horiz-adv-x="1260" d="M633 -23q-208 0 -338.5 104.5t-161.5 301.5h69q30 -172 142 -260.5t288 -88.5q180 0 303 117t123 310v2q0 190 -115.5 312.5t-297.5 122.5q-133 0 -234.5 -58t-157.5 -158l-63 13l102 775h773v-58h-716l-86 -644q62 83 161 134.5t234 51.5q207 0 338 -137t131 -353v-2 q0 -145 -66.5 -256.5t-178.5 -170t-249 -58.5z" />
<glyph unicode="6" horiz-adv-x="1275" d="M645 -23q-111 0 -203.5 37.5t-162 110.5t-108 188.5t-38.5 262.5v5q0 450 143.5 681t404.5 231q181 0 291 -92.5t137 -242.5h-66q-28 134 -123.5 206t-242.5 72q-222 0 -346 -202t-129 -598q46 143 166 230t289 87q210 0 347.5 -139t137.5 -349v-2q0 -209 -140 -347.5 t-357 -138.5zM645 34q184 0 306 119.5t122 309.5v2q0 189 -122 310.5t-306 121.5q-181 0 -305 -122t-124 -310v-2q0 -186 119.5 -307.5t309.5 -121.5z" />
<glyph unicode="7" horiz-adv-x="1112" d="M351 0q13 344 89 608.5t206 454t329 349.5h-916v58h994v-58q-310 -241 -462 -572t-173 -840h-67z" />
<glyph unicode="8" horiz-adv-x="1281" d="M640 -23q-228 0 -367.5 111.5t-139.5 299.5v2q0 86 31 156.5t83 116t111 73.5t125 41v2q-132 33 -217.5 121t-85.5 224v2q0 163 128.5 265t331.5 102q204 0 332.5 -102t128.5 -265v-2q0 -136 -85.5 -224t-217.5 -121v-2q52 -10 100 -29.5t94 -52t80 -74.5t54.5 -101.5 t20.5 -129.5v-2q0 -188 -139.5 -299.5t-367.5 -111.5zM640 803q166 0 279 85t113 231v1q0 97 -54 170t-142.5 109.5t-195.5 36.5q-165 0 -278.5 -85.5t-113.5 -230.5v-1q0 -98 54.5 -171t142.5 -109t195 -36zM640 34q197 0 317.5 95.5t120.5 259.5v2q0 164 -120.5 260 t-317.5 96t-317 -95.5t-120 -260.5v-2q0 -164 120 -259.5t317 -95.5z" />
<glyph unicode="9" horiz-adv-x="1275" d="M630 1493q111 0 203.5 -37.5t162 -110.5t108 -188.5t38.5 -262.5v-5q0 -450 -143.5 -681t-404.5 -231q-181 0 -291 92.5t-137 242.5h66q28 -134 123.5 -206t242.5 -72q222 0 346 202t129 598q-46 -143 -166 -230t-289 -87q-210 0 -347.5 139t-137.5 349v2 q0 209 140 347.5t357 138.5zM630 1436q-184 0 -306 -119.5t-122 -309.5v-2q0 -189 122 -310.5t306 -121.5q181 0 305 122t124 310v2q0 186 -119.5 307.5t-309.5 121.5z" />
<glyph unicode=":" horiz-adv-x="486" d="M277 843h-69v199h69v-199zM277 0h-69v199h69v-199z" />
<glyph unicode=";" horiz-adv-x="513" d="M305 843h-69v199h69v-199zM110 -228l131 427h69l-141 -427h-59z" />
<glyph unicode="&#x3c;" horiz-adv-x="1016" d="M100 761l816 428v-65l-744 -389v-2l744 -389v-65l-816 427v55z" />
<glyph unicode="=" horiz-adv-x="1243" d="M100 895v57h1043v-57h-1043zM100 525v57h1043v-57h-1043z" />
<glyph unicode="&#x3e;" horiz-adv-x="1016" d="M100 1189l816 -428v-55l-816 -427v65l744 389v2l-744 389v65z" />
<glyph unicode="?" horiz-adv-x="1033" d="M502 1438q-160 0 -264.5 -99.5t-104.5 -254.5h-68q1 179 123.5 294t313.5 115q200 0 316 -99.5t116 -264.5v-1q0 -101 -44 -184.5t-132 -164.5l-69 -63q-96 -87 -132.5 -155t-36.5 -173h-63q0 118 38 192.5t138 166.5l69 63q83 78 122.5 151t39.5 165v1q0 140 -98 225.5 t-264 85.5zM524 0h-69v199h69v-199z" />
<glyph unicode="@" horiz-adv-x="1733" d="M747 240q-132 0 -216.5 91t-84.5 255v2q0 125 49 235.5t148 183t227 72.5q115 0 188 -61.5t89 -173.5l30 198h47l-79 -522q-16 -107 17.5 -175.5t128.5 -68.5q117 0 205 128.5t87 341.5v2q0 191 -87 329.5t-238 207.5t-348 69q-218 0 -392 -100t-270 -272t-96 -382v-2 q-2 -292 190 -479t495 -187q112 0 225.5 25t198.5 68l18 -43q-91 -45 -209 -70.5t-233 -25.5q-217 0 -385 91.5t-260 253.5t-92 368v2q0 227 106.5 410t291.5 285.5t412 102.5q154 0 284.5 -41t229 -120t154 -204.5t55.5 -284.5v-2q0 -121 -29.5 -221t-79 -163.5t-111 -98 t-126.5 -34.5q-105 0 -152 71.5t-35 185.5q-18 -43 -47 -83t-72 -78.5t-104 -62t-130 -23.5zM759 286q83 0 154 41t116.5 107.5t70.5 147.5t25 165v2q0 133 -66 208t-188 75q-84 0 -155.5 -38.5t-117.5 -102t-71.5 -142.5t-25.5 -163v-2q0 -138 70.5 -218t187.5 -80z" />
<glyph unicode="A" horiz-adv-x="1320" d="M53 0l573 1481h67l574 -1481h-70l-187 487h-703l-187 -487h-67zM329 545h659l-328 855h-3z" />
<glyph unicode="B" horiz-adv-x="1364" d="M217 0v1470h483q206 0 328 -93t122 -273v-2q0 -136 -76 -223.5t-207 -116.5v-2q76 -9 140.5 -34.5t115.5 -68.5t80 -109.5t29 -150.5v-2q0 -199 -132 -297t-357 -98h-526zM284 780h416q170 0 276.5 81t106.5 236v2q0 156 -105.5 235.5t-277.5 79.5h-416v-634zM284 56h460 q204 0 311 87.5t107 253.5v1q0 154 -108.5 240t-309.5 86h-460v-668z" />
<glyph unicode="C" horiz-adv-x="1579" d="M823 -23q-207 0 -368.5 98t-248.5 270t-87 389v2q0 217 87 389t248.5 270t368.5 98q241 0 410 -118.5t227 -333.5h-69q-54 189 -208 291.5t-361 102.5q-186 0 -331 -90t-223.5 -249t-78.5 -360v-2q0 -201 78.5 -360t223.5 -249t331 -90q207 0 361 102.5t208 291.5h69 q-58 -215 -227 -333.5t-410 -118.5z" />
<glyph unicode="D" horiz-adv-x="1479" d="M217 0v1470h322q137 0 257.5 -26t225 -83t179 -141.5t117 -208t42.5 -276.5v-2q0 -152 -42.5 -275.5t-117 -207.5t-179 -141t-225 -83t-257.5 -26h-322zM284 57h254q116 0 220.5 20.5t203.5 70t170.5 125t114.5 193.5t43 267v2q0 107 -22.5 199t-62 160.5t-95.5 123 t-120.5 90.5t-140.5 60t-152.5 34.5t-158.5 10.5h-254v-1356z" />
<glyph unicode="E" horiz-adv-x="1224" d="M217 0v1470h898v-58h-831v-634h778v-58h-778v-662h832v-58h-899z" />
<glyph unicode="F" horiz-adv-x="1162" d="M217 0v1470h888v-58h-821v-634h767v-58h-767v-720h-67z" />
<glyph unicode="G" horiz-adv-x="1680" d="M821 -23q-207 0 -367.5 98t-247.5 270t-87 389v2q0 217 87 389t248.5 270t368.5 98q240 0 408.5 -116t228.5 -326h-69q-56 183 -209.5 283.5t-358.5 100.5q-187 0 -332 -90.5t-223.5 -249t-78.5 -359.5v-2q0 -201 78.5 -360t223.5 -249t332 -90q113 0 212.5 30.5t180 90 t127.5 159t47 227.5v124h-530v56h594v-722h-57l-1 338q-50 -164 -199.5 -262.5t-375.5 -98.5z" />
<glyph unicode="H" horiz-adv-x="1507" d="M217 0v1470h67v-693h939v693h67v-1470h-67v719h-939v-719h-67z" />
<glyph unicode="I" horiz-adv-x="502" d="M217 0v1470h67v-1470h-67z" />
<glyph unicode="J" horiz-adv-x="1116" d="M496 -23q-87 0 -159 23t-131 71t-93 132t-38 197h69q6 -192 102 -279t250 -87q75 0 135 20.5t108.5 64t75.5 121.5t27 184v1046h67v-1046q0 -119 -32.5 -208t-90.5 -140t-130 -75t-160 -24z" />
<glyph unicode="K" horiz-adv-x="1331" d="M217 0v1470h67v-703l905 703h92l-930 -728l943 -742h-105l-905 712v-712h-67z" />
<glyph unicode="L" horiz-adv-x="1134" d="M217 0v1470h67v-1412h804v-58h-871z" />
<glyph unicode="M" horiz-adv-x="1844" d="M217 0v1470h103l601 -1398h2l601 1398h102v-1470h-64v1394h-2l-604 -1402h-68l-604 1402h-2v-1394h-65z" />
<glyph unicode="N" horiz-adv-x="1507" d="M217 0v1470h84l922 -1380h2v1380h65v-1470h-84l-922 1381h-2v-1381h-65z" />
<glyph unicode="O" horiz-adv-x="1648" d="M824 -23q-207 0 -368.5 98t-249 270t-87.5 389v2q0 217 87.5 389t249 270t368.5 98t368.5 -98t249 -270t87.5 -389v-2q0 -217 -87.5 -389t-249 -270t-368.5 -98zM824 36q187 0 332 90t224 248.5t79 359.5v2q0 201 -79 359.5t-224 248.5t-332 90t-332 -90t-224 -248.5 t-79 -359.5v-2q0 -201 79 -359.5t224 -248.5t332 -90z" />
<glyph unicode="P" horiz-adv-x="1254" d="M217 0v1470h424q553 0 553 -403v-2q0 -402 -553 -402h-357v-663h-67zM284 721h355q87 0 158 10.5t133 35t104 63.5t66 98.5t24 136.5v2q0 77 -24 137t-66 99t-104 64t-133 35.5t-158 10.5h-355v-692z" />
<glyph unicode="Q" horiz-adv-x="1648" d="M824 -23q-207 0 -368.5 98t-249 270t-87.5 389v2q0 217 87.5 389t249 270t368.5 98t368.5 -98t249 -270t87.5 -389v-2q0 -221 -92 -396t-255 -269l341 -282h-90l-307 253q-137 -63 -302 -63zM824 35q187 0 332 90t224 249t79 360v2q0 201 -79 360t-224 249t-332 90 t-332 -90t-224 -249t-79 -360v-2q0 -201 79 -360t224 -249t332 -90z" />
<glyph unicode="R" horiz-adv-x="1350" d="M217 0v1470h421q268 0 410.5 -93t142.5 -300v-2q0 -191 -123 -284.5t-353 -106.5l551 -684h-79l-548 682h-1h-354v-682h-67zM284 739h354q110 0 193.5 16t151 53t103 104t35.5 163v2q0 96 -35.5 163t-103 104t-151 53t-193.5 16h-354v-674z" />
<glyph unicode="S" horiz-adv-x="1261" d="M659 -23q-222 0 -368 108.5t-183 332.5h69q36 -198 163 -292t321 -94q85 0 160 19t137.5 58t99 105.5t36.5 153.5v2q0 63 -21.5 114.5t-56 87t-88 63.5t-107.5 45.5t-124 32.5l-186 42q-77 17 -139.5 46t-113.5 73t-79 108.5t-28 145.5v2q0 113 66.5 197t170.5 125 t227 41q205 0 335.5 -100t168.5 -293h-69q-38 167 -151 252.5t-287 85.5q-101 0 -189 -34t-145.5 -105.5t-57.5 -166.5v-2q0 -244 308 -313l186 -42q75 -17 134.5 -36.5t120.5 -52.5t101.5 -73.5t66 -101t25.5 -134.5v-2q0 -190 -140.5 -294t-362.5 -104z" />
<glyph unicode="T" horiz-adv-x="1255" d="M594 0v1412h-568v58h1203v-58h-568v-1412h-67z" />
<glyph unicode="U" horiz-adv-x="1472" d="M735 -23q-276 0 -405.5 141t-129.5 448v904h67v-905q0 -276 112 -403t356 -127q245 0 357.5 127t112.5 403v905h67v-904q0 -307 -130 -448t-407 -141z" />
<glyph unicode="V" horiz-adv-x="1380" d="M657 -11l-608 1481h72l571 -1396l570 1396h69l-607 -1481h-67z" />
<glyph unicode="W" horiz-adv-x="1886" d="M488 -11l-425 1481h69l395 -1379l379 1386h74l380 -1386l393 1379h70l-424 -1481h-74l-382 1393l-380 -1393h-75z" />
<glyph unicode="X" horiz-adv-x="1390" d="M79 0l578 744l-537 726h82l495 -671l495 671h77l-536 -723l579 -747h-82l-536 693l-538 -693h-77z" />
<glyph unicode="Y" horiz-adv-x="1285" d="M610 0v669l-576 801h77l532 -742h2l57 82l472 660h77l-574 -801v-669h-67z" />
<glyph unicode="Z" horiz-adv-x="1243" d="M87 0v56l965 1356h-897v58h978v-56l-966 -1356h992v-58h-1072z" />
<glyph unicode="[" horiz-adv-x="660" d="M100 -302v1830h460v-52h-399v-1726h399v-52h-460z" />
<glyph unicode="\" horiz-adv-x="914" d="M183 1470l611 -1676h-63l-611 1676h63z" />
<glyph unicode="]" horiz-adv-x="660" d="M560 1528v-1830h-460v52h399v1726h-399v52h460z" />
<glyph unicode="_" horiz-adv-x="1037" d="M50 -223v57h937v-57h-937z" />
<glyph unicode="`" horiz-adv-x="448" d="M323 1212l-273 258h88l260 -258h-75z" />
<glyph unicode="a" horiz-adv-x="1119" d="M461 -23q-148 0 -252.5 77t-104.5 209v2q0 63 23.5 113.5t72 87.5t112.5 64.5t155 46t189 30t224 19.5v52q0 178 -83.5 252.5t-235.5 74.5q-153 0 -241 -74.5t-93 -197.5h-66q10 150 117.5 238t283.5 88q185 0 284 -90.5t98 -296.5l-1 -303q-1 -241 14 -369h-63 q-8 83 -10 215q-116 -238 -423 -238zM880 573q-145 -8 -253 -22t-196.5 -37.5t-144.5 -57t-85.5 -80.5t-29.5 -109v-2q0 -109 87.5 -171.5t221.5 -62.5q78 0 147 23t127 70t92 129.5t34 190.5v129z" />
<glyph unicode="b" horiz-adv-x="1243" d="M661 -23q-146 0 -252 75t-155 197v-249h-64v1470h64v-683q49 122 155 197t252 75q95 0 179 -36.5t148.5 -103.5t102 -170.5t37.5 -229.5v-2q0 -126 -37.5 -229.5t-102 -170.5t-148.5 -103.5t-179 -36.5zM654 34q175 0 291 128.5t116 354.5v2q0 226 -116 354.5t-291 128.5 q-170 0 -286 -130.5t-116 -352.5v-2q0 -222 116 -352.5t286 -130.5z" />
<glyph unicode="c" horiz-adv-x="1180" d="M608 -23q-212 0 -352 147.5t-140 392.5v2q0 246 140 393t352 147q177 0 297.5 -89t160.5 -241h-66q-38 127 -140.5 200t-251.5 73q-87 0 -163.5 -32.5t-135 -92.5t-92.5 -152.5t-34 -205.5v-2q0 -112 34 -204.5t92.5 -153t135 -93t163.5 -32.5q149 0 251.5 73t140.5 200 h66q-40 -152 -160.5 -241t-297.5 -89z" />
<glyph unicode="d" horiz-adv-x="1243" d="M582 -23q-95 0 -179 36.5t-148.5 103.5t-102 170.5t-37.5 229.5v2q0 126 37.5 229.5t102 170.5t148.5 103.5t179 36.5q146 0 252 -75t155 -197v683h64v-1470h-64v249q-49 -122 -155 -197t-252 -75zM589 34q170 0 286 130.5t116 352.5v2q0 222 -116 352.5t-286 130.5 q-175 0 -291 -128.5t-116 -354.5v-2q0 -226 116 -354.5t291 -128.5z" />
<glyph unicode="e" horiz-adv-x="1212" d="M622 -23q-222 0 -364 147.5t-142 393.5v2q0 123 39 225.5t106.5 170.5t158 105.5t192.5 37.5q217 0 350.5 -150.5t133.5 -393.5v-1h-913q1 -222 125 -351.5t315 -129.5q156 0 257.5 69.5t140.5 193.5h66q-43 -148 -163 -233.5t-302 -85.5zM184 569h843v1q-7 193 -121 313 t-294 120q-175 0 -294.5 -114.5t-133.5 -319.5z" />
<glyph unicode="f" horiz-adv-x="645" d="M248 0v987h-181v55h181v109q0 319 307 319h23v-55h-19q-130 0 -188.5 -66.5t-58.5 -198.5v-108h260v-55h-260v-987h-64z" />
<glyph unicode="g" horiz-adv-x="1242" d="M582 39q-94 0 -178 34.5t-149 97.5t-103 160.5t-38 216.5v2q0 119 38 216.5t103 160.5t149 97.5t178 34.5q142 0 250.5 -68t156.5 -187v238h64v-983q0 -123 -35 -214t-98.5 -143.5t-144 -77.5t-178.5 -25q-184 0 -307 94t-141 262h66q13 -134 116.5 -216.5t266.5 -82.5 q63 0 117.5 11t106 39.5t87.5 72.5t58 114t22 160v241q-48 -119 -156.5 -187t-250.5 -68zM589 96q171 0 287.5 122t116.5 330v2q0 208 -116.5 330t-287.5 122q-173 0 -290.5 -121t-117.5 -331v-2q0 -210 117.5 -331t290.5 -121z" />
<glyph unicode="h" horiz-adv-x="1153" d="M190 0v1470h64v-623q45 100 134 156t220 56q190 0 294 -112t104 -319v-628h-64v621q0 192 -91.5 286.5t-251.5 94.5q-166 0 -255.5 -109.5t-89.5 -300.5v-592h-64z" />
<glyph unicode="i" d="M190 1265v205h64v-205h-64zM190 0v1042h64v-1042h-64z" />
<glyph unicode="j" d="M190 1265v205h64v-205h-64zM-11 -385v55h26q56 0 90.5 14t53 46.5t25 73.5t6.5 107v1131h64v-1133q0 -153 -49 -223.5t-183 -70.5h-33z" />
<glyph unicode="k" horiz-adv-x="1052" d="M193 0v1470h64v-895l644 467h94l-678 -491l707 -551h-100l-667 520v-520h-64z" />
<glyph unicode="l" d="M190 0v1470h64v-1470h-64z" />
<glyph unicode="m" horiz-adv-x="1920" d="M190 0v1042h64v-195q45 100 134 156t220 56q144 0 240 -65.5t134 -189.5q45 126 143.5 190.5t234.5 64.5q190 0 294 -112t104 -319v-628h-64v621q0 192 -91.5 286.5t-251.5 94.5q-166 0 -255.5 -109.5t-89.5 -300.5v-592h-64v621q0 192 -91.5 286.5t-251.5 94.5 q-166 0 -255.5 -109.5t-89.5 -300.5v-592h-64z" />
<glyph unicode="n" horiz-adv-x="1168" d="M190 0v1042h64v-195q45 100 134 156t220 56q190 0 294 -112t104 -319v-628h-64v621q0 192 -91.5 286.5t-251.5 94.5q-166 0 -255.5 -109.5t-89.5 -300.5v-592h-64z" />
<glyph unicode="o" horiz-adv-x="1236" d="M618 -23q-214 0 -358 148t-144 392v2q0 244 144 392t358 148t358 -148t144 -392v-2q0 -244 -144 -392t-358 -148zM618 34q186 0 310.5 131t124.5 352v2q0 221 -124.5 352t-310.5 131t-310.5 -131t-124.5 -352v-2q0 -221 124.5 -352t310.5 -131z" />
<glyph unicode="p" horiz-adv-x="1243" d="M661 -23q-146 0 -252 75t-155 197v-634h-64v1427h64v-255q49 122 155 197t252 75q95 0 179 -36.5t148.5 -103.5t102 -170.5t37.5 -229.5v-2q0 -126 -37.5 -229.5t-102 -170.5t-148.5 -103.5t-179 -36.5zM654 34q175 0 291 128.5t116 354.5v2q0 226 -116 354.5t-291 128.5 q-170 0 -286 -130.5t-116 -352.5v-2q0 -222 116 -352.5t286 -130.5z" />
<glyph unicode="q" horiz-adv-x="1243" d="M582 -23q-95 0 -179 36.5t-148.5 103.5t-102 170.5t-37.5 229.5v2q0 126 37.5 229.5t102 170.5t148.5 103.5t179 36.5q146 0 252 -75t155 -197v255h64v-1427h-64v634q-49 -122 -155 -197t-252 -75zM589 34q170 0 286 130.5t116 352.5v2q0 222 -116 352.5t-286 130.5 q-175 0 -291 -128.5t-116 -354.5v-2q0 -226 116 -354.5t291 -128.5z" />
<glyph unicode="r" horiz-adv-x="658" d="M190 0v1042h64v-227q36 104 121.5 170.5t218.5 66.5h28v-61h-37q-86 0 -151 -36t-103.5 -100t-57.5 -144t-19 -176v-535h-64z" />
<glyph unicode="s" horiz-adv-x="1016" d="M524 -23q-188 0 -294 86.5t-132 239.5h66q53 -273 363 -273q143 0 234.5 59t91.5 174v2q0 49 -18.5 87.5t-45 62t-71 42t-80.5 27.5t-90 19l-138 26q-134 25 -212 89.5t-78 175.5v2q0 118 107 190.5t268 72.5t262 -69.5t130 -208.5h-66q-56 225 -329 225q-78 0 -146 -22 t-115 -71t-47 -116v-2q0 -163 245 -209l143 -27q58 -11 101.5 -23t92 -34.5t79.5 -52t51.5 -75t20.5 -103.5v-2q0 -139 -108.5 -215.5t-284.5 -76.5z" />
<glyph unicode="t" horiz-adv-x="638" d="M483 0q-139 0 -196 68.5t-57 222.5v696h-182v55h182v241h64v-241h260v-55h-260v-689q0 -131 44.5 -187t154.5 -56h52v-55h-62z" />
<glyph unicode="u" horiz-adv-x="1168" d="M560 -23q-190 0 -294 112t-104 319v634h64v-627q0 -192 91.5 -286.5t251.5 -94.5q166 0 255.5 109.5t89.5 300.5v598h64v-1042h-64v189q-45 -100 -134 -156t-220 -56z" />
<glyph unicode="v" horiz-adv-x="1077" d="M507 -8l-451 1050h71l413 -973l415 973h66l-450 -1050h-64z" />
<glyph unicode="w" horiz-adv-x="1608" d="M406 -8l-338 1050h68l306 -960l332 968h61l334 -970l308 962h63l-338 -1050h-64l-336 966l-331 -966h-65z" />
<glyph unicode="x" horiz-adv-x="1104" d="M82 0l433 535l-409 507h75l372 -459l372 459h72l-409 -505l433 -537h-75l-396 490l-397 -490h-71z" />
<glyph unicode="y" horiz-adv-x="1094" d="M322 -385l184 405l-450 1022h70l415 -945h2l428 945h67l-649 -1427h-67z" />
<glyph unicode="z" horiz-adv-x="982" d="M86 0v53l723 934h-682v55h758v-53l-723 -934h734v-55h-810z" />
<glyph unicode="{" horiz-adv-x="653" d="M78 595v36q87 29 120 87.5t33 160.5v349q0 154 67 227t207 73h48v-52h-38q-118 0 -171 -59t-53 -191v-340q0 -109 -32 -173t-121 -99v-1q89 -35 121 -99t32 -174v-340q0 -133 52.5 -191.5t171.5 -58.5h38v-52h-48q-140 0 -207 73t-67 227v349q0 102 -33 160.5t-120 87.5z " />
<glyph unicode="|" horiz-adv-x="298" d="M120 -202v1848h58v-1848h-58z" />
<glyph unicode="}" horiz-adv-x="653" d="M575 631v-36q-87 -29 -120 -87.5t-33 -160.5v-349q0 -154 -67 -227t-207 -73h-48v52h38q119 0 171.5 58.5t52.5 191.5v340q0 110 32 174t121 99v1q-89 35 -121 99t-32 173v340q0 132 -53 191t-171 59h-38v52h48q140 0 207 -73t67 -227v-349q0 -102 33 -160.5t120 -87.5z " />
<glyph unicode="&#xa2;" horiz-adv-x="1182" d="M576 231v181q-200 12 -330 157.5t-130 381.5v2q0 236 130 381.5t330 157.5v181h62v-181q165 -7 277 -95.5t151 -233.5h-66q-38 127 -140.5 200t-251.5 73q-87 0 -163.5 -32.5t-135 -92.5t-92.5 -152.5t-34 -205.5v-2q0 -112 34 -204.5t92.5 -153t135 -93t163.5 -32.5 q149 0 251.5 73t140.5 200h66q-39 -146 -151 -234t-277 -96v-180h-62z" />
<glyph unicode="&#xa3;" horiz-adv-x="1221" d="M100 688v55h228l-21 57q-36 94 -55 163.5t-19 140.5v2q0 177 117.5 282t306.5 105t306 -95.5t136 -291.5h-68q-37 330 -375 330q-158 0 -255.5 -88.5t-97.5 -242.5v-2q0 -108 67 -290l27 -70h415v-55h-395q55 -154 55 -256v-3q0 -123 -55.5 -224.5t-149.5 -146.5h817v-58 h-944v55q116 20 189.5 125.5t73.5 249.5v2q0 107 -55 256h-248z" />
<glyph unicode="&#xa8;" horiz-adv-x="655" d="M114 1280h-63v190h63v-190zM604 1280h-63v190h63v-190z" />
<glyph unicode="&#xab;" horiz-adv-x="1008" d="M350 192l-236 373l236 372h68l-234 -372l234 -373h-68zM756 192l-236 373l236 372h68l-234 -372l234 -373h-68z" />
<glyph unicode="&#xad;" horiz-adv-x="769" d="M100 492v57h569v-57h-569z" />
<glyph unicode="&#xb4;" horiz-adv-x="448" d="M398 1470l-273 -258h-75l260 258h88z" />
<glyph unicode="&#xb8;" horiz-adv-x="288" d="M237 -96l-122 -242h-65l129 242h58z" />
<glyph unicode="&#xbb;" horiz-adv-x="1008" d="M894 565l-236 -373h-68l234 373l-234 372h68zM488 565l-236 -373h-68l234 373l-234 372h68z" />
<glyph unicode="&#xc2;" horiz-adv-x="1320" d="M368 1630l259 268h66l259 -268h-75l-217 217l-217 -217h-75zM53 0l573 1481h67l574 -1481h-70l-187 487h-703l-187 -487h-67zM329 545h659l-328 855h-3z" />
<glyph unicode="&#xce;" horiz-adv-x="502" d="M-41 1630l259 268h66l259 -268h-75l-217 217l-217 -217h-75zM217 0v1470h67v-1470h-67z" />
<glyph unicode="&#xe2;" horiz-adv-x="1119" d="M308 1212l220 258h65l220 -258h-68l-184 221l-185 -221h-68zM461 -23q-148 0 -252.5 77t-104.5 209v2q0 63 23.5 113.5t72 87.5t112.5 64.5t155 46t189 30t224 19.5v52q0 178 -83.5 252.5t-235.5 74.5q-153 0 -241 -74.5t-93 -197.5h-66q10 150 117.5 238t283.5 88 q185 0 284 -90.5t98 -296.5l-1 -303q-1 -241 14 -369h-63q-8 83 -10 215q-116 -238 -423 -238zM880 573q-145 -8 -253 -22t-196.5 -37.5t-144.5 -57t-85.5 -80.5t-29.5 -109v-2q0 -109 87.5 -171.5t221.5 -62.5q78 0 147 23t127 70t92 129.5t34 190.5v129z" />
<glyph unicode="&#xee;" d="M-31 1212l220 258h65l220 -258h-68l-184 221l-185 -221h-68zM190 0v1042h64v-1042h-64z" />
<glyph unicode="&#x100;" horiz-adv-x="1320" d="M385 1845v53h550v-53h-550zM53 0l573 1481h67l574 -1481h-70l-187 487h-703l-187 -487h-67zM329 545h659l-328 855h-3z" />
<glyph unicode="&#x101;" horiz-adv-x="1119" d="M286 1417v53h550v-53h-550zM461 -23q-148 0 -252.5 77t-104.5 209v2q0 63 23.5 113.5t72 87.5t112.5 64.5t155 46t189 30t224 19.5v52q0 178 -83.5 252.5t-235.5 74.5q-153 0 -241 -74.5t-93 -197.5h-66q10 150 117.5 238t283.5 88q185 0 284 -90.5t98 -296.5l-1 -303 q-1 -241 14 -369h-63q-8 83 -10 215q-116 -238 -423 -238zM880 573q-145 -8 -253 -22t-196.5 -37.5t-144.5 -57t-85.5 -80.5t-29.5 -109v-2q0 -109 87.5 -171.5t221.5 -62.5q78 0 147 23t127 70t92 129.5t34 190.5v129z" />
<glyph unicode="&#x102;" horiz-adv-x="1320" d="M429 1898h57q10 -66 56.5 -104.5t117.5 -38.5t117.5 38.5t56.5 104.5h57q-11 -90 -73 -143t-158 -53t-158 53t-73 143zM53 0l573 1481h67l574 -1481h-70l-187 487h-703l-187 -487h-67zM329 545h659l-328 855h-3z" />
<glyph unicode="&#x103;" horiz-adv-x="1119" d="M330 1470h57q10 -66 56.5 -104.5t117.5 -38.5t117.5 38.5t56.5 104.5h57q-11 -90 -73 -143t-158 -53t-158 53t-73 143zM461 -23q-148 0 -252.5 77t-104.5 209v2q0 63 23.5 113.5t72 87.5t112.5 64.5t155 46t189 30t224 19.5v52q0 178 -83.5 252.5t-235.5 74.5 q-153 0 -241 -74.5t-93 -197.5h-66q10 150 117.5 238t283.5 88q185 0 284 -90.5t98 -296.5l-1 -303q-1 -241 14 -369h-63q-8 83 -10 215q-116 -238 -423 -238zM880 573q-145 -8 -253 -22t-196.5 -37.5t-144.5 -57t-85.5 -80.5t-29.5 -109v-2q0 -109 87.5 -171.5t221.5 -62.5 q78 0 147 23t127 70t92 129.5t34 190.5v129z" />
<glyph unicode="&#x104;" horiz-adv-x="1320" d="M53 0l573 1481h67l574 -1481h-1q-113 -85 -113 -178q0 -54 37.5 -92t93.5 -38q39 0 72 13l18 -44q-45 -20 -93 -20q-77 0 -130 47.5t-53 120.5q0 49 27 100t78 91h-6l-187 487h-703l-187 -487h-67zM329 545h659l-328 855h-3z" />
<glyph unicode="&#x105;" horiz-adv-x="1119" d="M461 -23q-148 0 -252.5 77t-104.5 209v2q0 63 23.5 113.5t72 87.5t112.5 64.5t155 46t189 30t224 19.5v52q0 178 -83.5 252.5t-235.5 74.5q-153 0 -241 -74.5t-93 -197.5h-66q10 150 117.5 238t283.5 88q185 0 284 -90.5t98 -296.5l-1 -303q-1 -241 14 -369 q-113 -85 -113 -178q0 -54 37.5 -92t93.5 -38q39 0 72 13l18 -44q-45 -20 -93 -20q-77 0 -130 47.5t-53 120.5q0 49 27 100t78 91q-8 83 -10 215q-116 -238 -423 -238zM880 573q-145 -8 -253 -22t-196.5 -37.5t-144.5 -57t-85.5 -80.5t-29.5 -109v-2q0 -109 87.5 -171.5 t221.5 -62.5q78 0 147 23t127 70t92 129.5t34 190.5v129z" />
<glyph unicode="&#x106;" horiz-adv-x="1579" d="M857 1670h-72l229 228h90zM823 -23q-207 0 -368.5 98t-248.5 270t-87 389v2q0 217 87 389t248.5 270t368.5 98q241 0 410 -118.5t227 -333.5h-69q-54 189 -208 291.5t-361 102.5q-186 0 -331 -90t-223.5 -249t-78.5 -360v-2q0 -201 78.5 -360t223.5 -249t331 -90 q207 0 361 102.5t208 291.5h69q-58 -215 -227 -333.5t-410 -118.5z" />
<glyph unicode="&#x107;" horiz-adv-x="1180" d="M899 1470l-273 -258h-75l260 258h88zM608 -23q-212 0 -352 147.5t-140 392.5v2q0 246 140 393t352 147q177 0 297.5 -89t160.5 -241h-66q-38 127 -140.5 200t-251.5 73q-87 0 -163.5 -32.5t-135 -92.5t-92.5 -152.5t-34 -205.5v-2q0 -112 34 -204.5t92.5 -153t135 -93 t163.5 -32.5q149 0 251.5 73t140.5 200h66q-40 -152 -160.5 -241t-297.5 -89z" />
<glyph unicode="&#x108;" horiz-adv-x="1579" d="M498 1630l259 268h66l259 -268h-75l-217 217l-217 -217h-75zM823 -23q-207 0 -368.5 98t-248.5 270t-87 389v2q0 217 87 389t248.5 270t368.5 98q241 0 410 -118.5t227 -333.5h-69q-54 189 -208 291.5t-361 102.5q-186 0 -331 -90t-223.5 -249t-78.5 -360v-2 q0 -201 78.5 -360t223.5 -249t331 -90q207 0 361 102.5t208 291.5h69q-58 -215 -227 -333.5t-410 -118.5z" />
<glyph unicode="&#x109;" horiz-adv-x="1180" d="M337 1212l220 258h65l220 -258h-68l-184 221l-185 -221h-68zM608 -23q-212 0 -352 147.5t-140 392.5v2q0 246 140 393t352 147q177 0 297.5 -89t160.5 -241h-66q-38 127 -140.5 200t-251.5 73q-87 0 -163.5 -32.5t-135 -92.5t-92.5 -152.5t-34 -205.5v-2 q0 -112 34 -204.5t92.5 -153t135 -93t163.5 -32.5q149 0 251.5 73t140.5 200h66q-40 -152 -160.5 -241t-297.5 -89z" />
<glyph unicode="&#x10a;" horiz-adv-x="1579" d="M823 1723h-66v175h66v-175zM823 -23q-207 0 -368.5 98t-248.5 270t-87 389v2q0 217 87 389t248.5 270t368.5 98q241 0 410 -118.5t227 -333.5h-69q-54 189 -208 291.5t-361 102.5q-186 0 -331 -90t-223.5 -249t-78.5 -360v-2q0 -201 78.5 -360t223.5 -249t331 -90 q207 0 361 102.5t208 291.5h69q-58 -215 -227 -333.5t-410 -118.5z" />
<glyph unicode="&#x10b;" horiz-adv-x="1180" d="M621 1280h-63v190h63v-190zM608 -23q-212 0 -352 147.5t-140 392.5v2q0 246 140 393t352 147q177 0 297.5 -89t160.5 -241h-66q-38 127 -140.5 200t-251.5 73q-87 0 -163.5 -32.5t-135 -92.5t-92.5 -152.5t-34 -205.5v-2q0 -112 34 -204.5t92.5 -153t135 -93t163.5 -32.5 q149 0 251.5 73t140.5 200h66q-40 -152 -160.5 -241t-297.5 -89z" />
<glyph unicode="&#x10c;" horiz-adv-x="1579" d="M498 1898h75l217 -217l217 217h75l-259 -268h-66zM823 -23q-207 0 -368.5 98t-248.5 270t-87 389v2q0 217 87 389t248.5 270t368.5 98q241 0 410 -118.5t227 -333.5h-69q-54 189 -208 291.5t-361 102.5q-186 0 -331 -90t-223.5 -249t-78.5 -360v-2q0 -201 78.5 -360 t223.5 -249t331 -90q207 0 361 102.5t208 291.5h69q-58 -215 -227 -333.5t-410 -118.5z" />
<glyph unicode="&#x10d;" horiz-adv-x="1180" d="M557 1212l-220 258h68l185 -221l184 221h68l-220 -258h-65zM608 -23q-212 0 -352 147.5t-140 392.5v2q0 246 140 393t352 147q177 0 297.5 -89t160.5 -241h-66q-38 127 -140.5 200t-251.5 73q-87 0 -163.5 -32.5t-135 -92.5t-92.5 -152.5t-34 -205.5v-2q0 -112 34 -204.5 t92.5 -153t135 -93t163.5 -32.5q149 0 251.5 73t140.5 200h66q-40 -152 -160.5 -241t-297.5 -89z" />
<glyph unicode="&#x10e;" horiz-adv-x="1479" d="M269 1898h75l217 -217l217 217h75l-259 -268h-66zM217 0v1470h322q137 0 257.5 -26t225 -83t179 -141.5t117 -208t42.5 -276.5v-2q0 -152 -42.5 -275.5t-117 -207.5t-179 -141t-225 -83t-257.5 -26h-322zM284 57h254q116 0 220.5 20.5t203.5 70t170.5 125t114.5 193.5 t43 267v2q0 107 -22.5 199t-62 160.5t-95.5 123t-120.5 90.5t-140.5 60t-152.5 34.5t-158.5 10.5h-254v-1356z" />
<glyph unicode="&#x10f;" horiz-adv-x="1243" d="M582 -23q-95 0 -179 36.5t-148.5 103.5t-102 170.5t-37.5 229.5v2q0 126 37.5 229.5t102 170.5t148.5 103.5t179 36.5q146 0 252 -75t155 -197v683h64v-1470h-64v249q-49 -122 -155 -197t-252 -75zM1193 1470h60v-328h-60v328zM589 34q170 0 286 130.5t116 352.5v2 q0 222 -116 352.5t-286 130.5q-175 0 -291 -128.5t-116 -354.5v-2q0 -226 116 -354.5t291 -128.5z" />
<glyph unicode="&#x110;" horiz-adv-x="1479" d="M217 0v707h-135v55h135v708h322q137 0 257.5 -26t225 -83t179 -141.5t117 -208t42.5 -276.5v-2q0 -152 -42.5 -275.5t-117 -207.5t-179 -141t-225 -83t-257.5 -26h-322zM284 57h254q116 0 220.5 20.5t203.5 70t170.5 125t114.5 193.5t43 267v2q0 107 -22.5 199t-62 160.5 t-95.5 123t-120.5 90.5t-140.5 60t-152.5 34.5t-158.5 10.5h-254v-651h398v-55h-398v-650z" />
<glyph unicode="&#x111;" horiz-adv-x="1243" d="M582 -23q-95 0 -179 36.5t-148.5 103.5t-102 170.5t-37.5 229.5v2q0 126 37.5 229.5t102 170.5t148.5 103.5t179 36.5q146 0 252 -75t155 -197v453h-394v50h394v180h64v-180h120v-50h-120v-1240h-64v249q-49 -122 -155 -197t-252 -75zM589 34q170 0 286 130.5t116 352.5 v2q0 222 -116 352.5t-286 130.5q-175 0 -291 -128.5t-116 -354.5v-2q0 -226 116 -354.5t291 -128.5z" />
<glyph unicode="&#x112;" horiz-adv-x="1224" d="M392 1845v53h550v-53h-550zM217 0v1470h898v-58h-831v-634h778v-58h-778v-662h832v-58h-899z" />
<glyph unicode="&#x113;" horiz-adv-x="1212" d="M330 1417v53h550v-53h-550zM622 -23q-222 0 -364 147.5t-142 393.5v2q0 123 39 225.5t106.5 170.5t158 105.5t192.5 37.5q217 0 350.5 -150.5t133.5 -393.5v-1h-913q1 -222 125 -351.5t315 -129.5q156 0 257.5 69.5t140.5 193.5h66q-43 -148 -163 -233.5t-302 -85.5z M184 569h843v1q-7 193 -121 313t-294 120q-175 0 -294.5 -114.5t-133.5 -319.5z" />
<glyph unicode="&#x114;" horiz-adv-x="1224" d="M436 1898h57q10 -66 56.5 -104.5t117.5 -38.5t117.5 38.5t56.5 104.5h57q-11 -90 -73 -143t-158 -53t-158 53t-73 143zM217 0v1470h898v-58h-831v-634h778v-58h-778v-662h832v-58h-899z" />
<glyph unicode="&#x115;" horiz-adv-x="1212" d="M374 1470h57q10 -66 56.5 -104.5t117.5 -38.5t117.5 38.5t56.5 104.5h57q-11 -90 -73 -143t-158 -53t-158 53t-73 143zM622 -23q-222 0 -364 147.5t-142 393.5v2q0 123 39 225.5t106.5 170.5t158 105.5t192.5 37.5q217 0 350.5 -150.5t133.5 -393.5v-1h-913 q1 -222 125 -351.5t315 -129.5q156 0 257.5 69.5t140.5 193.5h66q-43 -148 -163 -233.5t-302 -85.5zM184 569h843v1q-7 193 -121 313t-294 120q-175 0 -294.5 -114.5t-133.5 -319.5z" />
<glyph unicode="&#x116;" horiz-adv-x="1224" d="M700 1723h-66v175h66v-175zM217 0v1470h898v-58h-831v-634h778v-58h-778v-662h832v-58h-899z" />
<glyph unicode="&#x117;" horiz-adv-x="1212" d="M636 1280h-63v190h63v-190zM622 -23q-222 0 -364 147.5t-142 393.5v2q0 123 39 225.5t106.5 170.5t158 105.5t192.5 37.5q217 0 350.5 -150.5t133.5 -393.5v-1h-913q1 -222 125 -351.5t315 -129.5q156 0 257.5 69.5t140.5 193.5h66q-43 -148 -163 -233.5t-302 -85.5z M184 569h843v1q-7 193 -121 313t-294 120q-175 0 -294.5 -114.5t-133.5 -319.5z" />
<glyph unicode="&#x118;" horiz-adv-x="1224" d="M217 0v1470h898v-58h-831v-634h778v-58h-778v-662h832v-58h-268q-113 -85 -113 -178q0 -54 37.5 -92t93.5 -38q40 0 72 13l18 -44q-45 -20 -93 -20q-77 0 -130 47.5t-53 120.5q0 49 27 100t78 91h-568z" />
<glyph unicode="&#x119;" horiz-adv-x="1212" d="M622 -23q-222 0 -364 147.5t-142 393.5v2q0 123 39 225.5t106.5 170.5t158 105.5t192.5 37.5q217 0 350.5 -150.5t133.5 -393.5v-1h-913q1 -222 125 -351.5t315 -129.5q156 0 257.5 69.5t140.5 193.5h66q-32 -110 -108 -187t-189 -110q-112 -85 -112 -177q0 -54 37.5 -92 t93.5 -38q39 0 72 13l18 -44q-45 -20 -93 -20q-77 0 -130 47.5t-53 120.5q0 94 85 173q-47 -5 -86 -5zM184 569h843v1q-7 193 -121 313t-294 120q-175 0 -294.5 -114.5t-133.5 -319.5z" />
<glyph unicode="&#x11a;" horiz-adv-x="1224" d="M375 1898h75l217 -217l217 217h75l-259 -268h-66zM217 0v1470h898v-58h-831v-634h778v-58h-778v-662h832v-58h-899z" />
<glyph unicode="&#x11b;" horiz-adv-x="1212" d="M572 1212l-220 258h68l185 -221l184 221h68l-220 -258h-65zM622 -23q-222 0 -364 147.5t-142 393.5v2q0 123 39 225.5t106.5 170.5t158 105.5t192.5 37.5q217 0 350.5 -150.5t133.5 -393.5v-1h-913q1 -222 125 -351.5t315 -129.5q156 0 257.5 69.5t140.5 193.5h66 q-43 -148 -163 -233.5t-302 -85.5zM184 569h843v1q-7 193 -121 313t-294 120q-175 0 -294.5 -114.5t-133.5 -319.5z" />
<glyph unicode="&#x11c;" horiz-adv-x="1680" d="M498 1630l259 268h66l259 -268h-75l-217 217l-217 -217h-75zM821 -23q-207 0 -367.5 98t-247.5 270t-87 389v2q0 217 87 389t248.5 270t368.5 98q240 0 408.5 -116t228.5 -326h-69q-56 183 -209.5 283.5t-358.5 100.5q-187 0 -332 -90.5t-223.5 -249t-78.5 -359.5v-2 q0 -201 78.5 -360t223.5 -249t332 -90q113 0 212.5 30.5t180 90t127.5 159t47 227.5v124h-530v56h594v-722h-57l-1 338q-50 -164 -199.5 -262.5t-375.5 -98.5z" />
<glyph unicode="&#x11d;" horiz-adv-x="1242" d="M331 1212l220 258h65l220 -258h-68l-184 221l-185 -221h-68zM582 39q-94 0 -178 34.5t-149 97.5t-103 160.5t-38 216.5v2q0 119 38 216.5t103 160.5t149 97.5t178 34.5q142 0 250.5 -68t156.5 -187v238h64v-983q0 -123 -35 -214t-98.5 -143.5t-144 -77.5t-178.5 -25 q-184 0 -307 94t-141 262h66q13 -134 116.5 -216.5t266.5 -82.5q63 0 117.5 11t106 39.5t87.5 72.5t58 114t22 160v241q-48 -119 -156.5 -187t-250.5 -68zM589 96q171 0 287.5 122t116.5 330v2q0 208 -116.5 330t-287.5 122q-173 0 -290.5 -121t-117.5 -331v-2 q0 -210 117.5 -331t290.5 -121z" />
<glyph unicode="&#x11e;" horiz-adv-x="1680" d="M559 1898h57q10 -66 56.5 -104.5t117.5 -38.5t117.5 38.5t56.5 104.5h57q-11 -90 -73 -143t-158 -53t-158 53t-73 143zM821 -23q-207 0 -367.5 98t-247.5 270t-87 389v2q0 217 87 389t248.5 270t368.5 98q240 0 408.5 -116t228.5 -326h-69q-56 183 -209.5 283.5 t-358.5 100.5q-187 0 -332 -90.5t-223.5 -249t-78.5 -359.5v-2q0 -201 78.5 -360t223.5 -249t332 -90q113 0 212.5 30.5t180 90t127.5 159t47 227.5v124h-530v56h594v-722h-57l-1 338q-50 -164 -199.5 -262.5t-375.5 -98.5z" />
<glyph unicode="&#x11f;" horiz-adv-x="1242" d="M353 1470h57q10 -66 56.5 -104.5t117.5 -38.5t117.5 38.5t56.5 104.5h57q-11 -90 -73 -143t-158 -53t-158 53t-73 143zM582 39q-94 0 -178 34.5t-149 97.5t-103 160.5t-38 216.5v2q0 119 38 216.5t103 160.5t149 97.5t178 34.5q142 0 250.5 -68t156.5 -187v238h64v-983 q0 -123 -35 -214t-98.5 -143.5t-144 -77.5t-178.5 -25q-184 0 -307 94t-141 262h66q13 -134 116.5 -216.5t266.5 -82.5q63 0 117.5 11t106 39.5t87.5 72.5t58 114t22 160v241q-48 -119 -156.5 -187t-250.5 -68zM589 96q171 0 287.5 122t116.5 330v2q0 208 -116.5 330 t-287.5 122q-173 0 -290.5 -121t-117.5 -331v-2q0 -210 117.5 -331t290.5 -121z" />
<glyph unicode="&#x120;" horiz-adv-x="1680" d="M823 1723h-66v175h66v-175zM821 -23q-207 0 -367.5 98t-247.5 270t-87 389v2q0 217 87 389t248.5 270t368.5 98q240 0 408.5 -116t228.5 -326h-69q-56 183 -209.5 283.5t-358.5 100.5q-187 0 -332 -90.5t-223.5 -249t-78.5 -359.5v-2q0 -201 78.5 -360t223.5 -249 t332 -90q113 0 212.5 30.5t180 90t127.5 159t47 227.5v124h-530v56h594v-722h-57l-1 338q-50 -164 -199.5 -262.5t-375.5 -98.5z" />
<glyph unicode="&#x121;" horiz-adv-x="1242" d="M615 1280h-63v190h63v-190zM582 39q-94 0 -178 34.5t-149 97.5t-103 160.5t-38 216.5v2q0 119 38 216.5t103 160.5t149 97.5t178 34.5q142 0 250.5 -68t156.5 -187v238h64v-983q0 -123 -35 -214t-98.5 -143.5t-144 -77.5t-178.5 -25q-184 0 -307 94t-141 262h66 q13 -134 116.5 -216.5t266.5 -82.5q63 0 117.5 11t106 39.5t87.5 72.5t58 114t22 160v241q-48 -119 -156.5 -187t-250.5 -68zM589 96q171 0 287.5 122t116.5 330v2q0 208 -116.5 330t-287.5 122q-173 0 -290.5 -121t-117.5 -331v-2q0 -210 117.5 -331t290.5 -121z" />
<glyph unicode="&#x122;" horiz-adv-x="1680" d="M821 -23q-207 0 -367.5 98t-247.5 270t-87 389v2q0 217 87 389t248.5 270t368.5 98q240 0 408.5 -116t228.5 -326h-69q-56 183 -209.5 283.5t-358.5 100.5q-187 0 -332 -90.5t-223.5 -249t-78.5 -359.5v-2q0 -201 78.5 -360t223.5 -249t332 -90q113 0 212.5 30.5t180 90 t127.5 159t47 227.5v124h-530v56h594v-722h-57l-1 338q-50 -164 -199.5 -262.5t-375.5 -98.5zM824 -96l-129 -242h-58l122 242h65z" />
<glyph unicode="&#x123;" horiz-adv-x="1242" d="M788 1470l-122 -242h-65l129 242h58zM582 39q-94 0 -178 34.5t-149 97.5t-103 160.5t-38 216.5v2q0 119 38 216.5t103 160.5t149 97.5t178 34.5q142 0 250.5 -68t156.5 -187v238h64v-983q0 -123 -35 -214t-98.5 -143.5t-144 -77.5t-178.5 -25q-184 0 -307 94t-141 262h66 q13 -134 116.5 -216.5t266.5 -82.5q63 0 117.5 11t106 39.5t87.5 72.5t58 114t22 160v241q-48 -119 -156.5 -187t-250.5 -68zM589 96q171 0 287.5 122t116.5 330v2q0 208 -116.5 330t-287.5 122q-173 0 -290.5 -121t-117.5 -331v-2q0 -210 117.5 -331t290.5 -121z" />
<glyph unicode="&#x124;" horiz-adv-x="1507" d="M462 1630l259 268h66l259 -268h-75l-217 217l-217 -217h-75zM217 0v1470h67v-693h939v693h67v-1470h-67v719h-939v-719h-67z" />
<glyph unicode="&#x125;" horiz-adv-x="1153" d="M-31 1640l220 258h65l220 -258h-68l-184 221l-185 -221h-68zM190 0v1470h64v-623q45 100 134 156t220 56q190 0 294 -112t104 -319v-628h-64v621q0 192 -91.5 286.5t-251.5 94.5q-166 0 -255.5 -109.5t-89.5 -300.5v-592h-64z" />
<glyph unicode="&#x126;" horiz-adv-x="1507" d="M217 0v1097h-150v54h150v319h67v-319h939v319h67v-319h150v-54h-150v-1097h-67v719h-939v-719h-67zM284 777h939v320h-939v-320z" />
<glyph unicode="&#x127;" horiz-adv-x="1153" d="M190 0v1245h-120v50h120v175h64v-175h394v-50h-394v-398q45 100 134 156t220 56q190 0 294 -112t104 -319v-628h-64v621q0 192 -91.5 286.5t-251.5 94.5q-166 0 -255.5 -109.5t-89.5 -300.5v-592h-64z" />
<glyph unicode="&#x128;" horiz-adv-x="502" d="M503 1898h47q0 -88 -41 -137.5t-113 -49.5q-39 0 -79.5 19.5t-69 43t-66 43t-70.5 19.5q-54 0 -82 -35.5t-28 -101.5h-48q0 88 40.5 137t113.5 49q39 0 79.5 -19.5t68.5 -43t65.5 -43t70.5 -19.5q110 0 112 138zM217 0v1470h67v-1470h-67z" />
<glyph unicode="&#x129;" d="M474 1471h47q0 -88 -41 -137.5t-113 -49.5q-39 0 -79.5 19.5t-69 43t-65.5 43t-71 19.5q-54 0 -82 -35.5t-28 -101.5h-48q0 88 40.5 137t113.5 49q39 0 79.5 -19.5t68.5 -43t65 -43t71 -19.5q110 0 112 138zM190 0v1042h64v-1042h-64z" />
<glyph unicode="&#x12a;" horiz-adv-x="502" d="M-24 1845v53h550v-53h-550zM217 0v1470h67v-1470h-67z" />
<glyph unicode="&#x12b;" d="M-53 1417v53h550v-53h-550zM190 0v1042h64v-1042h-64z" />
<glyph unicode="&#x12e;" horiz-adv-x="502" d="M217 0v1470h67v-1470h-2q-113 -85 -113 -178q0 -54 37.5 -92t93.5 -38q40 0 72 13l18 -44q-45 -20 -93 -20q-77 0 -130 47.5t-53 120.5q0 49 27 100t78 91h-2z" />
<glyph unicode="&#x12f;" d="M190 1265v205h64v-205h-64zM190 0v1042h64v-1042q-113 -85 -113 -178q0 -54 37.5 -92t93.5 -38q39 0 72 13l18 -44q-45 -20 -93 -20q-77 0 -130 47.5t-53 120.5q0 49 27 100t78 91h-1z" />
<glyph unicode="&#x130;" horiz-adv-x="502" d="M284 1723h-66v175h66v-175zM217 0v1470h67v-1470h-67z" />
<glyph unicode="&#x131;" d="M190 0v1042h64v-1042h-64z" />
<glyph unicode="&#x132;" horiz-adv-x="1618" d="M217 0v1470h67v-1470h-67zM998 -23q-87 0 -159 23t-131 71t-93 132t-38 197h69q6 -192 102 -279t250 -87q75 0 135 20.5t108.5 64t75.5 121.5t27 184v1046h67v-1046q0 -119 -32.5 -208t-90.5 -140t-130 -75t-160 -24z" />
<glyph unicode="&#x133;" horiz-adv-x="888" d="M190 1265v205h64v-205h-64zM634 1265v205h64v-205h-64zM190 0v1042h64v-1042h-64zM433 -385v55h26q56 0 90.5 14t53 46.5t25 73.5t6.5 107v1131h64v-1133q0 -153 -49 -223.5t-183 -70.5h-33z" />
<glyph unicode="&#x134;" horiz-adv-x="1116" d="M584 1630l259 268h66l259 -268h-75l-217 217l-217 -217h-75zM496 -23q-87 0 -159 23t-131 71t-93 132t-38 197h69q6 -192 102 -279t250 -87q75 0 135 20.5t108.5 64t75.5 121.5t27 184v1046h67v-1046q0 -119 -32.5 -208t-90.5 -140t-130 -75t-160 -24z" />
<glyph unicode="&#x135;" d="M-31 1212l220 258h65l220 -258h-68l-184 221l-185 -221h-68zM-11 -385v55h26q56 0 90.5 14t53 46.5t25 73.5t6.5 107v1131h64v-1133q0 -153 -49 -223.5t-183 -70.5h-33z" />
<glyph unicode="&#x136;" horiz-adv-x="1331" d="M217 0v1470h67v-703l905 703h92l-930 -728l943 -742h-105l-905 712v-712h-67zM790 -96l-129 -242h-58l122 242h65z" />
<glyph unicode="&#x137;" horiz-adv-x="1052" d="M193 0v1470h64v-895l644 467h94l-678 -491l707 -551h-100l-667 520v-520h-64zM643 -96l-129 -242h-58l122 242h65z" />
<glyph unicode="&#x139;" horiz-adv-x="1134" d="M318 1670h-72l229 228h90zM217 0v1470h67v-1412h804v-58h-871z" />
<glyph unicode="&#x13a;" d="M531 1898l-273 -258h-75l260 258h88zM190 0v1470h64v-1470h-64z" />
<glyph unicode="&#x13b;" horiz-adv-x="1134" d="M217 0v1470h67v-1412h804v-58h-871zM687 -96l-129 -242h-58l122 242h65z" />
<glyph unicode="&#x13c;" d="M190 0v1470h64v-1470h-64zM256 -96l-129 -242h-58l122 242h65z" />
<glyph unicode="&#x13d;" horiz-adv-x="1134" d="M674 1670h60v-328h-60v328zM217 0v1470h67v-1412h804v-58h-871z" />
<glyph unicode="&#x13e;" d="M190 0v1470h64v-1470h-64zM394 1470h60v-328h-60v328z" />
<glyph unicode="&#x13f;" horiz-adv-x="1134" d="M217 0v1470h67v-1412h804v-58h-871zM720 665h-69v199h69v-199z" />
<glyph unicode="&#x140;" d="M190 0v1470h64v-1470h-64zM463 636h-69v199h69v-199z" />
<glyph unicode="&#x143;" horiz-adv-x="1507" d="M821 1670h-72l229 228h90zM217 0v1470h84l922 -1380h2v1380h65v-1470h-84l-922 1381h-2v-1381h-65z" />
<glyph unicode="&#x144;" horiz-adv-x="1168" d="M907 1470l-273 -258h-75l260 258h88zM190 0v1042h64v-195q45 100 134 156t220 56q190 0 294 -112t104 -319v-628h-64v621q0 192 -91.5 286.5t-251.5 94.5q-166 0 -255.5 -109.5t-89.5 -300.5v-592h-64z" />
<glyph unicode="&#x145;" horiz-adv-x="1507" d="M217 0v1470h84l922 -1380h2v1380h65v-1470h-84l-922 1381h-2v-1381h-65zM788 -96l-129 -242h-58l122 242h65z" />
<glyph unicode="&#x146;" horiz-adv-x="1168" d="M190 0v1042h64v-195q45 100 134 156t220 56q190 0 294 -112t104 -319v-628h-64v621q0 192 -91.5 286.5t-251.5 94.5q-166 0 -255.5 -109.5t-89.5 -300.5v-592h-64zM632 -246l-129 -242h-58l122 242h65z" />
<glyph unicode="&#x147;" horiz-adv-x="1507" d="M462 1898h75l217 -217l217 217h75l-259 -268h-66zM217 0v1470h84l922 -1380h2v1380h65v-1470h-84l-922 1381h-2v-1381h-65z" />
<glyph unicode="&#x148;" horiz-adv-x="1168" d="M565 1212l-220 258h68l185 -221l184 221h68l-220 -258h-65zM190 0v1042h64v-195q45 100 134 156t220 56q190 0 294 -112t104 -319v-628h-64v621q0 192 -91.5 286.5t-251.5 94.5q-166 0 -255.5 -109.5t-89.5 -300.5v-592h-64z" />
<glyph unicode="&#x149;" horiz-adv-x="1168" d="M285 1470l-104 -328h-67l110 328h61zM190 0v1042h64v-195q45 100 134 156t220 56q190 0 294 -112t104 -319v-628h-64v621q0 192 -91.5 286.5t-251.5 94.5q-166 0 -255.5 -109.5t-89.5 -300.5v-592h-64z" />
<glyph unicode="&#x14c;" horiz-adv-x="1648" d="M549 1845v53h550v-53h-550zM824 -23q-207 0 -368.5 98t-249 270t-87.5 389v2q0 217 87.5 389t249 270t368.5 98t368.5 -98t249 -270t87.5 -389v-2q0 -217 -87.5 -389t-249 -270t-368.5 -98zM824 36q187 0 332 90t224 248.5t79 359.5v2q0 201 -79 359.5t-224 248.5 t-332 90t-332 -90t-224 -248.5t-79 -359.5v-2q0 -201 79 -359.5t224 -248.5t332 -90z" />
<glyph unicode="&#x14d;" horiz-adv-x="1236" d="M343 1417v53h550v-53h-550zM618 -23q-214 0 -358 148t-144 392v2q0 244 144 392t358 148t358 -148t144 -392v-2q0 -244 -144 -392t-358 -148zM618 34q186 0 310.5 131t124.5 352v2q0 221 -124.5 352t-310.5 131t-310.5 -131t-124.5 -352v-2q0 -221 124.5 -352t310.5 -131 z" />
<glyph unicode="&#x14e;" horiz-adv-x="1648" d="M593 1898h57q10 -66 56.5 -104.5t117.5 -38.5t117.5 38.5t56.5 104.5h57q-11 -90 -73 -143t-158 -53t-158 53t-73 143zM824 -23q-207 0 -368.5 98t-249 270t-87.5 389v2q0 217 87.5 389t249 270t368.5 98t368.5 -98t249 -270t87.5 -389v-2q0 -217 -87.5 -389t-249 -270 t-368.5 -98zM824 36q187 0 332 90t224 248.5t79 359.5v2q0 201 -79 359.5t-224 248.5t-332 90t-332 -90t-224 -248.5t-79 -359.5v-2q0 -201 79 -359.5t224 -248.5t332 -90z" />
<glyph unicode="&#x14f;" horiz-adv-x="1236" d="M387 1470h57q10 -66 56.5 -104.5t117.5 -38.5t117.5 38.5t56.5 104.5h57q-11 -90 -73 -143t-158 -53t-158 53t-73 143zM618 -23q-214 0 -358 148t-144 392v2q0 244 144 392t358 148t358 -148t144 -392v-2q0 -244 -144 -392t-358 -148zM618 34q186 0 310.5 131t124.5 352 v2q0 221 -124.5 352t-310.5 131t-310.5 -131t-124.5 -352v-2q0 -221 124.5 -352t310.5 -131z" />
<glyph unicode="&#x150;" horiz-adv-x="1648" d="M647 1670h-72l229 228h90zM1029 1670h-72l229 228h90zM824 -23q-207 0 -368.5 98t-249 270t-87.5 389v2q0 217 87.5 389t249 270t368.5 98t368.5 -98t249 -270t87.5 -389v-2q0 -217 -87.5 -389t-249 -270t-368.5 -98zM824 36q187 0 332 90t224 248.5t79 359.5v2 q0 201 -79 359.5t-224 248.5t-332 90t-332 -90t-224 -248.5t-79 -359.5v-2q0 -201 79 -359.5t224 -248.5t332 -90z" />
<glyph unicode="&#x151;" horiz-adv-x="1236" d="M718 1470l-273 -258h-75l260 258h88zM1106 1470l-273 -258h-75l260 258h88zM618 -23q-214 0 -358 148t-144 392v2q0 244 144 392t358 148t358 -148t144 -392v-2q0 -244 -144 -392t-358 -148zM618 34q186 0 310.5 131t124.5 352v2q0 221 -124.5 352t-310.5 131 t-310.5 -131t-124.5 -352v-2q0 -221 124.5 -352t310.5 -131z" />
<glyph unicode="&#x152;" horiz-adv-x="2468" d="M824 -23q-207 0 -368.5 98t-249 270t-87.5 389v2q0 217 87.5 389t249 270t368.5 98q221 0 388 -110t249 -301v388h898v-58h-831v-627v-7h778v-58h-777q0 -6 -0.5 -17.5t-0.5 -17.5v-627h832v-58h-899v388q-82 -191 -249 -301t-388 -110zM824 36q187 0 332 90t224 248.5 t79 359.5v2q0 201 -79 359.5t-224 248.5t-332 90t-332 -90t-224 -248.5t-79 -359.5v-2q0 -201 79 -359.5t224 -248.5t332 -90z" />
<glyph unicode="&#x153;" horiz-adv-x="2147" d="M618 -23q-214 0 -358 148t-144 392v2q0 244 144 392t358 148q162 0 288 -87.5t180 -242.5q53 155 178 242.5t285 87.5q217 0 350.5 -150.5t133.5 -393.5v-1h-913q1 -222 125 -351.5t315 -129.5q156 0 257.5 69.5t140.5 193.5h66q-43 -148 -163 -233.5t-302 -85.5 q-168 0 -294 87.5t-179 242.5q-53 -154 -179.5 -242t-288.5 -88zM1122 569h842v1q-7 193 -121 313t-294 120q-175 0 -294.5 -114.5t-132.5 -319.5zM618 34q186 0 310.5 131t124.5 352v2q0 221 -124.5 352t-310.5 131t-310.5 -131t-124.5 -352v-2q0 -221 124.5 -352 t310.5 -131z" />
<glyph unicode="&#x154;" horiz-adv-x="1350" d="M694 1670h-72l229 228h90zM217 0v1470h421q268 0 410.5 -93t142.5 -300v-2q0 -191 -123 -284.5t-353 -106.5l551 -684h-79l-548 682h-1h-354v-682h-67zM284 739h354q110 0 193.5 16t151 53t103 104t35.5 163v2q0 96 -35.5 163t-103 104t-151 53t-193.5 16h-354v-674z" />
<glyph unicode="&#x155;" horiz-adv-x="658" d="M715 1470l-273 -258h-75l260 258h88zM190 0v1042h64v-227q36 104 121.5 170.5t218.5 66.5h28v-61h-37q-86 0 -151 -36t-103.5 -100t-57.5 -144t-19 -176v-535h-64z" />
<glyph unicode="&#x156;" horiz-adv-x="1350" d="M217 0v1470h421q268 0 410.5 -93t142.5 -300v-2q0 -191 -123 -284.5t-353 -106.5l551 -684h-79l-548 682h-1h-354v-682h-67zM284 739h354q110 0 193.5 16t151 53t103 104t35.5 163v2q0 96 -35.5 163t-103 104t-151 53t-193.5 16h-354v-674zM776 -96l-129 -242h-58 l122 242h65z" />
<glyph unicode="&#x157;" horiz-adv-x="658" d="M190 0v1042h64v-227q36 104 121.5 170.5t218.5 66.5h28v-61h-37q-86 0 -151 -36t-103.5 -100t-57.5 -144t-19 -176v-535h-64zM256 -96l-129 -242h-58l122 242h65z" />
<glyph unicode="&#x158;" horiz-adv-x="1350" d="M335 1898h75l217 -217l217 217h75l-259 -268h-66zM217 0v1470h421q268 0 410.5 -93t142.5 -300v-2q0 -191 -123 -284.5t-353 -106.5l551 -684h-79l-548 682h-1h-354v-682h-67zM284 739h354q110 0 193.5 16t151 53t103 104t35.5 163v2q0 96 -35.5 163t-103 104t-151 53 t-193.5 16h-354v-674z" />
<glyph unicode="&#x159;" horiz-adv-x="658" d="M373 1212l-220 258h68l185 -221l184 221h68l-220 -258h-65zM190 0v1042h64v-227q36 104 121.5 170.5t218.5 66.5h28v-61h-37q-86 0 -151 -36t-103.5 -100t-57.5 -144t-19 -176v-535h-64z" />
<glyph unicode="&#x15a;" horiz-adv-x="1261" d="M702 1670h-72l229 228h90zM659 -23q-222 0 -368 108.5t-183 332.5h69q36 -198 163 -292t321 -94q85 0 160 19t137.5 58t99 105.5t36.5 153.5v2q0 63 -21.5 114.5t-56 87t-88 63.5t-107.5 45.5t-124 32.5l-186 42q-77 17 -139.5 46t-113.5 73t-79 108.5t-28 145.5v2 q0 113 66.5 197t170.5 125t227 41q205 0 335.5 -100t168.5 -293h-69q-38 167 -151 252.5t-287 85.5q-101 0 -189 -34t-145.5 -105.5t-57.5 -166.5v-2q0 -244 308 -313l186 -42q75 -17 134.5 -36.5t120.5 -52.5t101.5 -73.5t66 -101t25.5 -134.5v-2q0 -190 -140.5 -294 t-362.5 -104z" />
<glyph unicode="&#x15b;" horiz-adv-x="1016" d="M817 1470l-273 -258h-75l260 258h88zM524 -23q-188 0 -294 86.5t-132 239.5h66q53 -273 363 -273q143 0 234.5 59t91.5 174v2q0 49 -18.5 87.5t-45 62t-71 42t-80.5 27.5t-90 19l-138 26q-134 25 -212 89.5t-78 175.5v2q0 118 107 190.5t268 72.5t262 -69.5t130 -208.5 h-66q-56 225 -329 225q-78 0 -146 -22t-115 -71t-47 -116v-2q0 -163 245 -209l143 -27q58 -11 101.5 -23t92 -34.5t79.5 -52t51.5 -75t20.5 -103.5v-2q0 -139 -108.5 -215.5t-284.5 -76.5z" />
<glyph unicode="&#x15c;" horiz-adv-x="1261" d="M343 1630l259 268h66l259 -268h-75l-217 217l-217 -217h-75zM659 -23q-222 0 -368 108.5t-183 332.5h69q36 -198 163 -292t321 -94q85 0 160 19t137.5 58t99 105.5t36.5 153.5v2q0 63 -21.5 114.5t-56 87t-88 63.5t-107.5 45.5t-124 32.5l-186 42q-77 17 -139.5 46 t-113.5 73t-79 108.5t-28 145.5v2q0 113 66.5 197t170.5 125t227 41q205 0 335.5 -100t168.5 -293h-69q-38 167 -151 252.5t-287 85.5q-101 0 -189 -34t-145.5 -105.5t-57.5 -166.5v-2q0 -244 308 -313l186 -42q75 -17 134.5 -36.5t120.5 -52.5t101.5 -73.5t66 -101 t25.5 -134.5v-2q0 -190 -140.5 -294t-362.5 -104z" />
<glyph unicode="&#x15d;" horiz-adv-x="1016" d="M255 1212l220 258h65l220 -258h-68l-184 221l-185 -221h-68zM524 -23q-188 0 -294 86.5t-132 239.5h66q53 -273 363 -273q143 0 234.5 59t91.5 174v2q0 49 -18.5 87.5t-45 62t-71 42t-80.5 27.5t-90 19l-138 26q-134 25 -212 89.5t-78 175.5v2q0 118 107 190.5t268 72.5 t262 -69.5t130 -208.5h-66q-56 225 -329 225q-78 0 -146 -22t-115 -71t-47 -116v-2q0 -163 245 -209l143 -27q58 -11 101.5 -23t92 -34.5t79.5 -52t51.5 -75t20.5 -103.5v-2q0 -139 -108.5 -215.5t-284.5 -76.5z" />
<glyph unicode="&#x15e;" horiz-adv-x="1261" d="M659 -23q-222 0 -368 108.5t-183 332.5h69q36 -198 163 -292t321 -94q85 0 160 19t137.5 58t99 105.5t36.5 153.5v2q0 63 -21.5 114.5t-56 87t-88 63.5t-107.5 45.5t-124 32.5l-186 42q-77 17 -139.5 46t-113.5 73t-79 108.5t-28 145.5v2q0 113 66.5 197t170.5 125 t227 41q205 0 335.5 -100t168.5 -293h-69q-38 167 -151 252.5t-287 85.5q-101 0 -189 -34t-145.5 -105.5t-57.5 -166.5v-2q0 -244 308 -313l186 -42q75 -17 134.5 -36.5t120.5 -52.5t101.5 -73.5t66 -101t25.5 -134.5v-2q0 -190 -140.5 -294t-362.5 -104zM663 -96l-122 -242 h-65l129 242h58z" />
<glyph unicode="&#x15f;" horiz-adv-x="1016" d="M524 -23q-188 0 -294 86.5t-132 239.5h66q53 -273 363 -273q143 0 234.5 59t91.5 174v2q0 49 -18.5 87.5t-45 62t-71 42t-80.5 27.5t-90 19l-138 26q-134 25 -212 89.5t-78 175.5v2q0 118 107 190.5t268 72.5t262 -69.5t130 -208.5h-66q-56 225 -329 225q-78 0 -146 -22 t-115 -71t-47 -116v-2q0 -163 245 -209l143 -27q58 -11 101.5 -23t92 -34.5t79.5 -52t51.5 -75t20.5 -103.5v-2q0 -139 -108.5 -215.5t-284.5 -76.5zM536 -96l-122 -242h-65l129 242h58z" />
<glyph unicode="&#x160;" horiz-adv-x="1261" d="M343 1898h75l217 -217l217 217h75l-259 -268h-66zM659 -23q-222 0 -368 108.5t-183 332.5h69q36 -198 163 -292t321 -94q85 0 160 19t137.5 58t99 105.5t36.5 153.5v2q0 63 -21.5 114.5t-56 87t-88 63.5t-107.5 45.5t-124 32.5l-186 42q-77 17 -139.5 46t-113.5 73 t-79 108.5t-28 145.5v2q0 113 66.5 197t170.5 125t227 41q205 0 335.5 -100t168.5 -293h-69q-38 167 -151 252.5t-287 85.5q-101 0 -189 -34t-145.5 -105.5t-57.5 -166.5v-2q0 -244 308 -313l186 -42q75 -17 134.5 -36.5t120.5 -52.5t101.5 -73.5t66 -101t25.5 -134.5v-2 q0 -190 -140.5 -294t-362.5 -104z" />
<glyph unicode="&#x161;" horiz-adv-x="1016" d="M475 1212l-220 258h68l185 -221l184 221h68l-220 -258h-65zM524 -23q-188 0 -294 86.5t-132 239.5h66q53 -273 363 -273q143 0 234.5 59t91.5 174v2q0 49 -18.5 87.5t-45 62t-71 42t-80.5 27.5t-90 19l-138 26q-134 25 -212 89.5t-78 175.5v2q0 118 107 190.5t268 72.5 t262 -69.5t130 -208.5h-66q-56 225 -329 225q-78 0 -146 -22t-115 -71t-47 -116v-2q0 -163 245 -209l143 -27q58 -11 101.5 -23t92 -34.5t79.5 -52t51.5 -75t20.5 -103.5v-2q0 -139 -108.5 -215.5t-284.5 -76.5z" />
<glyph unicode="&#x162;" horiz-adv-x="1255" d="M594 0v1412h-568v58h1203v-58h-568v-1412h-67zM656 -96l-122 -242h-65l129 242h58z" />
<glyph unicode="&#x163;" horiz-adv-x="638" d="M483 0q-139 0 -196 68.5t-57 222.5v696h-182v55h182v241h64v-241h260v-55h-260v-689q0 -131 44.5 -187t154.5 -56h52v-55h-62zM335 -96l-129 -242h-58l122 242h65z" />
<glyph unicode="&#x164;" horiz-adv-x="1255" d="M336 1898h75l217 -217l217 217h75l-259 -268h-66zM594 0v1412h-568v58h1203v-58h-568v-1412h-67z" />
<glyph unicode="&#x165;" horiz-adv-x="638" d="M414 1670h60v-328h-60v328zM483 0q-139 0 -196 68.5t-57 222.5v696h-182v55h182v241h64v-241h260v-55h-260v-689q0 -131 44.5 -187t154.5 -56h52v-55h-62z" />
<glyph unicode="&#x166;" horiz-adv-x="1255" d="M594 0v866h-362v56h362v490h-568v58h1203v-58h-568v-490h358v-56h-358v-866h-67z" />
<glyph unicode="&#x167;" horiz-adv-x="638" d="M483 0q-139 0 -196 68.5t-57 222.5v205h-182v50h182v441h-182v55h182v241h64v-241h260v-55h-260v-441h260v-50h-260v-198q0 -131 44.5 -187t154.5 -56h52v-55h-62z" />
<glyph unicode="&#x168;" horiz-adv-x="1472" d="M988 1898h47q0 -88 -41 -137.5t-113 -49.5q-39 0 -79.5 19.5t-69 43t-65.5 43t-71 19.5q-54 0 -82 -35.5t-28 -101.5h-48q0 88 40.5 137t113.5 49q39 0 79.5 -19.5t68.5 -43t65 -43t71 -19.5q110 0 112 138zM735 -23q-276 0 -405.5 141t-129.5 448v904h67v-905 q0 -276 112 -403t356 -127q245 0 357.5 127t112.5 403v905h67v-904q0 -307 -130 -448t-407 -141z" />
<glyph unicode="&#x169;" horiz-adv-x="1168" d="M823 1471h47q0 -88 -41 -137.5t-113 -49.5q-39 0 -79.5 19.5t-69 43t-66 43t-70.5 19.5q-54 0 -82 -35.5t-28 -101.5h-48q0 88 40.5 137t113.5 49q39 0 79.5 -19.5t68.5 -43t65.5 -43t70.5 -19.5q110 0 112 138zM560 -23q-190 0 -294 112t-104 319v634h64v-627 q0 -192 91.5 -286.5t251.5 -94.5q166 0 255.5 109.5t89.5 300.5v598h64v-1042h-64v189q-45 -100 -134 -156t-220 -56z" />
<glyph unicode="&#x16a;" horiz-adv-x="1472" d="M461 1845v53h550v-53h-550zM735 -23q-276 0 -405.5 141t-129.5 448v904h67v-905q0 -276 112 -403t356 -127q245 0 357.5 127t112.5 403v905h67v-904q0 -307 -130 -448t-407 -141z" />
<glyph unicode="&#x16b;" horiz-adv-x="1168" d="M296 1417v53h550v-53h-550zM560 -23q-190 0 -294 112t-104 319v634h64v-627q0 -192 91.5 -286.5t251.5 -94.5q166 0 255.5 109.5t89.5 300.5v598h64v-1042h-64v189q-45 -100 -134 -156t-220 -56z" />
<glyph unicode="&#x16c;" horiz-adv-x="1472" d="M505 1898h57q10 -66 56.5 -104.5t117.5 -38.5t117.5 38.5t56.5 104.5h57q-11 -90 -73 -143t-158 -53t-158 53t-73 143zM735 -23q-276 0 -405.5 141t-129.5 448v904h67v-905q0 -276 112 -403t356 -127q245 0 357.5 127t112.5 403v905h67v-904q0 -307 -130 -448t-407 -141z " />
<glyph unicode="&#x16d;" horiz-adv-x="1168" d="M340 1470h57q10 -66 56.5 -104.5t117.5 -38.5t117.5 38.5t56.5 104.5h57q-11 -90 -73 -143t-158 -53t-158 53t-73 143zM560 -23q-190 0 -294 112t-104 319v634h64v-627q0 -192 91.5 -286.5t251.5 -94.5q166 0 255.5 109.5t89.5 300.5v598h64v-1042h-64v189 q-45 -100 -134 -156t-220 -56z" />
<glyph unicode="&#x16e;" horiz-adv-x="1472" d="M513 1851q0 90 66.5 153.5t156.5 63.5q92 0 157.5 -63t65.5 -154q0 -92 -66 -157t-157 -65t-157 65t-66 157zM569 1852q0 -69 48.5 -119.5t118.5 -50.5q71 0 119 50t48 120q0 67 -48 115t-119 48q-70 0 -118.5 -48.5t-48.5 -114.5zM735 -23q-276 0 -405.5 141t-129.5 448 v904h67v-905q0 -276 112 -403t356 -127q245 0 357.5 127t112.5 403v905h67v-904q0 -307 -130 -448t-407 -141z" />
<glyph unicode="&#x16f;" horiz-adv-x="1168" d="M348 1424q0 90 66.5 153.5t156.5 63.5q92 0 157.5 -63t65.5 -154q0 -92 -66 -157t-157 -65t-157 65t-66 157zM404 1425q0 -69 48.5 -119.5t118.5 -50.5q71 0 119 50t48 120q0 67 -48 115t-119 48q-70 0 -118.5 -48.5t-48.5 -114.5zM560 -23q-190 0 -294 112t-104 319v634 h64v-627q0 -192 91.5 -286.5t251.5 -94.5q166 0 255.5 109.5t89.5 300.5v598h64v-1042h-64v189q-45 -100 -134 -156t-220 -56z" />
<glyph unicode="&#x170;" horiz-adv-x="1472" d="M558 1670h-72l229 228h90zM941 1670h-72l229 228h90zM735 -23q-276 0 -405.5 141t-129.5 448v904h67v-905q0 -276 112 -403t356 -127q245 0 357.5 127t112.5 403v905h67v-904q0 -307 -130 -448t-407 -141z" />
<glyph unicode="&#x171;" horiz-adv-x="1168" d="M671 1470l-273 -258h-75l260 258h88zM1059 1470l-273 -258h-75l260 258h88zM560 -23q-190 0 -294 112t-104 319v634h64v-627q0 -192 91.5 -286.5t251.5 -94.5q166 0 255.5 109.5t89.5 300.5v598h64v-1042h-64v189q-45 -100 -134 -156t-220 -56z" />
<glyph unicode="&#x172;" horiz-adv-x="1472" d="M858 -295l18 -44q-45 -20 -93 -20q-77 0 -130 47.5t-53 120.5q0 92 80 169q-247 14 -363.5 155.5t-116.5 432.5v904h67v-905q0 -276 112 -403t356 -127q245 0 357.5 127t112.5 403v905h67v-904q0 -305 -129 -446t-403 -143q-85 -77 -85 -155q0 -54 37.5 -92t93.5 -38 q40 0 72 13z" />
<glyph unicode="&#x173;" horiz-adv-x="1168" d="M560 -23q-190 0 -294 112t-104 319v634h64v-627q0 -192 91.5 -286.5t251.5 -94.5q166 0 255.5 109.5t89.5 300.5v598h64v-1042q-113 -85 -113 -178q0 -54 37.5 -92t93.5 -38q40 0 72 13l18 -44q-45 -20 -93 -20q-77 0 -130 47.5t-53 120.5q0 49 27 100t78 91h-1v189 q-45 -100 -134 -156t-220 -56z" />
<glyph unicode="&#x174;" horiz-adv-x="1886" d="M651 1630l259 268h66l259 -268h-75l-217 217l-217 -217h-75zM488 -11l-425 1481h69l395 -1379l379 1386h74l380 -1386l393 1379h70l-424 -1481h-74l-382 1393l-380 -1393h-75z" />
<glyph unicode="&#x175;" horiz-adv-x="1608" d="M551 1212l220 258h65l220 -258h-68l-184 221l-185 -221h-68zM406 -8l-338 1050h68l306 -960l332 968h61l334 -970l308 962h63l-338 -1050h-64l-336 966l-331 -966h-65z" />
<glyph unicode="&#x176;" horiz-adv-x="1285" d="M351 1630l259 268h66l259 -268h-75l-217 217l-217 -217h-75zM610 0v669l-576 801h77l532 -742h2l57 82l472 660h77l-574 -801v-669h-67z" />
<glyph unicode="&#x177;" horiz-adv-x="1094" d="M294 1212l220 258h65l220 -258h-68l-184 221l-185 -221h-68zM322 -385l184 405l-450 1022h70l415 -945h2l428 945h67l-649 -1427h-67z" />
<glyph unicode="&#x178;" horiz-adv-x="1285" d="M433 1723h-66v175h66v-175zM920 1723h-66v175h66v-175zM610 0v669l-576 801h77l532 -742h2l57 82l472 660h77l-574 -801v-669h-67z" />
<glyph unicode="&#x179;" horiz-adv-x="1243" d="M761 1670h-72l229 228h90zM87 0v56l965 1356h-897v58h978v-56l-966 -1356h992v-58h-1072z" />
<glyph unicode="&#x17a;" horiz-adv-x="982" d="M830 1470l-273 -258h-75l260 258h88zM86 0v53l723 934h-682v55h758v-53l-723 -934h734v-55h-810z" />
<glyph unicode="&#x17b;" horiz-adv-x="1243" d="M727 1723h-66v175h66v-175zM87 0v56l965 1356h-897v58h978v-56l-966 -1356h992v-58h-1072z" />
<glyph unicode="&#x17c;" horiz-adv-x="982" d="M552 1280h-63v190h63v-190zM86 0v53l723 934h-682v55h758v-53l-723 -934h734v-55h-810z" />
<glyph unicode="&#x17d;" horiz-adv-x="1243" d="M402 1898h75l217 -217l217 217h75l-259 -268h-66zM87 0v56l965 1356h-897v58h978v-56l-966 -1356h992v-58h-1072z" />
<glyph unicode="&#x17e;" horiz-adv-x="982" d="M488 1212l-220 258h68l185 -221l184 221h68l-220 -258h-65zM86 0v53l723 934h-682v55h758v-53l-723 -934h734v-55h-810z" />
<glyph unicode="&#x218;" horiz-adv-x="1261" d="M659 -23q-222 0 -368 108.5t-183 332.5h69q36 -198 163 -292t321 -94q85 0 160 19t137.5 58t99 105.5t36.5 153.5v2q0 63 -21.5 114.5t-56 87t-88 63.5t-107.5 45.5t-124 32.5l-186 42q-77 17 -139.5 46t-113.5 73t-79 108.5t-28 145.5v2q0 113 66.5 197t170.5 125 t227 41q205 0 335.5 -100t168.5 -293h-69q-38 167 -151 252.5t-287 85.5q-101 0 -189 -34t-145.5 -105.5t-57.5 -166.5v-2q0 -244 308 -313l186 -42q75 -17 134.5 -36.5t120.5 -52.5t101.5 -73.5t66 -101t25.5 -134.5v-2q0 -190 -140.5 -294t-362.5 -104zM669 -96l-129 -242 h-58l122 242h65z" />
<glyph unicode="&#x219;" horiz-adv-x="1016" d="M524 -23q-188 0 -294 86.5t-132 239.5h66q53 -273 363 -273q143 0 234.5 59t91.5 174v2q0 49 -18.5 87.5t-45 62t-71 42t-80.5 27.5t-90 19l-138 26q-134 25 -212 89.5t-78 175.5v2q0 118 107 190.5t268 72.5t262 -69.5t130 -208.5h-66q-56 225 -329 225q-78 0 -146 -22 t-115 -71t-47 -116v-2q0 -163 245 -209l143 -27q58 -11 101.5 -23t92 -34.5t79.5 -52t51.5 -75t20.5 -103.5v-2q0 -139 -108.5 -215.5t-284.5 -76.5zM542 -96l-129 -242h-58l122 242h65z" />
<glyph unicode="&#x21a;" horiz-adv-x="1255" d="M594 0v1412h-568v58h1203v-58h-568v-1412h-67zM662 -96l-129 -242h-58l122 242h65z" />
<glyph unicode="&#x21b;" horiz-adv-x="638" d="M483 0q-139 0 -196 68.5t-57 222.5v696h-182v55h182v241h64v-241h260v-55h-260v-689q0 -131 44.5 -187t154.5 -56h52v-55h-62zM335 -96l-129 -242h-58l122 242h65z" />
<glyph unicode="&#x2c6;" horiz-adv-x="604" d="M50 1212l220 258h65l220 -258h-68l-184 221l-185 -221h-68z" />
<glyph unicode="&#x2da;" horiz-adv-x="546" d="M50 1424q0 90 66.5 153.5t156.5 63.5q92 0 157.5 -63t65.5 -154q0 -92 -66 -157t-157 -65t-157 65t-66 157zM106 1425q0 -69 48.5 -119.5t118.5 -50.5q71 0 119 50t48 120q0 67 -48 115t-119 48q-70 0 -118.5 -48.5t-48.5 -114.5z" />
<glyph unicode="&#x2dc;" horiz-adv-x="697" d="M600 1471h47q0 -88 -41 -137.5t-113 -49.5q-39 0 -79.5 19.5t-69 43t-65.5 43t-71 19.5q-54 0 -82 -35.5t-28 -101.5h-48q0 88 40.5 137t113.5 49q39 0 79.5 -19.5t68.5 -43t65 -43t71 -19.5q110 0 112 138z" />
<glyph unicode="&#x2000;" horiz-adv-x="1034" />
<glyph unicode="&#x2001;" horiz-adv-x="2068" />
<glyph unicode="&#x2002;" horiz-adv-x="1034" />
<glyph unicode="&#x2003;" horiz-adv-x="2068" />
<glyph unicode="&#x2004;" horiz-adv-x="689" />
<glyph unicode="&#x2005;" horiz-adv-x="517" />
<glyph unicode="&#x2006;" horiz-adv-x="344" />
<glyph unicode="&#x2007;" horiz-adv-x="344" />
<glyph unicode="&#x2008;" horiz-adv-x="258" />
<glyph unicode="&#x2009;" horiz-adv-x="413" />
<glyph unicode="&#x200a;" horiz-adv-x="114" />
<glyph unicode="&#x2010;" horiz-adv-x="769" d="M100 492v57h569v-57h-569z" />
<glyph unicode="&#x2011;" horiz-adv-x="769" d="M100 492v57h569v-57h-569z" />
<glyph unicode="&#x2012;" horiz-adv-x="769" d="M100 492v57h569v-57h-569z" />
<glyph unicode="&#x2013;" horiz-adv-x="1137" d="M100 492v57h937v-57h-937z" />
<glyph unicode="&#x2014;" horiz-adv-x="1937" d="M100 492v57h1737v-57h-1737z" />
<glyph unicode="&#x2018;" horiz-adv-x="440" d="M330 1471l-131 -427h-69l141 427h59z" />
<glyph unicode="&#x2019;" horiz-adv-x="440" d="M110 1043l131 427h69l-141 -427h-59z" />
<glyph unicode="&#x201a;" horiz-adv-x="440" d="M110 -228l131 427h69l-141 -427h-59z" />
<glyph unicode="&#x201c;" horiz-adv-x="809" d="M330 1471l-131 -427h-69l141 427h59zM699 1471l-131 -427h-69l141 427h59z" />
<glyph unicode="&#x201d;" horiz-adv-x="809" d="M479 1043l131 427h69l-141 -427h-59zM110 1043l131 427h69l-141 -427h-59z" />
<glyph unicode="&#x201e;" horiz-adv-x="809" d="M110 -228l131 427h69l-141 -427h-59zM479 -228l131 427h69l-141 -427h-59z" />
<glyph unicode="&#x2026;" horiz-adv-x="1455" d="M762 0h-69v199h69v-199zM1247 0h-69v199h69v-199zM277 0h-69v199h69v-199z" />
<glyph unicode="&#x202f;" horiz-adv-x="413" />
<glyph unicode="&#x2039;" horiz-adv-x="602" d="M350 192l-236 373l236 372h68l-234 -372l234 -373h-68z" />
<glyph unicode="&#x203a;" horiz-adv-x="602" d="M488 565l-236 -373h-68l234 373l-234 372h68z" />
<glyph unicode="&#x205f;" horiz-adv-x="517" />
<glyph unicode="&#x20ac;" horiz-adv-x="1504" d="M858 -23q-230 0 -377.5 156.5t-183.5 428.5h-258l25 50h227q-5 65 -5 120v6q0 61 4 106h-251l25 50h231q33 278 181.5 438.5t381.5 160.5q206 0 344.5 -116.5t175.5 -335.5h-67q-35 193 -158 293.5t-295 100.5q-201 0 -330.5 -145t-161.5 -396h500l-25 -50h-480 q-4 -45 -4 -106v-6q0 -55 5 -120h504l-25 -50h-473q34 -245 163 -386t327 -141q172 0 295 100.5t158 293.5h67q-37 -219 -175.5 -335.5t-344.5 -116.5z" />
<glyph unicode="&#x25fc;" horiz-adv-x="1040" d="M0 1040h1040v-1040h-1040v1040z" />
</font>
</defs>
</svg>
